#TITLE:Carnival;
#SUBTITLE:(TEEZ Remix);
#ARTIST:QUINTINO;
#TITLETRANSLIT:;
#SUBTITLETRANSLIT:;
#ARTISTTRANSLIT:;
#GENRE:;
#CREDIT:;
#BANNER:Carnival_TEEZ_Remix-bn.png;
#BACKGROUND:Carnival_TEEZ_Remix-bg.png;
#LYRICSPATH:;
#CDTITLE:;
#MUSIC:Carnival remix.ogg;
#OFFSET:0.006000;
#SAMPLESTART:38.403000;
#SAMPLELENGTH:12.800000;
#SELECTABLE:YES;
#DISPLAYBPM:150.000000;
#BPMS:0.000000=150.000000
,188.000000=300.000000
,192.000000=150.000000
,223.000000=300.000000
,223.750000=60.000000
,224.000000=150.000000
,252.000000=300.000000
,256.000000=150.000000
;
#STOPS:188.000000=0.100000,
188.500000=0.050000,
188.750000=0.050000,
189.000000=0.100000,
189.500000=0.100000,
190.000000=0.100000,
190.500000=0.100000,
191.000000=0.050000,
191.250000=0.050000,
191.500000=0.050000,
191.750000=0.050000,
252.000000=0.100000,
252.500000=0.050000,
252.750000=0.050000,
253.000000=0.100000,
253.500000=0.100000,
254.000000=0.050000,
254.250000=0.050000,
254.500000=0.100000,
255.000000=0.050000,
255.250000=0.050000,
255.500000=0.100000
;
#BGCHANGES:;
#KEYSOUNDS:;
#ATTACKS:;

//---------------dance-single - sangyule----------------
#NOTES:
     dance-single:
     :
     Challenge:
     11:
     0.727832,0.867960,0.094828,0.068966,0.840517,591.000000,580.000000,11.000000,8.000000,26.000000,0.000000,0.727832,0.867960,0.094828,0.068966,0.840517,591.000000,580.000000,11.000000,8.000000,26.000000,0.000000:
0000
0000
0000
0000
,
0000
0000
0000
0000
,
0000
0000
0000
0000
,
0000
0000
0000
0000
,
0000
0000
0000
0000
,
0000
0000
0000
0000
,
0000
0000
0000
0000
,
0000
0000
0000
00M0
,
1001
0000
0000
0000
0000
0000
1000
0001
0010
0000
0000
0000
0001
0000
0000
0000
0100
0000
0000
0000
0000
0000
0000
0000
0100
0000
0000
0000
0000
0000
0000
0000
,
0010
1000
0100
0000
1000
0000
0001
0000
,
M0MM
0000
0000
0000
0000
0000
0001
1000
0100
0000
0000
0000
1000
0000
0000
0000
0010
0000
0000
0000
0000
0000
0000
0000
0010
0000
0000
0000
0000
0000
0000
0000
,
0100
0001
0010
0000
0001
0000
1000
0000
,
M0MM
0000
0000
0000
0000
0000
1000
0001
0100
0000
0000
0000
0001
0000
0000
0000
0010
0000
0000
0000
0000
0000
0000
0000
0010
0000
0000
0000
0000
0000
0000
0000
,
0100
1000
0010
0000
1000
0000
0001
0000
,
MM0M
0000
0000
0000
0000
0000
0001
1000
0010
0000
0000
0000
1000
0000
0000
0000
0100
0000
0000
0000
0000
0000
0000
0000
0100
0000
0000
0000
0000
0000
0000
0000
,
0010
0000
0001
0000
0100
0000
0000
0001
1000
0010
0100
0000
0010
0000
0000
0000
,
1001
0000
0000
0001
1000
0000
0100
0000
1000
0001
0010
0000
0001
0000
0000
0000
,
0100
0000
0000
0010
0100
0000
0001
0000
1000
0001
0010
0000
0001
0000
1000
0100
,
1000
0000
0000
0001
1000
0000
0010
0000
1000
0100
0010
0000
0100
0000
0000
0000
,
1000
0000
0000
0010
0100
0000
0010
0000
0100
0001
0000
0000
1000
0000
0001
0010
,
0001
0000
1000
0100
1000
0000
0010
0000
0100
0000
0001
0100
0001
0000
0010
0000
,
0100
0000
1000
0001
1000
0000
0010
0000
0100
0000
0001
0100
0001
0000
1000
0000
,
0001
0010
0100
0010
0001
0100
0010
1000
0010
0100
0001
1000
0100
0010
0001
1000
,
0M00
0000
0000
0000
0000
0000
0MM0
0000
0000
0100
1000
0000
0001
0000
0100
0010
,
1000
0000
0000
0000
0001
0000
0010
0000
0001
0100
0100
1000
0010
0100
0100
1000
,
0001
0010
0010
1000
0100
0010
0010
1000
0001
0100
0010
1000
0001
0000
0000
0000
,
1000
0000
0000
0000
0001
0000
0100
0000
0001
0010
0010
1000
0100
0010
0010
1000
,
0001
0000
0100
0000
0100
0000
1000
0000
0010
0000
0100
0000
0100
0000
1000
0000
0001
0100
0001
0100
0001
0000
0000
0000
1000
0000
0100
0000
0010
0000
0000
0000
,
0001
0000
0000
0000
1000
0000
0100
0000
1000
0010
0010
0001
0100
0010
0010
0001
,
1000
0100
0100
0001
0010
0100
0100
0001
1000
0010
0100
0001
1000
0000
0000
0000
,
0044
0000
0033
0000
1010
0000
1000
0000
0001
0010
0010
1000
0400
0000
0000
0000
,
1300
0000
0000
0100
0000
0000
0100
0000
0000
0001
0000
0000
0040
0000
0000
0000
0000
0000
0000
0000
0000
0000
0000
0000
0031
0000
0000
0010
0000
0000
0010
0000
0000
1000
0000
0000
0100
0000
0000
0000
0010
0000
0000
0000
0001
0000
0000
0000
,
1000
0000
0000
0000
0001
0000
0010
0000
0001
0000
0100
0010
0000
0000
0100
0000
,
0001
0100
0100
1000
0010
0010
0001
0100
0100
1000
0000
0000
,
0001
0000
0000
0000
1000
0000
0100
0000
0010
0100
0100
0001
1000
0010
0010
0001
,
1000
0000
0100
1000
0000
0000
0001
0000
0010
0100
0100
0001
1000
0001
0010
0000
,
0001
0000
0000
0000
0100
0000
0010
0000
1000
0000
0001
0010
0000
0000
0001
0000
,
1000
0010
0010
0001
1000
0100
0100
0001
0010
0100
0100
0001
1000
0000
0000
0000
,
1001
0000
0000
0000
0001
0000
0010
0000
0100
0000
1000
0100
0000
0000
1000
0000
,
0001
0100
0020
0000
0130
0000
0000
0001
1000
0100
1000
0000
00M0
0000
0000
0000
,
1001
0000
0000
1000
0010
0000
0000
0100
0000
0000
0100
0000
0001
0000
0010
0000
,
0010
0000
0000
0001
0100
0000
0000
0010
0000
0000
0010
1000
0001
0000
1000
0000
,
0001
0000
0000
0001
0100
0000
0000
0010
0000
0000
0010
0000
1000
0000
0100
0000
,
0100
0000
0000
1000
0010
0000
0000
0100
0000
0000
0100
0001
1000
0001
0010
0100
,
1000
0000
0000
1000
0100
0000
0000
0010
0000
0000
0010
0000
0001
0000
0100
0000
,
0100
0000
0000
0001
0010
0000
0000
0100
0000
0000
0100
1000
0001
0000
1000
0000
,
0001
0000
0000
0001
0010
0000
0000
0100
0000
0000
0100
0000
1000
0000
0010
0000
,
0010
0000
1000
0001
0010
0000
0100
0000
0100
0000
1000
0000
0001
0100
0010
1000
,
1001
0000
0000
0001
1000
0000
0010
0000
1000
0001
0100
0000
0001
0000
0010
0000
,
0010
0000
0000
0100
0010
0000
0001
0000
1000
0001
0100
0000
0001
0000
1000
0001
,
1000
0000
0000
0001
1000
0000
0100
0000
1000
0010
0100
0000
0010
0000
1000
0000
,
1000
0000
0000
0100
0010
0000
0100
0000
M010
0000
M000
0000
000M
0000
0000
0000
,
0001
0000
0001
0000
1000
0000
1000
0000
0010
0000
0010
0000
0100
0000
0100
0001
,
1000
1000
0001
0001
0010
0010
0100
0100
,
1000
0010
0100
0010
1000
0100
0010
0001
0010
0100
1000
0001
0100
0010
1000
0001
,
0M20
0000
0130
MMMM
,
1001
0000
0000
0000
0001
0100
0100
1000
0010
0000
0000
0010
1000
0010
0010
0001
,
0100
0000
0000
0000
0001
0010
0010
1000
0100
0000
0010
0000
0001
0000
1000
0001
,
0100
0000
0000
0000
0001
0010
0010
1000
0100
0000
0000
0100
1000
0100
0100
0001
,
0010
0000
0001
0000
0100
0000
0010
0000
1000
0000
0100
0000
100M
0000
0000
00M0
0000
0000
0M0M
0000
0000
0000
0000
0000
,
1001
0000
0000
0000
0001
0100
0100
0000
1000
0000
0000
1000
0010
0010
0001
0000
,
0100
0000
0000
0000
0010
0010
0001
0000
1000
0000
0000
1000
0010
0000
0100
0000
,
0100
0000
0000
0000
0001
0010
0010
0000
1000
0000
0000
1000
0100
0100
0001
0000
,
0010
0000
0001
1000
0001
0000
0100
0000
0010
1000
0010
0000
1000
0100
0010
0000
,
0014
0000
0000
0003
1010
0000
1000
0000
0100
0000
0001
0001
0010
0000
0002
0000
,
0103
0000
0000
0000
0000
0000
1000
0000
0000
1000
0000
0000
0010
0000
0000
0000
0000
0000
2000
0000
0000
0000
0000
0000
3100
0000
0000
0010
0000
0000
0001
0000
0000
0000
0000
0000
0100
0000
0000
0000
0010
0000
0000
0000
1000
0000
0000
0000
,
0001
0000
4000
0000
3100
0000
0000
0000
0001
0001
0010
0000
0001
1000
0020
0000
,
0130
0000
0000
0000
0001
0000
0000
0000
0100
0000
0000
0000
0010
0000
0000
0000
1000
0000
0000
0000
0010
0000
0000
0000
1000
0000
0000
0000
0000
0000
0100
0000
0000
1000
0000
0000
0002
0000
0000
0000
0000
0000
0000
0000
0000
0000
0000
0000
,
0013
0000
0000
0000
0001
0100
0100
1000
0040
0000
0000
0000
1030
0010
0010
0001
,
0100
0000
0000
0000
0001
0010
0010
1000
0400
0000
0000
0000
1300
0010
0010
0000
,
0001
0000
0000
0000
1000
0010
0010
0001
0400
0000
0000
0000
0301
0100
0100
1000
,
0010
0000
0000
0100
0000
0000
0002
0000
0000
0000
0000
0000
1003
0000
0000
0000
0000
0000
0000
0000
0000
0100
0000
0000
1000
0000
0000
0010
0000
0000
0200
0000
0000
0000
0000
0000
0301
0000
0000
0000
1000
0000
0000
0000
0001
0000
0000
0000
;

//---------------dance-single - sangyule----------------
#NOTES:
     dance-single:
     :
     Beginner:
     1:
     0.087438,0.183621,0.068966,0.000000,0.000000,71.000000,63.000000,8.000000,0.000000,0.000000,0.000000,0.087438,0.183621,0.068966,0.000000,0.000000,71.000000,63.000000,8.000000,0.000000,0.000000,0.000000:
// measure 0
0000
0000
0000
0000
,  // measure 1
0000
0000
0000
0000
,  // measure 2
0000
0000
0000
0000
,  // measure 3
0000
0000
0000
0000
,  // measure 4
0000
0000
0000
0000
,  // measure 5
0000
0000
0000
0000
,  // measure 6
0000
0000
0000
0000
,  // measure 7
0000
0000
0000
0000
,  // measure 8
1000
0000
0000
0000
,  // measure 9
0001
0000
0000
0000
,  // measure 10
1000
0000
0000
0000
,  // measure 11
0001
0000
0000
0000
,  // measure 12
0100
0000
0000
0000
,  // measure 13
0010
0000
0000
0000
,  // measure 14
0100
0000
0000
0000
,  // measure 15
0001
0000
0001
0000
,  // measure 16
1000
0000
0000
0000
,  // measure 17
0100
0000
0000
0000
,  // measure 18
0010
0000
0000
0000
,  // measure 19
0001
0000
0000
0000
,  // measure 20
1000
0000
0000
0000
,  // measure 21
0010
0000
0000
0000
,  // measure 22
1000
0000
0000
0000
,  // measure 23
0000
0000
0000
0000
,  // measure 24
1001
0000
0000
0001
,  // measure 25
0000
0000
0000
0000
,  // measure 26
1000
0000
0000
1000
,  // measure 27
0000
0000
0000
0000
,  // measure 28
0010
0000
0000
0010
,  // measure 29
0000
0000
0000
0000
,  // measure 30
0100
0000
0000
0000
,  // measure 31
0100
0000
0000
0000
,  // measure 32
1001
0000
0000
0001
,  // measure 33
0000
0000
0000
0000
,  // measure 34
1000
0000
0000
1000
,  // measure 35
0000
0000
0000
0000
,  // measure 36
0100
0000
0000
0100
,  // measure 37
0000
0000
0000
0000
,  // measure 38
0010
0000
0000
0010
,  // measure 39
0000
0000
0000
0000
,  // measure 40
0001
0000
0000
0000
,  // measure 41
1000
0000
0000
0000
,  // measure 42
0010
0000
0000
0000
,  // measure 43
0100
0000
0000
0000
,  // measure 44
0001
0000
0000
0000
,  // measure 45
1000
0000
0000
0000
,  // measure 46
0100
0000
0000
0000
,  // measure 47
0000
0000
0000
0000
,  // measure 48
1000
0000
0000
0000
,  // measure 49
0001
0000
0000
0000
,  // measure 50
0100
0000
0000
0000
,  // measure 51
0010
0000
0000
0000
,  // measure 52
1000
0000
1000
0000
,  // measure 53
1000
0000
1000
0000
,  // measure 54
0001
0000
0000
0000
,  // measure 55
0000
0000
0000
0000
,  // measure 56
1001
0000
0000
0000
,  // measure 57
1001
0000
0000
0000
,  // measure 58
0110
0000
0000
0000
,  // measure 59
0000
0000
0000
0000
,  // measure 60
0110
0000
0000
0000
,  // measure 61
0110
0000
0000
0000
,  // measure 62
1001
0000
0000
0000
,  // measure 63
0000
0000
0000
0000
,  // measure 64
1000
0000
1000
0000
,  // measure 65
0000
0000
0001
0000
,  // measure 66
0010
0000
0000
0000
,  // measure 67
0100
0000
0000
0000
,  // measure 68
1000
0000
0000
0000
,  // measure 69
0001
0000
0000
0000
,  // measure 70
0100
0000
0000
0000
,  // measure 71
0010
0000
0000
0000
;

//---------------dance-single - sangyule----------------
#NOTES:
     dance-single:
     :
     Easy:
     3:
     0.200739,0.278341,0.077586,0.077586,0.000000,163.000000,154.000000,9.000000,9.000000,1.000000,0.000000,0.200739,0.278341,0.077586,0.077586,0.000000,163.000000,154.000000,9.000000,9.000000,1.000000,0.000000:
0000
0000
0000
0000
,
0000
0000
0000
0000
,
0000
0000
0000
0000
,
0000
0000
0000
0000
,
0000
0000
0000
0000
,
0000
0000
0000
0000
,
0000
0000
0000
0000
,
0000
0000
0000
0000
,
1000
0000
0001
0000
,
0010
0000
0010
0000
,
0001
0000
0100
0000
,
0010
0000
0010
0000
,
1000
0000
0001
0000
,
0100
0000
0100
0000
,
0010
0000
1000
0000
,
0100
0100
0010
0010
,
0001
0000
0001
0000
,
1000
0000
1000
1000
,
0010
0000
0010
0000
,
0100
0000
0100
0100
,
0001
1000
0001
1000
,
0010
0100
0010
0100
,
0002
0000
0000
0000
,
0003
0000
0000
0000
,
1001
0001
0000
0010
,
0000
0100
0000
0000
,
1000
0001
0000
0100
,
0000
0010
1000
0001
,
1000
0001
0000
0010
,
0000
0001
1000
0000
,
0010
0010
0100
0000
,
0001
0000
1000
1000
,
0100
0000
1000
0000
,
0010
0010
0010
0010
,
1000
0000
0100
0100
,
0100
0000
0010
0010
,
0001
1000
0000
0010
,
0000
0100
0010
0000
,
1000
0001
0000
0010
,
0100
0100
1000
0000
,
1001
0001
0000
1000
,
0000
0010
0000
1000
,
0100
1000
0000
0001
,
0000
0100
0000
0010
,
1000
0001
0000
1000
,
0000
0100
0000
0010
,
0100
0010
0000
0002
,
0000
0000
0003
0000
,
1001
0000
1000
1000
,
0001
0000
0001
0001
,
0010
0000
0010
0010
,
0100
0000
0000
0000
,
1000
0001
1000
0001
,
0010
0100
0010
0100
,
2000
0000
0000
0000
,
3002
0000
0003
0M00
,
1001
0000
0000
0000
,
1100
0000
0001
0001
,
0100
0000
0000
0000
,
2020
0000
3030
0000
,
1001
0000
0000
0000
,
0011
0000
0000
0100
,
0010
0000
0000
0000
,
2002
0000
3003
0000
,
1000
1000
0001
0000
,
0010
0000
0001
0001
,
0100
0000
0010
0000
,
1000
1000
0002
0003
,
1000
0000
0010
0010
,
0100
0000
0001
0001
,
1000
0000
0100
0100
,
0010
0001
1000
0010
;

//---------------dance-single - sangyule----------------
#NOTES:
     dance-single:
     :
     Medium:
     6:
     0.362069,0.464978,0.068966,0.077586,0.021552,294.000000,286.000000,8.000000,9.000000,20.000000,0.000000,0.362069,0.464978,0.068966,0.077586,0.021552,294.000000,286.000000,8.000000,9.000000,20.000000,0.000000:
0000
0000
0000
0000
,
0000
0000
0000
0000
,
0000
0000
0000
0000
,
0000
0000
0000
0000
,
0000
0000
0000
0000
,
0000
0000
0000
0000
,
0000
0000
0000
0000
,
0000
0000
0000
0000
,
1000
0001
0010
0010
,
0100
1000
0002
2003
,
3000
0010
0100
0100
,
0001
1000
0200
0320
,
0030
0001
1000
1000
,
0010
0100
0002
2003
,
3000
0001
0010
0010
,
0100
1000
0100
0000
0010
0001
0010
0000
,
0001
0001
1000
1000
,
0010
0000
0010
0000
0100
0000
0100
0001
,
1000
1000
0100
0100
,
0010
0000
0010
0000
0001
0000
0001
1000
,
0010
0100
0010
0000
1000
0010
1000
0000
,
0001
1000
0001
0000
0010
0100
0010
0000
,
0004
0000
0000
0000
,
0M03
0000
0000
0M00
0000
0000
0000
0000
,
1001
0000
1000
0010
0100
0000
0100
0000
,
0001
0000
0001
0000
1000
0001
1000
0000
,
0100
0000
1000
0100
1000
0000
1000
0000
,
0001
0000
0001
0000
0400
0000
0310
1000
,
0001
0000
0010
0001
1000
0000
1000
0000
,
0010
0000
0010
0000
0100
0001
0100
0000
,
0110
0000
0010
0100
0010
0000
0010
0000
,
1000
1000
0001
1000
,
1001
0000
0001
0010
0100
0000
1000
0000
,
0010
0000
0010
0100
0000
0100
0001
0000
0001
1000
0000
0000
,
1001
0000
0001
1000
0100
0000
0100
0000
,
0010
0000
0001
0000
1000
0001
0100
0000
,
0101
0000
0001
1000
0010
0000
1000
0000
,
0001
0000
0001
0000
0010
0100
1000
0000
,
0001
0000
1000
0001
0100
0000
0010
0000
,
1000
0001
1000
0000
0100
0010
0100
0000
,
1000
0001
0010
0010
,
0001
0000
1000
0000
0001
0000
0100
0010
,
0100
0001
1000
1000
,
0100
0000
0010
0000
0001
0000
0100
0001
,
0100
0001
1000
1000
,
0100
0000
1000
0000
0001
0000
0100
0010
,
0100
0001
1000
1000
,
0M00
0000
00M0
M000
000M
0000
00M0
0000
,
1001
0000
1000
0000
0100
0000
0100
1000
,
0001
0000
0001
0000
0100
0000
0100
0010
,
1000
0000
1000
0000
0001
0000
0001
0010
,
0100
0100
1000
0000
,
0001
0000
0010
0000
0001
0000
1000
0010
,
0100
0000
0001
0000
0100
0000
0001
1000
,
0400
0000
0000
0000
,
03M0
0000
M00M
MMMM
,
1000
0000
0001
0010
0001
0000
1000
0100
,
1000
0000
0010
0100
0010
1000
0001
0000
,
1000
0000
0001
1000
0001
0000
0010
0100
,
0020
0000
0031
1000
,
1001
0000
0001
0100
0001
0000
1000
0100
,
1000
0000
0001
0010
0001
0000
0100
0000
,
0010
0000
1000
0010
1000
0000
0001
0010
,
M000
0000
0M00
M000
000M
0000
0000
0000
,
1001
0000
1000
0000
0010
0100
0010
0000
,
1000
0001
1000
0000
0100
0010
0100
0000
,
2000
0000
3001
0000
0100
0010
0100
0000
,
0001
0000
0001
1000
0000
1000
0100
0000
0000
00MM
0000
0000
,
1000
0000
0001
0100
0001
0000
1000
0010
,
1000
0000
0001
0010
0001
0000
1000
0001
,
1000
0000
0010
0100
0010
0000
1000
0001
,
0010
0000
0000
0001
0000
0000
0010
0000
0000
0000
0000
0000
0001
0000
0000
0000
0000
0000
0200
0000
0000
0000
0300
0000
;

//---------------dance-single - sangyule----------------
#NOTES:
     dance-single:
     :
     Hard:
     8:
     0.501232,0.619971,0.094828,0.103448,0.262931,407.000000,396.000000,11.000000,12.000000,44.000000,0.000000,0.501232,0.619971,0.094828,0.103448,0.262931,407.000000,396.000000,11.000000,12.000000,44.000000,0.000000:
0000
0000
0000
0000
,
0000
0000
0000
0000
,
0000
0000
0000
0000
,
0000
0000
0000
0000
,
0000
0000
0000
0000
,
0000
0000
0000
0000
,
0000
0000
0000
0000
,
0000
0000
0000
0000
,
1000
0000
0001
0100
0010
0000
0010
0000
,
1000
0001
0010
0000
0200
0000
2300
0000
,
3000
0000
0001
0100
0010
0000
0010
0000
,
1000
0001
0010
0000
0200
0000
0320
0000
,
0030
0000
0001
1000
0010
0000
0010
0000
,
1000
0100
0010
0000
0200
0000
2300
0000
,
3000
0000
0001
0100
0010
0000
0010
0000
,
1000
0001
1000
0000
0100
0010
0001
0000
,
1001
0000
0000
1000
0000
0000
0010
0000
0000
0100
0000
0000
0001
0000
0000
0000
,
1000
0000
0000
0001
0000
0000
0010
0000
0000
0100
0000
0000
0010
0000
0001
0000
,
0010
0000
0000
0001
0000
0000
1000
0000
0000
0100
0000
0000
1000
0000
0000
0000
,
0010
0000
0000
0100
0000
0000
0001
0000
0000
1000
0000
0000
0100
0000
1000
0000
,
0001
1000
0001
1000
0010
0100
0010
0100
,
0001
0100
0001
0100
0010
1000
0010
1000
,
0001
1000
0100
0010
0100
1000
0001
0100
,
M001
0000
0000
M000
0000
0000
0000
0000
,
1001
0000
0001
0100
0010
1000
0100
1000
,
0010
1000
0100
1000
0001
0010
0001
0000
,
1001
0000
1000
0100
0010
0001
0100
0001
,
0010
0000
0001
0000
0100
0000
0010
0000
1000
0001
1000
0000
0001
0010
0001
0000
,
1001
0000
1000
0010
0100
0001
0010
0001
,
0100
0001
0010
0001
1000
0010
0100
0000
,
1001
0000
1010
0010
0100
0001
0010
0000
,
0100
0000
0000
1000
0000
0000
0010
0000
0000
0000
0000
0000
0100
0000
0000
0001
0000
0000
1000
0000
0001
0000
1000
0000
,
0001
0000
0000
0000
1000
0000
0100
0000
0010
0000
0000
0010
0000
0000
0001
0000
,
1000
0001
1000
0010
0100
0010
1000
0001
1000
0001
0000
0000
,
0011
0000
0010
0001
0100
0001
0010
0001
,
0100
0000
0000
0100
0000
0000
0010
0000
1000
0000
0001
0000
1000
0001
1000
0000
,
1001
0000
0000
0000
1000
0000
0100
0000
0010
0000
0000
0010
0000
0000
0001
0000
,
0100
0001
0010
0001
0100
0010
1000
0000
,
1001
0000
0000
0000
0001
0000
0010
0000
0100
0000
0000
0100
0000
0000
0010
0000
,
0001
0000
0001
0000
1000
0000
0000
0100
1000
0000
0001
0000
0010
0000
0000
0000
,
1001
0000
0001
0010
0001
0000
0001
0000
,
0100
0010
1000
0000
0100
0000
2000
0000
,
3001
0000
0010
0001
0100
0000
0100
0000
,
0010
1000
0001
0000
0010
0000
0002
0000
,
1003
0000
0100
1000
0001
0000
0001
0000
,
0100
0010
1000
0000
0001
0000
0020
0000
,
0130
0000
0010
0001
1000
0000
2000
0000
,
30M0
0000
0M00
00M0
0M00
0000
00M0
0000
M000
0000
000M
0000
M000
0000
0000
0000
,
0001
1000
0001
1000
0010
0100
0010
1000
,
0001
0010
0001
0010
0100
1000
0001
0100
,
0010
1000
0010
1000
0001
0010
0100
1000
,
0001
1000
0001
1000
0010
0000
0100
0000
,
0001
1000
0001
1000
0100
1000
0100
1000
,
0001
0010
0001
0010
0001
0100
0001
0100
,
0010
1000
0001
0010
0100
0010
0001
1000
,
0020
0000
0130
MMMM
,
0001
0000
0000
0000
0100
000M
0100
0000
1000
0000
0000
0000
0100
M000
0100
0000
,
0001
0000
0000
0000
0100
000M
0100
0000
1000
0000
0001
0000
0010
0000
0100
1000
,
0001
0000
0000
0000
0010
000M
0010
0000
1000
0000
0000
0000
0010
M000
0010
0000
,
0001
1000
0001
0100
0010
0100
0001
0000
0000
1000
0000
0000
,
0001
0000
0000
0000
0100
000M
0100
0000
1000
0000
0000
0000
0010
M000
0010
0000
,
0001
0000
0000
0000
0100
000M
0100
0000
1000
0000
0000
0000
0010
0000
0000
0000
,
1000
0000
0000
0000
0010
M000
0010
0000
0001
0000
0000
0000
0100
000M
0100
0000
,
1000
0000
00M0
000M
00M0
0000
000M
0000
0M00
0000
0M00
0000
00M0
0000
0000
0000
,
1001
0000
0000
0000
0001
0000
0010
0000
0001
0000
0100
000M
0100
0000
1000
0000
,
0001
0000
0000
0000
0000
0000
0010
0000
0000
000M
0000
0000
0010
0000
0000
0000
0000
0000
1000
0000
0000
0000
0000
0000
0100
0000
0000
M000
0000
0000
0100
0000
0000
0000
0000
0000
0001
0000
0000
0000
1000
0000
0000
0000
0001
0000
0000
0000
,
0010
0000
0400
0000
1300
0000
0000
0000
0010
M000
0010
0000
0001
0000
0100
0000
,
0010
0000
0000
0000
0100
0000
0000
0000
0010
0000
0000
0000
1000
0000
0000
0000
0001
0000
0000
0000
1000
0000
0000
0000
0100
0000
0000
0000
0000
0000
0000
0000
0000
0000
0000
0000
0020
0000
0000
MM0M
0000
0000
0000
0000
0000
0000
0000
0000
,
0031
0000
0000
0000
0100
000M
0100
0000
1000
0000
0000
0000
0100
M000
0100
0000
,
0001
0000
0000
0000
0010
000M
0010
0000
1000
0000
0000
0000
0010
M000
0010
0000
,
0001
0000
0000
0000
0100
000M
0100
0000
1000
0000
0000
0000
0100
M000
0100
0000
,
0001
0000
0000
0000
0000
0000
1000
0000
0000
0000
0000
0000
0001
0000
0000
0000
0000
0000
0000
0000
0000
0010
0000
0000
0001
0000
0000
0000
0000
0000
1000
0000
0000
0000
0000
0000
0010
0000
0000
0000
0100
0000
0000
0000
0001
0000
0000
0000
;
