#VERSION:0.83;
#TITLE:Bug A Boo;
#SUBTITLE:(Joe Stone Remix);
#ARTIST:Destiny's Child;
#TITLETRANSLIT:;
#SUBTITLETRANSLIT:;
#ARTISTTRANSLIT:;
#GENRE:;
#ORIGIN:;
#CREDIT:;
#BANNER:bug a boo-bn.png;
#BACKGROUND:bug a boo-bg.png;
#PREVIEWVID:;
#JACKET:;
#CDIMAGE:;
#DISCIMAGE:;
#LYRICSPATH:;
#CDTITLE:;
#MUSIC:Bug A Boo.ogg;
#OFFSET:1.263000;
#SAMPLESTART:86.609001;
#SAMPLELENGTH:15.730000;
#SELECTABLE:YES;
#DISPLAYBPM:122.000000;
#BPMS:0.000=122.000;
#STOPS:;
#DELAYS:;
#WARPS:;
#TIMESIGNATURES:0.000=4=4;
#TICKCOUNTS:0.000=4;
#COMBOS:0.000=1;
#SPEEDS:0.000=1.000=0.000=0;
#SCROLLS:0.000=1.000;
#FAKES:;
#LABELS:0.000=Song Start;
#BGCHANGES:;
#KEYSOUNDS:;
#ATTACKS:
;

//---------------dance-single - Maxx----------------
#NOTEDATA:;
#CHARTNAME:Maxx;
#STEPSTYPE:dance-single;
#DESCRIPTION:Maxx;
#CHARTSTYLE:;
#DIFFICULTY:Challenge;
#METER:10;
#RADARVALUES:0.720199,0.788439,0.280077,0.494254,1.416862,612.000000,578.000000,34.000000,60.000000,71.000000,13.000000,0.000000,0.000000,0.000000,0.720199,0.788439,0.280077,0.494254,1.416862,612.000000,578.000000,34.000000,60.000000,71.000000,13.000000,0.000000,0.000000,0.000000;
#CREDIT:Maxx;
#DISPLAYBPM:122.000000;
#NOTES:
// measure 0
0000
0000
0000
0000
,  // measure 1
0000
0000
0000
0000
,  // measure 2
0000
0000
0000
0000
,  // measure 3
0000
0000
0000
0000
,  // measure 4
0000
0000
0000
0000
,  // measure 5
0002
0000
0000
0000
0203
0000
0000
0310
0000
0000
0010
0000
0000
0020
0000
0000
,  // measure 6
2030
0000
0000
0000
3200
0000
0000
0310
0000
0000
0010
0000
0000
0020
0000
0000
,  // measure 7
0032
0000
0000
0000
0203
0000
0000
0310
0000
0000
1000
0000
0000
2000
0000
0000
,  // measure 8
3002
0000
0000
0000
0000
0000
0000
0000
0000
0000
0000
1003
0001
0010
0100
1000
,  // measure 9
0001
0000
0100
0000
0010
0000
1000
0100
00M0
0100
0001
0000
0002
0000
0000
1003
,  // measure 10
0000
1000
0000
0010
0100
0000
0001
0010
0M00
0010
1000
0000
2000
0000
0000
3001
,  // measure 11
0000
0100
0000
1000
0000
0100
0000
0001
0000
0100
0000
0020
0000
1030
0001
1000
,  // measure 12
0100
00M0
0100
0000
0001
0000
0000
0000
0000
0000
1000
0000
0010
0M00
0010
0000
0002
0000
0000
0000
0000
0000
0000
0000
0000
0000
1003
0000
0001
0000
1000
0000
,  // measure 13
0010
0M00
0010
0000
0001
0000
0000
0000
1000
0000
0000
0000
0001
0000
0010
0000
0M00
0000
0010
0000
1000
0000
0000
0000
2000
0000
0000
0000
0000
0000
3001
0000
,  // measure 14
0000
0000
0000
0000
0001
0000
0000
0000
0000
0000
0000
0000
0010
0000
0000
0000
0100
0000
0000
0000
0000
0000
0000
0000
1000
0000
0000
0000
0000
0001
0000
0000
0100
0000
0000
0000
0010
0000
0000
0000
0000
0000
0000
0000
1000
0000
0000
0000
0000
0000
0000
0000
0001
0000
0000
0000
1000
0000
0000
0000
0001
0000
0000
0000
,  // measure 15
0100
00M0
0100
0000
1000
0000
0000
0000
0000
0000
0001
0000
0010
0M00
0010
0000
1000
0000
0001
0000
0100
00M0
0100
0000
1000
0000
0001
0000
0010
0M00
0010
0000
,  // measure 16
1000
0000
0100
0000
0010
0M00
0010
0000
1000
0000
0001
0000
0020
0000
0000
0000
0031
0000
1000
0000
0000
0000
0010
0000
0100
0000
0010
0000
1000
0000
0001
0000
,  // measure 17
2010
0000
3002
0000
2103
0000
3010
1100
00M0
0100
1000
0000
1000
0001
0000
0010
,  // measure 18
0M00
0010
0000
1000
0102
0000
0013
0101
00M0
0100
0001
0000
0001
1000
0000
0001
,  // measure 19
0000
0010
0000
1000
0000
0010
0000
0001
0000
0010
0000
0200
0000
1300
0001
1000
,  // measure 20
0010
0M00
0010
0000
0001
0000
0000
0000
0000
0000
1000
0000
0100
00M0
0100
0000
0002
0000
0000
0000
0000
0000
0000
0000
0000
0000
1003
0000
0001
0000
1000
0000
,  // measure 21
0011
0100
0002
0000
2013
0000
3100
1010
0M00
0010
1000
0000
2000
0000
0000
3001
,  // measure 22
0000
0000
0000
0000
0001
0000
0000
0000
0000
0000
0000
0000
0010
0000
0000
0000
0100
0000
0000
0000
0000
0000
0000
0000
1000
0000
0000
0000
0000
0001
0000
0000
0100
0000
0000
0000
0010
0000
0000
0000
0000
0000
0000
0000
1000
0000
0000
0000
0000
0000
0000
0000
0001
0000
0000
0000
1000
0000
0000
0000
0001
0000
0000
0000
,  // measure 23
0010
0M00
0010
0000
1000
0000
0000
0000
0000
0000
0001
0000
0100
00M0
0100
0000
1000
0000
0001
0000
0010
0M00
0010
0000
1000
0000
0001
0000
0100
00M0
0100
0000
,  // measure 24
1000
0000
0010
0000
0100
00M0
0100
0000
1000
0000
0001
0000
0010
0M00
0010
0000
1000
0000
0000
0000
0002
0000
0000
0000
0000
0000
0023
0000
0000
0000
0000
0000
,  // measure 25
0131
0000
0000
0000
1020
0000
0000
0000
0000
0000
0031
0000
1000
0000
0001
0000
0100
00M0
0100
0000
1000
0000
0100
00M0
0100
0000
0001
0000
0010
0M00
0010
0000
,  // measure 26
1000
0000
0010
0M00
0010
0000
0001
0000
1000
0000
0000
0000
0010
0000
0000
0000
0010
0000
0000
0000
0000
0000
0000
0000
0000
0000
0000
0000
1000
0000
0001
0000
,  // measure 27
1100
0000
0000
0000
0021
0000
0000
0000
0000
0000
1030
0000
0001
0000
1000
0000
0100
00M0
0100
0000
0001
0000
0100
00M0
0100
0000
1000
0000
0010
0M00
0010
0000
,  // measure 28
0001
0000
0010
0M00
0010
0000
1000
0000
0100
0000
0010
0000
0001
0000
1000
0000
0010
0000
0000
0000
0100
0000
0000
0000
0000
0000
0001
0000
0000
0000
1000
0000
,  // measure 29
0102
0000
0000
0000
1013
0000
0000
0000
0110
0000
0000
0000
1000
0000
0001
0000
0100
00M0
0100
0000
1000
0000
0100
00M0
0100
0000
0001
0000
0010
0M00
0010
0000
,  // measure 30
1000
0000
0010
0M00
0010
0000
0001
0000
1000
0000
0000
0000
0010
0000
0000
0000
0010
0000
0000
0000
0000
0000
0000
0000
1000
0000
0000
0000
0001
0000
1000
0000
,  // measure 31
0012
0000
0000
0000
1103
0000
0000
0000
0110
0000
0010
0000
1000
0000
0001
0000
0010
0M00
0010
0000
1000
0000
0010
0M00
0010
0000
0001
0000
0100
00M0
0100
0000
,  // measure 32
1000
0000
0100
00M0
0100
0000
0001
0000
1000
0000
0100
0000
0010
0000
0000
0000
0001
0000
0000
0000
1000
0000
0000
0000
0001
0000
0010
0000
0100
0000
0001
0000
,  // measure 33
0000
1000
0000
0010
0000
0001
0000
2000
0000
0000
3000
0000
0001
0100
0010
0001
,  // measure 34
0000
1000
0000
0100
0000
0010
0000
2000
0000
0000
3000
0000
0001
0010
0100
0001
,  // measure 35
0000
0000
1000
0000
0000
0000
0010
0000
0000
0000
0001
0000
0000
0000
1000
0000
0000
0000
0001
0000
0100
00M0
0100
0000
1000
0000
0100
00M0
0100
0000
0001
0000
,  // measure 36
0010
0M00
0010
0000
1000
0000
0010
0M00
0010
0000
0000
0000
0001
0000
0000
0000
2000
0000
0000
0000
0000
0000
3010
0000
0100
0000
0010
0000
1000
0000
0001
0000
,  // measure 37
0010
0000
0100
0000
1000
0000
0001
0100
00M0
0100
1000
0000
2000
0000
0000
3001
,  // measure 38
0000
0001
0000
0100
0010
0000
1000
0100
00M0
0100
0001
0000
0002
0000
0000
1003
,  // measure 39
0000
0010
0000
0001
0000
0010
0000
1000
0000
0010
0000
0200
0000
0301
1000
0001
,  // measure 40
0010
0M00
0010
0000
1000
0000
0000
0000
0000
0000
0001
0000
0100
00M0
0100
0000
2000
0000
0000
0000
0000
0000
0000
0000
0000
0000
3001
0000
1000
0000
0001
0000
,  // measure 41
0010
0M00
0010
0000
1000
0000
0000
0000
0001
0000
0000
0000
1000
0000
0100
0000
00M0
0000
0100
0000
0001
0000
0000
0000
0002
0000
0000
0000
0000
0000
1003
0000
,  // measure 42
0000
0000
0000
0000
1000
0000
0000
0000
0000
0000
0000
0000
0100
0000
0000
0000
0010
0000
0000
0000
0000
0000
0000
0000
0001
0000
0000
0000
0000
1000
0000
0000
0010
0000
0000
0000
0100
0000
0000
0000
0000
0000
0000
0000
0001
0000
0000
0000
0000
0000
0000
0000
1000
0000
0000
0000
0001
0000
0000
0000
1000
0000
0000
0000
,  // measure 43
0010
0M00
0010
0000
0001
0000
0000
0000
0000
0000
1000
0000
0100
00M0
0100
0000
0001
0000
1000
0000
0010
0M00
0010
0000
0001
0000
1000
0000
0100
00M0
0100
0000
,  // measure 44
0001
0000
0010
0000
0100
00M0
0100
0000
0001
0000
1000
0000
0100
0000
0000
0000
0020
0000
0000
0000
0000
0000
0031
0000
1000
0000
0010
0000
0100
0000
0001
0000
,  // measure 45
2010
0000
3002
0000
2103
0000
3010
1100
00M0
0100
1000
0000
1000
0001
0000
0010
,  // measure 46
0M00
0010
0000
1000
0102
0000
0013
0101
00M0
0100
0001
0000
0001
1000
0000
0001
,  // measure 47
0000
0010
0000
1000
0000
0010
0000
0001
0000
0010
0000
0200
0000
1300
0001
1000
,  // measure 48
0010
0M00
0010
0000
0001
0000
0000
0000
0000
0000
1000
0000
0100
00M0
0100
0000
0002
0000
0000
0000
0000
0000
0000
0000
0000
0000
1003
0000
0001
0000
1000
0000
,  // measure 49
0011
0100
0002
0000
2013
0000
3100
1010
0M00
0010
1000
0000
2000
0000
0000
3001
,  // measure 50
0000
0000
0000
0000
0001
0000
0000
0000
0000
0000
0000
0000
0010
0000
0000
0000
0100
0000
0000
0000
0000
0000
0000
0000
1000
0000
0000
0000
0000
0001
0000
0000
0100
0000
0000
0000
0010
0000
0000
0000
0000
0000
0000
0000
1000
0000
0000
0000
0000
0000
0000
0000
0001
0000
0000
0000
1000
0000
0000
0000
0001
0000
0000
0000
,  // measure 51
0010
0M00
0010
0000
1000
0000
0000
0000
0000
0000
0001
0000
0100
00M0
0100
0000
1000
0000
0001
0000
0010
0M00
0010
0000
1000
0000
0001
0000
0100
00M0
0100
0000
,  // measure 52
1000
0000
0010
0000
0100
00M0
0100
0000
1000
0000
0001
0000
0010
0M00
0010
0000
1000
0000
0000
0000
0002
0000
0000
0000
0000
0000
0013
0000
0100
0000
0010
0000
,  // measure 53
0001
1000
0020
0000
1130
0000
0010
0100
0002
0000
1013
0000
0101
0000
0010
0000
,  // measure 54
2000
0000
0000
0000
0000
0000
3010
0001
1000
0000
0010
0000
0100
0010
0000
0000
,  // measure 55
0100
0010
2000
0000
3011
0000
1000
0010
0000
0100
0000
1000
0000
0100
0001
1000
,  // measure 56
0100
00M0
0100
0000
0001
0000
0000
0000
0000
0000
1000
0000
0010
0M00
0010
0000
0002
0000
0000
0000
1000
0000
0003
0000
0001
0000
1000
0000
0000
0000
0000
0000
,  // measure 57
1000
0100
0020
0000
0131
0000
0010
0100
2000
0000
3011
0000
1100
0000
0010
0000
,  // measure 58
0002
0000
0000
0000
0000
0000
0013
1000
0001
0000
1000
0000
0100
0010
0000
0000
,  // measure 59
0100
0000
0010
0000
0002
0000
0000
0000
1103
0000
0000
0000
0001
0000
0010
0000
0000
0000
0100
0000
0000
0000
0001
0000
0000
0000
0100
0000
0010
0M00
0010
0000
,  // measure 60
1000
0000
0100
00M0
0100
0000
0001
0000
0100
00M0
0100
0000
1000
0000
0000
0000
0001
0000
0000
0000
1000
0000
0001
0000
0200
0000
0010
0000
0000
0000
0000
0000
,  // measure 61
0000
0000
0000
0300
;

//---------------dance-single - Feraligatr----------------
#NOTEDATA:;
#CHARTNAME:Feraligatr SH;
#STEPSTYPE:dance-single;
#DESCRIPTION:Feraligatr;
#CHARTSTYLE:;
#DIFFICULTY:Hard;
#METER:9;
#RADARVALUES:0.657829,0.737572,0.032950,0.345978,1.186210,559.000000,555.000000,4.000000,42.000000,14.000000,0.000000,0.000000,0.000000,0.000000,0.657829,0.737572,0.032950,0.345978,1.186210,559.000000,555.000000,4.000000,42.000000,14.000000,0.000000,0.000000,0.000000,0.000000;
#CREDIT:Feraligatr;
#DISPLAYBPM:122.000000;
#NOTES:
0000
0000
0000
0000
,
0000
0000
0000
0000
,
0000
0000
0000
0000
,
0000
0000
0000
0000
,
0000
0000
0000
0000
,
2000
0000
0000
0000
3020
0000
0000
0130
0000
0000
0100
0000
0000
0200
0000
0000
,
0302
0000
0000
0000
2003
0000
0000
3100
0000
0000
0100
0000
0000
0200
0000
0000
,
0320
0000
0000
0000
0032
0000
0000
1003
0000
0000
0010
0000
0000
0020
0000
0000
,
0230
0000
0000
0000
0000
0000
0000
0000
0000
0000
0000
0301
1000
0100
0010
0001
,
1000
0000
0010
0000
0100
0000
0001
1000
0000
1000
0100
0000
0200
0000
0000
0310
,
0000
0001
0000
1000
0010
0000
0100
0001
0000
0010
1000
0000
0020
0000
0000
0031
,
0000
0100
0000
0010
0000
0100
0000
0001
0000
1000
0000
0200
0000
0310
0001
1000
,
0100
00M0
0100
0000
0001
0000
0000
0000
0000
0000
1000
0000
0010
0M00
0010
0000
0002
0000
0000
0000
0000
0000
0000
0000
0000
0000
1003
0000
0001
0000
0100
0000
,
0010
0000
1000
0000
0001
0000
0010
0100
0000
0100
1000
0000
2000
0000
0000
3010
,
0000
0100
0000
0001
1000
0000
0100
1000
0010
0100
0000
0001
0000
0010
0001
1000
,
0100
00M0
0100
0000
0001
0000
0000
0000
0000
0000
1000
0000
0001
0000
0100
0000
0001
0000
1000
0000
0100
0000
0010
0000
0100
0000
1000
0000
0001
0000
0100
0000
,
0010
1000
0001
1000
0100
0010
0002
0000
0203
0000
0000
0310
1000
0001
0010
0100
,
1000
0000
0001
0000
0100
0000
0010
1000
0000
1000
0001
0000
0001
0010
0000
0100
,
0000
1000
0000
0010
0100
0000
0010
1000
0000
0100
0001
0000
0200
0000
0000
1300
,
0000
0010
0000
0100
0000
0010
0000
1000
0000
0001
0000
0020
0000
0130
1000
0001
,
0100
00M0
0100
0000
1000
0000
0000
0000
0000
0000
0001
0000
0010
0M00
0010
0000
2000
0000
0000
0000
0000
0000
0000
0000
0000
0000
3001
0000
0010
0000
0100
0000
,
1000
0000
0001
0000
0100
0000
0010
1000
0000
1000
0001
0000
0001
0010
0000
0100
,
0000
1000
0000
0001
0100
0000
0010
1000
0100
0010
0000
0100
0000
1000
0001
1000
,
0100
00M0
0100
0000
0001
0000
0000
0000
0000
0000
1000
0000
0001
0000
0100
0000
0010
0000
0100
0000
0001
0000
1000
0000
0100
0000
0010
0000
0100
0000
1000
0000
,
0001
0100
0001
1000
0100
0010
0002
0000
0203
0000
0000
0000
0300
0000
0000
0000
,
0101
0000
0100
0000
0000
0010
1000
0001
1000
0100
0010
0001
1000
0100
1000
0001
,
0100
0010
1000
0001
0010
0100
1000
0000
1000
0000
0000
0000
0000
0000
0001
0100
,
0010
0000
0010
0000
0000
1000
0001
0010
0100
0010
0001
1000
0010
0100
0001
1000
,
0100
1000
0001
0100
0010
1000
0001
0000
0001
0000
0000
0000
0000
0000
0000
1000
,
0100
0000
0100
0000
0010
0000
0001
1000
0010
0100
0010
1000
0001
0010
0100
0010
,
0001
1000
0010
0100
0001
1000
0100
0000
0100
0000
0000
0000
0010
0000
0001
1000
,
0010
0000
0010
0000
0100
0001
1000
0001
0010
0100
1000
0001
0100
0010
1000
0001
,
0010
0100
0010
0001
1000
0010
0100
0000
0100
0000
0000
0000
0001
0010
0100
1000
,
0000
0010
0000
0001
0000
0010
0000
2000
0000
0000
3000
0000
0001
0100
0010
1000
,
0000
0100
0000
0001
0000
0100
0000
2000
0000
0000
3000
0000
0001
0010
0100
1000
,
0000
0010
0000
0001
0000
0010
0000
1000
0000
0001
0010
0100
1000
0001
0100
0001
,
1000
0100
0010
0001
1000
0000
1000
0000
0020
0000
0000
0130
0001
1000
0100
0010
,
0001
0000
0100
0000
0010
0000
1000
0001
0000
0001
0010
0000
0020
0000
0000
0130
,
0000
1000
0000
0001
0100
0000
0010
1000
0000
0100
0001
0000
0200
0000
0000
1300
,
0000
0010
0000
0100
0000
0010
0000
1000
0000
0001
0000
0020
0000
0130
1000
0001
,
0010
0M00
0010
0000
1000
0000
0000
0000
0000
0000
0001
0000
0100
00M0
0100
0000
2000
0000
0000
0000
0000
0000
0000
0000
0000
0000
3001
0000
1000
0000
0010
0000
,
0100
0000
0001
0000
1000
0000
0100
0010
0000
0010
0001
0000
0002
0000
0000
0103
,
0000
0010
0000
1000
0001
0000
0010
0001
0100
0010
0000
1000
0000
0100
1000
0001
,
0010
0M00
0010
0000
1000
0000
0000
0000
0000
0000
0001
0000
1000
0000
0010
0000
1000
0000
0001
0000
0010
0000
0100
0000
0010
0000
0001
0000
1000
0000
0010
0000
,
0100
0001
1000
0001
0010
0100
2000
0000
3020
0000
0000
0130
0001
1000
0100
0010
,
0001
0000
1000
0000
1010
0000
1000
0001
0000
0001
0010
0000
0010
0100
0000
1000
,
0000
0001
0000
0100
0010
0000
0100
0001
0000
0010
1000
0000
0020
0000
0000
0031
,
0000
0100
0000
0010
0000
0100
0000
0001
0000
1000
0000
0200
0000
0310
0001
1000
,
0010
0M00
0010
0000
0001
0000
0000
0000
0000
0000
1000
0000
0100
00M0
0100
0000
0002
0000
0000
0000
0000
0000
0000
0000
0000
0000
1003
0000
0100
0000
0010
0000
,
0001
0000
1000
0000
0010
0000
0100
0001
0000
0001
1000
0000
1000
0100
0000
0010
,
0000
0001
0000
1000
0010
0000
0100
0001
0010
0100
0000
0010
0000
0001
1000
0001
,
0010
0M00
0010
0000
1000
0000
0000
0000
0000
0000
0001
0000
1000
0000
0010
0000
0100
0000
0010
0000
1000
0000
0001
0000
0010
0000
0100
0000
0010
0000
0001
0000
,
1000
0010
1000
0001
0010
0100
2000
0000
3020
0000
0000
0000
0030
0000
0000
0000
,
1000
0001
0010
0000
0011
0000
0000
0010
0100
0000
0010
0000
0100
0000
0001
0000
,
0200
0000
0000
0000
1300
0000
0001
0100
0010
0000
1000
0000
0000
0100
0000
0000
,
0010
0000
0001
0000
1000
0000
0000
0001
0000
0100
0000
0010
0000
1000
0001
1000
,
0100
00M0
0100
0000
0001
0000
0000
0000
0000
0000
1000
0000
0010
0M00
0010
0000
0002
0000
0000
0000
1000
0000
0003
0000
0000
0000
0001
0000
0000
0000
0000
0000
,
0101
0000
0100
0000
0010
0000
0000
0100
0010
0000
0100
0000
0010
0000
0001
0000
,
0020
0000
0000
0000
1030
0000
0001
0010
0100
0000
1000
0000
0000
0001
0000
0000
,
0100
0000
0010
0000
1000
0000
0000
0001
0000
0010
0000
0100
0000
1000
0001
1000
,
0010
0100
0001
1000
0100
1000
0001
0000
0200
0000
0310
1000
0002
0010
0000
0000
,
0000
0000
0000
0003
;

//---------------dance-single - Feraligatr----------------
#NOTEDATA:;
#CHARTNAME:Feraligatr SM;
#STEPSTYPE:dance-single;
#DESCRIPTION:Feraligatr;
#CHARTSTYLE:;
#DIFFICULTY:Medium;
#METER:7;
#RADARVALUES:0.455420,0.457803,0.041188,0.156514,0.469542,387.000000,382.000000,5.000000,19.000000,0.000000,0.000000,0.000000,0.000000,0.000000,0.455420,0.457803,0.041188,0.156514,0.469542,387.000000,382.000000,5.000000,19.000000,0.000000,0.000000,0.000000,0.000000,0.000000;
#CREDIT:Feraligatr;
#DISPLAYBPM:122.000000;
#NOTES:
0000
0000
0000
0000
,
0000
0000
0000
0000
,
0000
0000
0000
0000
,
0000
0000
0000
0000
,
0000
0000
0000
0000
,
1000
0010
0100
0001
,
1000
0000
0000
0000
0100
0000
0000
0010
0000
0000
0001
0000
0000
0001
0000
0000
,
0100
0000
0000
0000
0010
0000
0000
1000
0000
0000
0001
0000
0000
0001
0000
0000
,
0020
0000
0000
0000
,
0130
0000
1000
0000
0001
0000
0100
0000
0010
0000
1000
0000
0001
0000
0000
1000
,
0000
0010
0000
1000
0001
0000
0000
0010
0000
0100
1000
0000
0001
0000
0000
1000
,
0000
0100
0000
1000
0000
0001
0000
0100
0000
0001
0000
1000
0000
0000
0000
0000
,
0001
0100
0001
0000
0000
0000
0010
0100
2000
0000
0000
0000
3000
0000
0000
0000
,
0001
0000
0100
0000
0010
0000
1000
0000
0001
0000
0010
0000
0100
0000
0000
1000
,
0000
0001
0000
1000
0010
0000
1000
0000
0100
0010
0000
0001
0000
0000
0000
0000
,
1000
0010
1000
0000
0000
0000
0001
0000
0010
0000
1000
0000
0001
0000
0100
0000
,
1000
0010
0001
1000
0200
0000
0300
0000
,
0110
0000
0001
0000
1000
0000
0100
0000
0010
0000
0001
0000
1000
0000
0000
0001
,
0000
0010
0000
0001
1000
0000
0000
0010
0000
0100
0001
0000
1000
0000
0000
0001
,
0000
0100
0000
0001
0000
1000
0000
0100
0000
1000
0000
0001
0000
0000
0000
0000
,
1000
0100
1000
0000
0001
0000
0100
0010
2000
0000
0000
0000
3001
0000
0100
0000
,
1001
0000
1000
0000
0100
0000
0010
0000
0001
0000
1000
0000
0010
0000
0000
1000
,
0000
0001
0000
1000
0100
0000
1000
0000
0010
0100
0000
0001
0000
0000
0000
0000
,
1000
0100
1000
0000
0000
0000
0001
0000
0100
0000
1000
0000
0001
0000
0010
0000
,
1000
0100
0001
1000
0020
0000
0030
0000
,
0001
0001
0000
1000
0010
0100
1000
0100
,
0001
1000
0001
0010
0010
0000
0000
0000
,
0100
0100
1000
0001
0100
0010
0001
0010
,
1000
0000
0001
0000
0010
0000
0100
0000
0100
0000
0010
0000
0000
0010
0000
0000
,
0001
0001
1000
0010
0100
0010
0001
0010
,
1000
0001
0010
0100
0100
0000
1000
0000
,
0001
0001
1000
0001
0100
0010
0001
0010
,
1000
0000
0001
0000
1000
0000
0100
0000
0100
0000
0000
0000
0010
0000
0001
1000
,
0000
0010
0000
1000
0000
0001
0000
0020
0000
0000
0030
0000
0100
0000
1000
0001
,
0000
0100
0000
0001
0000
1000
0000
0200
0000
0000
0300
0000
1000
0000
0001
0100
,
0000
0010
0000
1000
0000
0001
0000
0010
0000
0100
1000
0100
1000
0000
0001
0000
,
0100
0010
1000
0001
0020
0000
0030
0000
,
0001
0000
1000
0000
0001
0000
0010
0000
0100
0000
1000
0000
0001
0000
0000
1000
,
0000
0100
0000
1000
0001
0000
0000
0100
0000
0010
1000
0000
0001
0000
0000
1000
,
0000
0010
0000
1000
0000
0001
0000
0010
0000
0001
0000
1000
0000
0000
0000
0000
,
0001
0010
0001
0000
0000
0000
0100
0010
2000
0000
0000
0000
3000
0000
0000
0000
,
0001
0000
0010
0000
0100
0000
1000
0000
0001
0000
0100
0000
0010
0000
0000
1000
,
0000
0001
0000
1000
0100
0000
1000
0000
0010
0100
0000
0001
0000
0000
0000
0000
,
1000
0100
1000
0000
0000
0000
0001
0000
0100
0000
1000
0000
0001
0000
0010
0000
,
1000
0100
0001
1000
0020
0000
0030
0000
,
0100
0000
0010
0000
1001
0000
0001
0000
0100
0000
0001
0000
1000
0000
0000
0001
,
0000
0100
0000
0001
1000
0000
0000
0100
0000
0010
0001
0000
1000
0000
0000
0001
,
0000
0010
0000
0001
0000
1000
0000
0010
0000
1000
0000
0001
0000
0000
0000
0000
,
1000
0010
1000
0000
0001
0000
0010
0100
2000
0000
0000
0000
3001
0000
0010
0000
,
1001
0000
1000
0000
0010
0000
0100
0000
0001
0000
1000
0000
0100
0000
0000
1000
,
0000
0001
0000
1000
0010
0000
1000
0000
0100
0010
0000
0001
0000
0000
0000
0000
,
1000
0010
1000
0000
0000
0000
0001
0000
0010
0000
1000
0000
0001
0000
0100
0000
,
1000
0010
0001
1000
0200
0000
0300
0000
,
0001
0000
0010
0000
0110
0000
0000
0010
0100
0000
0010
0000
0100
0000
1000
0000
,
0002
0000
0000
0000
1003
0000
0020
0000
0000
0000
0130
0000
0000
0001
0000
0000
,
1000
0000
0100
0000
0010
0000
0000
0001
0000
0100
0000
0001
0000
0000
0000
0000
,
1000
0100
1000
0000
0001
0000
0100
0010
2000
0000
0000
0000
3000
0000
0000
0000
,
0001
0000
0100
0000
0010
0000
0000
0100
0010
0000
0100
0000
0010
0000
1000
0000
,
0002
0000
0000
0000
0013
0000
0200
0000
0000
0000
1300
0000
0000
0001
0000
0000
,
0100
0000
0010
0000
1000
0000
0000
0100
0000
0010
0000
0100
0000
0000
1000
0000
,
0010
0001
1000
0100
0002
0000
2003
0000
,
0000
0000
0000
3000
;

//---------------dance-single - Feraligatr----------------
#NOTEDATA:;
#CHARTNAME:Feraligatr SE;
#STEPSTYPE:dance-single;
#DESCRIPTION:Feraligatr;
#CHARTSTYLE:;
#DIFFICULTY:Easy;
#METER:4;
#RADARVALUES:0.274193,0.356069,0.032950,0.164751,0.000000,233.000000,229.000000,4.000000,20.000000,0.000000,0.000000,0.000000,0.000000,0.000000,0.274193,0.356069,0.032950,0.164751,0.000000,233.000000,229.000000,4.000000,20.000000,0.000000,0.000000,0.000000,0.000000,0.000000;
#CREDIT:Feraligatr;
#DISPLAYBPM:122.000000;
#NOTES:
0000
0000
0000
0000
,
0000
0000
0000
0000
,
0000
0000
0000
0000
,
0000
0000
0000
0000
,
0000
0000
0000
0000
,
1000
0010
1000
0100
,
0010
0001
1000
0000
,
0001
0100
0001
0000
,
2000
0000
0000
0000
,
3001
0000
1000
0000
0100
0010
0001
0000
,
1000
0000
0010
0000
0100
0001
1000
0000
,
0100
0000
0010
0000
0100
1000
0001
0000
,
1000
0000
0020
0030
,
1000
0000
0001
0000
0010
0100
1000
0000
,
0001
0000
0100
0000
0010
0100
0001
0000
,
1000
0000
0001
0000
1000
0100
1000
0100
,
0010
0001
0010
0001
2000
0000
3000
0000
,
1001
0000
0001
0000
0100
0010
1000
0000
,
0001
0000
0010
0000
0100
0010
0001
0000
,
1000
0000
0010
0000
0100
0001
1000
0000
,
0100
1000
0002
0103
,
0010
0000
1000
0000
0001
0010
0001
0000
,
1000
0000
0010
0000
0100
0001
1000
0000
,
0100
0000
1000
0000
0001
0100
0001
0100
,
0010
1000
0010
1000
0002
0000
0003
0000
,
1000
0000
0100
1000
,
0001
0100
0010
0000
,
1000
0000
0001
0010
,
0001
1000
0010
0000
,
0100
0000
0001
1000
,
0100
1000
0001
0000
,
0100
0000
0010
1000
,
0001
0010
0100
0000
,
2100
0000
0000
0000
,
3002
0000
0000
0000
,
0203
0000
0000
0000
,
0320
0000
0000
0000
,
1030
0000
0001
0000
0100
0010
1000
0000
,
0001
0000
0010
0000
0100
1000
0001
0000
,
0100
0000
0010
0000
0100
0001
1000
0000
,
0001
0000
0020
0030
,
0001
0000
1000
0000
0010
0100
0001
0000
,
1000
0000
0100
0000
0010
0100
1000
0000
,
0001
0000
1000
0000
0001
0100
0001
0100
,
0010
1000
0010
1000
0002
0000
0003
0000
,
1000
0000
1100
0000
0100
0010
0001
0000
,
1000
0000
0010
0000
0100
0010
1000
0000
,
0001
0000
0010
0000
0100
1000
0001
0000
,
0100
0001
2000
3100
,
0010
0000
0001
0000
1000
0010
1000
0000
,
0001
0000
0010
0000
0100
1000
0001
0000
,
0100
0000
0001
0000
1000
0100
1000
0100
,
0010
0001
0010
0001
2000
0000
3000
0000
,
0001
0000
0101
0000
0100
0010
0100
0000
,
0002
0000
2003
0000
,
3100
0000
0010
0000
0001
1000
0001
0000
,
0100
0010
2000
3001
,
1000
0000
0100
0000
0010
0001
0010
0000
,
0200
0000
2300
0000
,
3001
0000
0100
0000
0010
1000
0001
0000
,
1000
0100
1000
0100
0020
0000
0032
0000
,
0000
0000
0000
0003
;

//---------------dance-single - Feraligatr----------------
#NOTEDATA:;
#CHARTNAME:Feraligatr SN;
#STEPSTYPE:dance-single;
#DESCRIPTION:Feraligatr;
#CHARTSTYLE:;
#DIFFICULTY:Beginner;
#METER:2;
#RADARVALUES:0.118856,0.203468,0.016475,0.032950,0.000000,101.000000,99.000000,2.000000,4.000000,0.000000,0.000000,0.000000,0.000000,0.000000,0.118856,0.203468,0.016475,0.032950,0.000000,101.000000,99.000000,2.000000,4.000000,0.000000,0.000000,0.000000,0.000000,0.000000;
#CREDIT:Feraligatr;
#DISPLAYBPM:122.000000;
#NOTES:
0000
0000
0000
0000
,
0000
0000
0000
0000
,
0000
0000
0000
0000
,
0000
0000
0000
0000
,
0000
0000
0000
0000
,
1000
0000
0001
0000
,
0100
0000
0001
0000
,
1000
0000
0100
0000
,
2000
0000
0000
0000
,
3001
0000
0000
0000
,
0100
0000
0000
0000
,
0001
0000
0000
0000
,
1000
0000
0001
0000
,
0010
0000
0000
0000
,
0100
0000
0000
0000
,
0010
0000
0001
0001
,
1000
1000
0010
0000
,
1001
0000
1000
0000
,
0100
0000
0010
0000
,
0001
0000
1000
0000
,
0010
0000
0100
0000
,
0001
0000
1000
0000
,
0100
0000
0010
0000
,
0100
0000
1000
1000
,
0001
0001
0100
0000
,
0010
0000
0000
0000
,
1000
0000
0000
0000
,
0001
0000
0010
0000
,
0100
0000
1000
0000
,
0001
0000
0100
0000
,
0001
0000
1000
0000
,
0100
0000
0010
0000
,
0001
0000
1000
0000
,
0220
0000
0000
0000
,
0330
0000
0000
0000
,
0001
0000
0000
0000
,
0000
0000
0000
0000
,
1000
0000
0000
0000
,
0100
0000
0000
0000
,
0010
0000
0000
0000
,
0001
0000
1000
0000
,
0010
0000
0000
0000
,
0100
0000
0000
0000
,
0001
0000
1000
1000
,
0100
0100
0010
0000
,
0001
0000
1000
0000
,
0010
0000
0100
0000
,
0001
0000
1000
0000
,
0100
0000
1000
0000
,
0001
0000
0100
0000
,
0010
0000
1000
0000
,
0001
0000
0010
0010
,
0001
0001
1000
0000
,
0010
0000
0000
0000
,
0100
0000
0001
0000
,
1000
0000
0000
0000
,
0100
0000
0010
0000
,
0001
0000
0000
0000
,
1000
0000
0000
0000
,
0010
0000
0100
0000
,
0001
0001
1000
0200
,
0000
0000
0000
0300
;
