#TITLE:Bring Em Back;
#SUBTITLE:;
#ARTIST:Jauz & TYNAN;
#TITLETRANSLIT:;
#SUBTITLETRANSLIT:;
#ARTISTTRANSLIT:;
#GENRE:;
#CREDIT:;
#BANNER:bringemback-bn.png;
#BACKGROUND:bringemback-bg.png;
#LYRICSPATH:;
#CDTITLE:;
#MUSIC:Bring Em Back - Jauz & TYNAN.ogg;
#OFFSET:0.008000;
#SAMPLESTART:37.437233;
#SAMPLELENGTH:12.000000;
#SELECTABLE:YES;
#BPMS:0.000000=128.000000
;
#STOPS:
;
#BGCHANGES:;
#KEYSOUNDS:;
#ATTACKS:;

//---------------dance-single - ----------------
#NOTES:
     dance-single:
     :
     Challenge:
     12:
     0.831744,1.010802,0.590867,0.569250,0.947550,808.000000,726.000000,82.000000,79.000000,12.000000,10.000000,0.831744,1.010802,0.590867,0.569250,0.947550,808.000000,726.000000,82.000000,79.000000,12.000000,10.000000:
0000
0000
0000
0000
,
0000
0000
0000
0000
,
0000
0000
0000
0000
2000
0000
3010
0100
0000
0000
0001
0000
0020
0000
0130
1000
,
0000
0000
0001
0000
0200
0000
0310
1000
0000
0000
0001
0000
0100
0100
0100
0100
,
1000
0001
0100
0001
1000
0100
1000
0010
,
0100
0001
1000
0001
0010
0100
0010
0001
,
1000
0010
0100
0010
1000
0001
0010
0100
,
1000
0001
1000
0010
0100
0010
1000
0001
,
0010
0001
1000
0001
0100
0010
1000
0001
0010
0100
1000
0001
0100
0010
0100
0001
,
1000
0100
0010
0001
0100
0010
1000
0001
1000
0010
0100
0001
1000
0100
0010
0001
,
1000
0010
0100
0010
1000
0001
0010
0100
1000
0001
1000
0010
0100
0001
0010
0100
,
2000
3000
2000
3000
0002
0003
0002
0003
1000
0001
1010
0000
0001
1100
0000
0011
,
2000
0000
0000
0000
0000
0000
0000
0000
3100
0000
0000
0000
0000
0000
0000
0000
1100
0000
0000
0000
0000
0000
0000
0000
1000
0000
0000
0000
0000
0000
0000
0000
0001
0000
0000
0000
0000
0100
0000
0000
0010
0000
0000
0000
0000
0000
0000
0000
0110
0000
0000
0000
0000
0000
0000
0000
0100
0000
0000
0000
0000
0000
0000
0000
,
0001
0000
1000
0000
1100
0000
0100
0000
0010
0101
1000
0000
1001
0000
0001
0000
,
4000
0000
0000
0000
0000
0000
0000
0000
0000
0000
0000
0000
0000
0000
0000
0000
3001
0000
0000
0000
0010
0000
0000
0000
0100
0000
0000
0000
0001
0000
0000
0000
00M0
0000
0000
0000
0000
0001
0000
0000
1000
0000
0000
0000
0000
0000
0000
0000
0001
0000
0000
0000
0100
0000
0000
0000
0010
0000
0000
0000
0001
0000
0000
0000
,
0000
0000
0000
0000
0000
0000
0000
0000
00M0
0000
0000
0000
0000
0000
0000
0000
0000
0000
0000
0000
0000
0000
0000
0000
0001
0000
0000
0000
0000
0000
0000
0000
0000
0000
0000
0000
0000
0000
0000
0000
0000
0000
0000
0000
0000
0000
0000
0000
1000
0000
0000
0000
0000
0000
0000
0000
0000
0000
0000
0000
0100
0000
0000
0000
0000
0000
0000
0000
0000
0000
0000
0000
0010
0000
0000
0000
0000
0000
0000
0000
0000
0000
0000
0000
1000
0000
0000
0000
0000
0000
0000
0000
0000
0000
0000
0000
0001
0000
0000
0000
0000
0000
0000
0000
0000
0000
0000
0000
0100
0000
0000
0000
0000
0000
0000
0000
0000
0000
0000
0000
0020
0000
0000
0000
0000
0000
0000
0000
0000
0000
0000
0000
0000
0000
0000
0000
0000
0000
0000
0000
0000
0000
0000
0000
0031
0000
0000
0000
0000
0000
0000
0000
0000
0000
0000
0000
0000
0000
0000
1000
0000
0000
0000
0000
0000
0000
0000
0000
0010
0000
0000
0000
0000
0000
0000
0000
0000
0000
0000
0000
0000
0000
0000
0100
0000
0000
0000
0000
0000
0000
0000
0000
,
0004
0000
0000
0000
0000
0000
0000
0000
0000
0000
0000
0000
0000
0000
0000
0000
1003
0000
0000
0000
0000
0000
0000
0000
0100
0000
0000
0000
0000
0000
0000
0000
1000
0000
0000
0000
0000
0001
0000
0000
0100
0000
0000
0000
0000
0000
0000
0000
0101
0000
0000
0000
0000
0000
0000
0000
0001
0000
0000
0000
0000
0000
0000
0000
,
1000
0000
0000
0000
0000
0000
0000
0000
0100
0000
0000
0000
0000
0000
0000
0000
1100
0000
0000
0000
0000
0000
0000
0000
1000
0000
0000
0000
0000
0000
0000
0000
0010
0000
0000
0000
1100
0000
0000
0000
0001
0000
0000
0000
0000
0000
0000
0000
1010
0000
0000
0000
0000
0100
0000
0000
1010
0000
0000
0000
0000
0001
0000
0000
,
4000
0000
3011
0100
0001
1000
0101
1000
,
0001
0000
0100
0000
0011
0000
0000
1000
0100
0100
0001
1000
0020
0000
0130
0000
,
0110
0000
0000
0000
0000
0010
0000
0000
1000
0000
0000
0000
0000
0000
0000
0000
0100
0000
0000
0000
0100
0000
0000
0000
0001
0000
0000
0000
0010
0000
0000
0000
0100
0000
0000
0000
0100
0000
0000
0000
0010
0000
0000
0000
1000
0000
0000
0000
0100
0000
0000
0000
0100
0000
0000
0000
0001
0000
0000
0000
0010
0000
0000
0000
,
0100
0100
0010
1000
0100
0100
0001
0010
0100
1010
0100
0100
0011
1000
0011
0100
,
0001
0000
0000
0000
1000
0000
0100
0000
1000
0000
0000
0000
0000
0000
0000
0000
0001
0000
0000
0000
0010
0000
0000
0000
0100
0000
0000
0000
0001
0000
0000
0000
0000
00M0
0000
0000
0000
0001
0000
0000
1000
0000
0000
0000
0000
0000
0000
0000
0001
0000
0000
0000
0100
0000
0000
0000
0010
0000
0000
0000
0001
0000
0000
0000
,
0000
00M0
0000
0000
0000
0001
0000
0000
1000
0000
0000
0000
0000
0000
0000
0000
0001
0000
0000
0000
0010
0000
0000
0000
0100
0000
0000
0000
0001
0000
0000
0000
00M0
0000
0000
0000
0001
0000
0000
0000
1000
0000
0000
0000
0000
0000
0000
0000
0001
0000
0000
0000
0000
0100
0000
0000
0010
0000
0000
0000
0000
1000
0000
0000
,
0004
0000
0000
0000
0103
0100
0010
0001
0100
0100
1000
0010
0100
0100
0010
0001
,
0100
0000
0000
0000
0100
0000
0000
0000
1000
0000
0000
0000
0010
0000
0000
0000
0100
0000
0000
0000
0100
0000
0000
0000
0010
0000
0000
0000
0001
0000
0000
0000
0100
0000
0000
0000
0011
0000
0000
0000
1000
0000
0000
0000
0000
0000
0000
0000
0101
0000
0000
0000
0000
0010
0000
0000
0101
0000
0000
0000
0000
1000
0000
0000
,
0020
0230
0301
0001
0001
0001
0001
2000
,
3100
0000
0000
0000
0000
0000
0000
0000
0000
0000
0000
0000
0000
0000
0000
0000
0010
0000
0000
0000
0000
0000
0000
0000
0000
0000
0000
0000
0001
0000
0000
0000
0000
0000
0000
0000
0000
0000
0000
0000
0000
0000
0000
0000
1000
0000
0000
0000
0000
0000
0000
0000
0000
0000
0000
0000
0000
0000
0000
0000
0000
0000
0000
0000
0010
0000
0000
0000
0000
0000
0000
0000
0000
0000
0000
0000
0000
0000
0000
0000
0000
0000
0000
0000
0100
0000
0000
0000
0000
0000
0000
0000
0000
0000
0000
0000
0000
0000
0000
0000
0000
0000
0000
0000
0000
0000
0000
0000
0000
0000
0000
0000
0000
0000
0001
0000
0000
0000
0000
0000
0000
0000
0000
0000
0000
0000
0000
0000
0000
0000
0000
0000
0000
0000
0000
0000
0000
0000
0000
0000
0000
0000
0000
0000
0000
0000
0000
0000
0000
0000
0000
0000
0000
1000
0000
0000
0000
0000
0000
0000
0000
0000
0000
0000
0000
0000
0000
0000
0000
0000
0000
0000
0000
0000
0000
0000
0000
0000
0000
0000
0000
0000
0000
0000
0000
0000
0000
0000
0000
0000
0000
0000
,
1004
0000
0000
0000
0000
0000
0000
0000
0000
0000
0000
0000
0000
0000
0000
0000
0103
0000
0000
0000
0000
0000
0000
0000
0010
0000
0000
0000
0000
0000
0000
0000
1000
0000
0000
0000
0000
0001
0000
0000
0010
0000
0000
0000
0000
0000
0000
0000
0100
0000
0000
0000
0000
0000
0000
0000
1000
0000
0000
0000
0000
0000
0000
0000
,
0001
0000
0000
0000
0000
0100
0000
0000
0010
0000
0000
0000
0000
0000
0000
0000
1000
0000
0000
0000
0000
0000
0000
0000
0001
0000
0000
0000
0000
0000
0000
0000
0010
0000
0000
0000
0101
0000
0000
0000
1000
0000
0000
0000
0000
0000
0000
0000
0004
0000
0000
0000
0000
0000
0000
0000
0000
0000
0000
0000
0003
0100
0000
0000
,
0010
0000
1000
0100
1000
0010
0000
0001
0000
0010
0000
0000
0110
0000
0100
0000
,
0001
0000
0000
0000
0000
0000
0000
0000
1000
0000
0000
0000
0010
0000
0000
0000
1000
0000
0000
0000
0100
0000
0000
0000
0000
0000
0000
0000
0001
0000
0000
0000
0000
0000
0000
0000
0100
0000
0000
0000
0000
0000
0000
0000
0000
0000
0000
0000
1010
0000
0000
0000
0000
0100
0000
0000
1010
0000
0000
0000
0000
0001
0000
0000
,
4000
0000
0000
0000
0000
0000
0000
0000
0000
0000
0000
0000
0000
0000
0000
0000
3010
0000
0000
0000
0000
0000
0000
0000
0100
0000
0000
0000
0000
0000
0000
0000
0001
0000
0000
0000
0000
1000
0000
0000
0100
0000
0000
0000
0000
0000
0000
0000
1000
0000
0000
0000
0000
0000
0000
0000
0010
0000
0000
0000
0000
0000
0000
0000
,
0100
0000
0000
0000
0000
0001
0000
0000
1000
0000
0000
0000
0000
0000
0000
0000
0100
0000
0000
0000
0000
0000
0000
0000
1000
0000
0000
0000
0000
0000
0000
0000
0010
0000
0000
0000
0000
0100
0000
0000
0001
0000
0000
0000
0000
0000
0000
0000
1000
0000
0000
0000
0001
0000
0000
0000
0100
0000
0000
0000
0100
0000
0000
0000
,
1000
0010
1000
0001
0010
0001
0100
0010
1000
0100
1000
0001
0100
0001
0010
0100
,
1000
0000
0001
0000
0100
0000
0010
0000
1000
0000
0001
0000
1000
0000
0100
0000
0010
0000
0001
0000
1000
0000
0001
0000
0100
0000
0010
0000
1000
0000
0001
0000
0010
0000
0100
0000
1000
0000
0000
0010
0000
0000
M000
0000
0000
0010
0000
0000
,
0202
0000
0000
0303
0000
0000
0000
0000
0000
0000
0000
0000
0000
0000
0000
0000
0000
0000
0010
0000
0001
0000
1000
0000
0010
0000
0000
0000
0000
0000
2200
0000
0000
3300
0000
0000
0010
0000
0000
0000
0000
0000
1000
0000
0000
0001
0000
0000
,
2020
3030
0000
0000
0000
0000
0000
0202
0303
0000
2020
3030
0002
0000
0000
0000
,
2203
3000
0000
0000
0000
0000
0000
0000
0300
0000
0022
1033
0001
1000
0100
0010
,
0202
1303
0010
0100
0001
1000
0001
2020
3130
1000
0022
0133
0001
1000
0100
0010
,
0202
0300
0000
0000
0000
0000
0000
0000
1003
0010
0100
0001
1000
0001
0010
0100
,
0002
0000
0000
0000
0000
0000
0003
0200
0000
0000
1310
0000
0000
0001
0000
0000
,
2200
3300
0000
0000
0020
0000
1030
0001
0000
0000
2020
3030
0002
0000
1003
0010
,
2200
3300
0000
0000
0002
0000
1003
0202
0303
0000
2020
3030
0100
0100
0100
0100
,
0001
0000
1000
0100
0010
0000
0100
0000
1000
0000
0001
0100
0010
0000
1000
0000
,
0001
0000
1000
0100
0020
0000
0031
1000
0000
0000
0010
0000
0200
0000
0301
1000
,
0000
0000
0100
1000
0001
0000
0100
0000
0010
0000
1000
0001
0010
0000
0100
0000
,
1000
0000
0001
0100
0020
0000
1030
0001
0000
0000
0010
0000
0200
0000
1300
0001
,
0000
0000
0100
0000
0010
1000
0001
1000
0100
0010
0001
1000
0001
0100
0010
1000
,
0001
0010
0100
1000
0010
0100
0001
1000
0001
0100
0010
1000
0100
1000
0001
0100
,
0010
1000
0001
1000
0100
0010
0001
0100
0010
1000
0001
1000
0010
0100
0001
1000
,
0020
0030
0020
0030
0200
0300
0200
0300
0001
1000
0101
0000
1000
0011
0000
1100
,
0004
0023
0230
0320
,
0230
0320
0230
0320
,
0132
0000
0000
0000
0000
0000
0000
0000
0000
0000
0000
0000
0000
0000
0000
0000
0000
0000
0000
0000
0000
0000
0000
0000
0000
0000
0000
0000
0000
0000
0000
0000
0000
0000
0000
0000
0000
0000
0000
0000
0000
0000
0000
0000
0000
0000
0000
0000
1003
0000
0000
0000
0000
0000
0000
0000
0000
0000
0000
0000
0000
0000
0000
0010
0000
0000
0000
0000
0000
0000
0000
0000
1000
0000
0000
0000
0000
0000
0000
0000
0000
0000
0000
0000
0000
0000
0000
0100
0000
0000
0000
0000
0000
0000
0000
0000
0000
0000
0000
0000
M000
0000
0000
0000
0000
0000
0000
0000
0000
0000
0000
0100
0000
0000
0000
0000
0000
0000
0000
0000
0001
0000
0000
0000
0000
0000
0000
0000
0000
0000
0000
0000
0000
0000
0000
0100
0000
0000
0000
0000
0000
0000
0000
0000
0000
0000
0000
0000
000M
0000
0000
0000
0000
0000
0000
0000
0000
0000
0000
0100
0000
0000
0000
0000
0000
0000
0000
0000
1000
0000
0000
0000
0000
0000
0000
0000
0000
0000
0000
0000
0000
0000
0000
0100
0000
0000
0000
0000
0000
0000
0000
0000
,
0040
0000
0000
0000
0000
0000
0000
0000
0000
0000
0000
0000
0000
0000
0000
0000
0000
0000
0000
0000
0000
0000
0000
0000
0000
0000
0000
0000
0000
0000
0000
0000
0000
0000
0000
0000
0000
0000
0000
0000
0000
0000
0000
0000
0000
0000
0000
0000
0031
0000
0000
0000
0000
0000
0000
0000
0000
0000
0000
0000
0000
0000
0000
1000
0000
0000
0000
0000
0000
0000
0000
0000
0001
0000
0000
0000
0000
0000
0000
0000
0000
0000
0000
0000
0000
0000
0000
0100
0000
0000
0000
0000
0000
0000
0000
0000
0000
0000
0000
0000
000M
0000
0000
0000
0000
0000
0000
0000
0000
0000
0000
0100
0000
0000
0000
0000
0000
0000
0000
0000
2000
0000
0000
0000
0000
0000
0000
0000
0000
0000
0000
0000
0000
0000
0000
0000
0000
0000
0000
0000
0000
0000
0000
0000
3011
0000
0000
0000
0000
0000
0000
0000
0000
0000
0000
0000
0000
0000
0000
0100
0000
0000
0000
0000
0000
0000
0000
0000
0011
0000
0000
0000
0000
0000
0000
0000
0000
0000
0000
0000
0000
0000
0000
1000
0000
0000
0000
0000
0000
0000
0000
0000
,
0004
0000
0000
0000
0000
0000
0000
0000
0000
0000
0000
0000
0000
0000
0000
0000
0013
0000
0000
0000
0000
0000
0000
0000
0001
0000
0000
0000
0000
0000
0000
0000
1000
0000
0000
0000
0000
0010
0000
0000
0100
0000
0000
0000
0000
0000
0000
0000
0110
0000
0000
0000
0000
0000
0000
0000
0010
0000
0000
0000
0000
0000
0000
0000
,
1000
0000
0000
0000
0000
0000
0000
0000
0100
0000
0000
0000
0000
0000
0000
0000
1100
0000
0000
0000
0000
0000
0000
0000
1000
0000
0000
0000
0000
0000
0000
0000
0010
0000
0000
0000
1100
0000
0000
0000
0001
0000
0000
0000
0000
0000
0000
0000
1010
0000
0000
0000
0000
0100
0000
0000
1010
0000
0000
0000
0000
0001
0000
0000
,
2000
0000
3001
0100
0011
0000
1100
0000
0011
0000
1000
0001
1010
0000
0101
0000
,
1010
0000
0000
0000
0101
0000
2000
0000
3010
0000
1100
0000
0002
0003
2000
3000
,
0400
0000
0000
0000
0000
0000
0000
0000
0000
0000
0000
0000
0000
0000
0000
0000
1300
0000
0000
0000
0000
0000
0000
0000
0001
0000
0000
0000
0000
0000
0000
0000
0100
0000
0000
0000
0000
0010
0000
0000
1000
0000
0000
0000
0000
0000
0000
0000
1001
0000
0000
0000
0000
0000
0000
0000
0001
0000
0000
0000
0000
0000
0000
0000
,
0010
0000
0000
0000
0000
0001
0000
0000
1000
0000
0000
0000
0000
0000
0000
0000
1010
0000
0000
0000
0000
0000
0000
0000
0010
0000
0000
0000
0000
0000
0000
0000
0100
0000
0000
0000
0011
0000
0000
0000
1000
0000
0000
0000
0000
0000
0000
0000
0101
0000
0000
0000
0000
0000
0000
0000
1010
0000
0000
0000
0000
0000
0000
0000
,
0102
0000
0000
0000
0000
0000
0000
0000
0000
0000
0000
0000
0000
0000
0000
0000
0000
0000
0000
0000
0000
0000
0000
0000
1003
0000
0000
0000
0000
0000
0000
0000
0000
0000
0000
0000
0000
0000
0000
0000
0000
0000
0000
0000
0000
0000
0000
0000
0001
0000
0000
0000
0000
0000
0000
0000
0000
0000
0000
0000
0000
0000
0000
0100
0000
0000
0000
0000
0000
0000
0000
0000
0001
0000
0000
0000
0000
0000
0000
0000
0000
0000
0000
0000
0000
0000
0000
0010
0000
0000
0000
0000
0000
0000
0000
0000
0000
0000
0000
0000
000M
0000
0000
0000
0000
0000
0000
0000
0000
0000
0000
0010
0000
0000
0000
0000
0000
0000
0000
0000
1000
0000
0000
0000
0000
0000
0000
0000
0000
0000
0000
0000
0000
0000
0000
0010
0000
0000
0000
0000
0000
0000
0000
0000
0000
0000
0000
0000
M000
0000
0000
0000
0000
0000
0000
0000
0000
0000
0000
0010
0000
0000
0000
0000
0000
0000
0000
0000
0001
0000
0000
0000
0000
0000
0000
0000
0000
0000
0000
0000
0000
0000
0000
0010
0000
0000
0000
0000
0000
0000
0000
0000
,
0400
0000
0000
0000
0000
0000
0000
0000
0000
0000
0000
0000
0000
0000
0000
0000
0000
0000
0000
0000
0000
0000
0000
0000
0000
0000
0000
0000
0000
0000
0000
0000
0000
0000
0000
0000
0000
0000
0000
0000
0000
0000
0000
0000
0000
0000
0000
0000
1300
0000
0000
0000
0000
0000
0000
0000
0000
0000
0000
0000
0000
0000
0000
0001
0000
0000
0000
0000
0000
0000
0000
0000
1000
0000
0000
0000
0000
0000
0000
0000
0000
0000
0000
0000
0000
0000
0000
0010
0000
0000
0000
0000
0000
0000
0000
0000
0000
0000
0000
0000
M000
0000
0000
0000
0000
0000
0000
0000
0000
0000
0000
0010
0000
0000
0000
0000
0000
0000
0000
0000
0002
0000
0000
0000
0000
0000
0000
0000
0000
0000
0000
0000
0000
0000
0000
0000
0000
0000
0000
0000
0000
0000
0000
0000
0103
0000
0000
0000
0000
0000
0000
0000
0000
0000
0000
0000
0000
0000
0000
0010
0000
0000
0000
0000
0000
0000
0000
0000
1000
0000
0000
0000
0000
0000
0000
0000
0000
0000
0000
0000
0000
0000
0000
0001
0000
0000
0000
0000
0000
0000
0000
0000
,
0400
0000
0000
0000
0000
0000
0000
0000
0000
0000
0000
0000
0000
0000
0000
0000
0310
0000
0000
0000
0000
0000
0000
0000
1000
0000
0000
0000
0000
0000
0000
0000
0001
0000
0000
0000
0000
0010
0000
0000
0100
0000
0000
0000
0000
0000
0000
0000
1100
0000
0000
0000
0000
0000
0000
0000
1000
0000
0000
0000
0000
0000
0000
0000
,
0001
0000
0000
0000
0000
0100
0000
0000
0010
0000
0000
0000
0000
0000
0000
0000
0110
0000
0000
0000
0000
0000
0000
0000
0100
0000
0000
0000
0000
0000
0000
0000
0010
0000
0000
0000
1100
0000
0000
0000
0001
0000
0000
0000
0000
0000
0000
0000
1010
0000
0000
0000
0000
0100
0000
0000
1010
0000
0000
0000
0000
0001
0000
0000
,
4000
0000
3010
0010
0010
0010
0010
2000
,
3001
0000
0000
0000
0000
0000
0000
0000
0010
0000
0000
0000
0000
0000
0000
0000
0100
0000
0000
0000
0000
0000
0000
0000
1000
0000
0000
0000
0000
0000
0000
0000
0000
0001
0000
0000
0000
0000
0000
0000
0000
0000
0100
0000
0000
0000
0000
0000
0000
0000
0000
0000
0000
0000
0000
0000
0000
0010
0000
0000
0000
0000
0000
0000
0000
0000
0000
0000
0000
0000
0000
0000
1000
0000
0000
0000
0000
0000
0000
0000
0000
0000
0000
0000
0000
0000
0000
0000
0000
0000
0000
0000
0000
0000
0000
0000
0002
0000
0000
0000
0000
0000
0000
0000
0000
0000
0000
0000
0000
0000
0000
0000
0000
0000
0000
0000
0000
0000
0000
0000
1013
0000
0000
0000
0000
0000
0000
0000
0000
0000
0000
0000
0000
0000
0000
0000
0000
0000
0000
0000
0000
0000
0000
0000
0100
0000
0000
0000
0000
0000
0000
0000
0000
0000
0000
0000
0000
0000
0000
0000
0000
0000
0000
0000
0000
0000
0000
0000
1000
0000
0000
0000
0000
0000
0000
0000
0000
0000
0000
0000
0001
0000
0000
0000
0000
0000
0000
0000
0000
0000
0000
0000
,
0100
0000
0000
0000
0000
0010
0000
0000
1000
0000
0000
0000
0000
0000
0000
0000
1001
0000
0000
0000
0000
0000
0000
0000
0001
0000
0000
0000
0000
0000
0000
0000
0010
0000
0000
0000
0000
0001
0000
0000
1000
0000
0000
0000
0000
0000
0000
0000
1010
0000
0000
0000
0000
0000
0000
0000
0010
0000
0000
0000
0000
0000
0000
0000
,
0100
0000
0000
0000
0000
0001
0000
0000
1000
0000
0000
0000
0000
0000
0000
0000
1100
0000
0000
0000
0000
0000
0000
0000
0100
0000
0000
0000
0000
0000
0000
0000
0010
0000
0000
0000
0101
0000
0000
0000
1000
0000
0000
0000
0000
0000
0000
0000
0011
0000
0000
0000
0000
0000
0000
0000
1100
0000
0000
0000
0000
0000
0000
0000
,
0010
0000
0000
0000
0000
1000
0000
0000
0001
0000
0000
0000
0000
0000
0000
0000
0020
0000
0000
0000
0000
0000
0000
0000
0031
0000
0000
0000
1000
0000
0000
0000
0000
0000
0000
0000
0000
0000
0000
0000
0010
0000
0000
0000
0000
0000
0000
0000
0200
0000
0000
0000
0000
0000
0000
0000
0301
0000
0000
0000
1000
0000
0000
0000
,
0000
0000
0100
0000
0020
0000
0031
0100
0000
0001
1000
0000
0100
0100
0100
0100
;

//---------------dance-single - ----------------
#NOTES:
     dance-single:
     :
     Hard:
     10:
     0.668071,0.855294,0.079263,0.720570,0.644910,649.000000,638.000000,11.000000,100.000000,12.000000,1.000000,0.668071,0.855294,0.079263,0.720570,0.644910,649.000000,638.000000,11.000000,100.000000,12.000000,1.000000:
0000
0000
0000
0000
,
0000
0000
0000
0000
,
0000
0000
0000
0000
2000
0000
3010
0100
0000
0000
0001
0000
2000
0000
3100
0010
,
0000
0000
0001
0000
0200
0000
0310
1000
0000
0000
0001
0000
0010
0100
0010
0100
,
1000
0001
0100
0001
1000
0100
1000
0010
,
0100
0001
1000
0001
0010
0100
0010
0001
,
1000
0010
0100
0010
1000
0001
0010
0100
,
1000
0001
1000
0010
0100
0010
1000
0001
,
0010
0001
1000
0001
0100
0010
1000
0001
0010
0100
1000
0001
0100
0010
0100
0001
,
1000
0100
0010
0001
0100
0010
1000
0001
1000
0010
0100
0001
1000
0100
0010
0001
,
1000
0010
0100
0010
1000
0001
0010
0100
1000
0001
1000
0010
0100
0001
0010
0100
,
2000
3000
2000
3000
0002
0003
0002
0003
1000
0100
0010
0000
0001
0100
000M
0100
,
2000
3001
0200
0301
0020
0031
0200
0301
,
0020
0000
0031
0000
0200
0000
0301
0000
0010
0100
1000
0000
1001
0000
0001
0000
,
0400
0000
0000
0000
0000
0000
0000
0000
0000
0000
0000
0000
0000
0000
0000
0000
0310
0000
0000
0000
1000
0000
0000
0000
0001
0000
0000
0000
0100
0000
0000
0000
0000
000M
0000
0000
0000
0100
0000
0000
1000
0000
0000
0000
0000
0000
0000
0000
0001
0000
0000
0000
1000
0000
0000
0000
0100
0000
0000
0000
0010
0000
0000
0000
,
0000
0000
0M00
0000
0000
0000
0000
0000
0010
0000
0000
0000
0000
0000
0000
0000
1000
0000
0000
0000
0100
0000
0000
0000
0010
0000
0000
0000
0001
0000
0000
0000
1000
0000
0000
0000
0001
0000
0000
0000
0200
0000
0000
0000
0000
0000
0000
0000
0310
0000
0000
0000
0000
1000
0000
0000
0001
0000
0000
0000
0000
0100
0000
0000
,
0040
0000
0230
0301
2000
3100
2000
3010
,
2000
0000
0000
0000
0000
0000
0000
0000
3100
0000
0000
0000
0000
0000
0000
0000
2000
0000
0000
0000
0000
0000
0000
0000
3010
0000
0000
0000
0000
0000
0000
0000
0100
0000
0000
0000
0001
0000
0000
0000
1000
0000
0000
0000
0000
0000
0000
0000
0100
0000
0000
0000
0000
1000
0000
0000
0001
0000
0000
0000
0000
0100
0000
0000
,
0040
0000
1030
0001
0010
0001
1000
0010
,
0100
0000
0010
0000
1000
0000
0001
0010
0100
1000
0010
0100
0002
0000
1003
0000
,
4001
0000
3002
0013
0002
0103
0002
0013
,
0002
0000
0103
0000
0002
0000
0013
0000
0100
1000
0001
0000
1001
0000
1000
0000
,
0040
0000
0000
0000
0000
0000
0000
0000
0000
0000
0000
0000
0000
0000
0000
0000
0000
0000
0000
0000
0000
0000
0000
0000
0000
0000
0000
0000
0000
0000
0000
0000
0000
0000
0000
0000
0000
0000
0000
0000
0000
0000
0000
0000
0000
0000
0000
0000
0130
0000
0000
0000
0000
0000
0000
0000
0000
0000
0000
0000
0001
0000
0000
0000
0000
0000
0000
0000
0000
0000
0000
0000
1000
0000
0000
0000
0000
0000
0000
0000
0000
0000
0000
0000
0100
0000
0000
0000
0000
0000
0000
0000
0000
0000
0000
0000
0000
0000
M000
0000
0000
0000
0000
0000
0000
0000
0000
0000
0000
0000
0000
0100
0000
0000
0000
0000
0000
0000
0000
0000
0001
0000
0000
0000
0000
0000
0000
0000
0000
0000
0000
0000
0000
0000
0000
0000
0000
0000
0000
0000
0000
0000
0000
0000
1000
0000
0000
0000
0000
0000
0000
0000
0000
0000
0000
0000
0001
0000
0000
0000
0000
0000
0000
0000
0000
0000
0000
0000
0010
0000
0000
0000
0000
0000
0000
0000
0000
0000
0000
0000
0100
0000
0000
0000
0000
0000
0000
0000
0000
0000
0000
0000
,
0000
M000
0000
0000
0000
0100
0000
0000
0001
0000
0000
0000
0000
0000
0000
0000
1000
0000
0000
0000
0010
0000
0000
0000
0100
0000
0000
0000
0001
0000
0000
0000
0010
0000
0000
0000
0100
0000
0000
0000
1000
0000
0000
0000
0000
0000
0000
0000
0001
0000
0000
0000
0000
0100
0000
0000
0010
0000
0000
0000
0000
1000
0000
0000
,
0004
0000
2003
3100
2000
3010
2000
3100
,
2000
0000
0000
0000
0000
0000
0000
0000
3010
0000
0000
0000
0000
0000
0000
0000
2000
0000
0000
0000
0000
0000
0000
0000
3100
0000
0000
0000
0000
0000
0000
0000
0010
0000
0000
0000
0001
0000
0000
0000
1000
0000
0000
0000
0000
0000
0000
0000
0010
0000
0000
0000
0000
0100
0000
0000
0001
0000
0000
0000
0000
1000
0000
0000
,
0010
0200
0301
0001
0001
0001
0001
4000
,
3200
0000
0000
0000
0000
0000
0000
0000
0000
0000
2300
0000
3002
0000
0103
0010
,
4000
0000
3002
0013
0002
0103
0020
1030
,
0200
0000
1300
0000
0020
0000
1030
0000
0001
0010
0100
0000
4000
0000
0000
0000
,
3010
0000
0100
0001
1000
0100
0000
0001
0000
0100
0000
0000
1000
0000
0001
0000
,
0100
0000
0000
0000
0000
0000
0000
0000
0010
0000
0000
0000
1000
0000
0000
0000
0001
0000
0000
0000
0010
0000
0000
0000
0000
0000
0000
0000
1000
0000
0000
0000
0000
0000
0000
0000
0010
0000
0000
0000
0000
0000
0000
0000
0000
0000
0000
0000
0001
0000
0000
0000
0000
1000
0000
0000
0010
0000
0000
0000
0000
0100
0000
0000
,
0004
0000
0023
0130
2000
3010
2000
3100
,
0020
0000
0031
0000
0200
0000
0301
0000
0010
0100
1000
0000
1001
0000
0001
0000
,
0100
0010
0100
0001
1000
0001
0010
0100
1000
0001
1000
0010
0100
0001
1000
0100
,
0040
0000
0000
0000
,
0032
0000
0000
0000
0000
0000
0000
0000
0000
0003
0000
0000
0000
0000
0000
0000
0000
0000
0100
0000
0001
0000
1000
0000
0200
0000
0000
0000
0000
0000
0010
0000
0000
0000
0000
0000
2300
0000
0000
0000
0000
0000
3001
0000
0000
0100
0000
0000
,
0020
0000
0000
0000
0000
0000
0000
1000
0000
0000
0230
0000
0302
0000
0000
0000
,
1000
0000
0000
0000
0000
0000
0000
0000
0000
0000
0013
0100
0010
0001
1000
0001
,
0100
0010
1000
0001
0010
0100
1000
0010
0100
0001
1000
0100
0010
0001
0100
0010
,
2000
0000
0000
0000
0000
0000
0000
0000
3010
0100
0001
1000
0100
0010
0001
1000
,
0020
0000
0000
0000
0000
0000
0000
0100
0000
0000
1030
0000
0000
0001
0000
0000
,
0020
0000
0000
0000
0230
0000
1300
0001
0000
0000
0100
0000
0020
0000
1030
0001
,
1000
0000
0000
0000
0200
0000
1300
0001
0000
0000
0100
0000
0010
1000
0010
1000
,
0001
0010
0001
1000
0010
0100
0010
1000
,
0001
0000
0010
0000
0200
0000
1300
0001
0000
0000
0100
0000
0020
0000
1030
0001
,
0010
0100
1000
0001
0100
0010
1000
0001
,
0010
0000
0100
0000
2000
0000
3001
0100
0000
0000
0010
0000
2000
0000
3001
0010
,
0100
1000
0001
1000
0010
0100
0001
1000
,
0001
0010
0100
1000
0001
0100
0010
1000
,
0001
0010
0001
1000
0010
0100
0010
1000
0001
0010
0100
1000
0001
0100
0001
1000
,
0200
0300
0200
0300
2000
3000
2000
3000
0001
1000
0010
0000
1000
0100
M000
0100
,
0004
0023
0230
0320
,
0230
0320
0230
0320
,
0132
0000
0000
0000
0000
0000
0000
0000
0000
0000
0000
0000
0000
0000
0000
0000
0000
0000
0000
0000
0000
0000
0000
0000
0000
0000
0000
0000
0000
0000
0000
0000
0000
0000
0000
0000
0000
0000
0000
0000
0000
0000
0000
0000
0000
0000
0000
0000
1003
0000
0000
0000
0000
0000
0000
0000
0000
0000
0000
0000
0000
0000
0000
0010
0000
0000
0000
0000
0000
0000
0000
0000
1000
0000
0000
0000
0000
0000
0000
0000
0000
0000
0000
0000
0000
0000
0000
0100
0000
0000
0000
0000
0000
0000
0000
0000
0000
0000
0000
0000
M000
0000
0000
0000
0000
0000
0000
0000
0000
0000
0000
0100
0000
0000
0000
0000
0000
0000
0000
0000
0001
0000
0000
0000
0000
0000
0000
0000
0000
0000
0000
0000
0000
0000
0000
0100
0000
0000
0000
0000
0000
0000
0000
0000
0000
0000
0000
0000
000M
0000
0000
0000
0000
0000
0000
0000
0000
0000
0000
0100
0000
0000
0000
0000
0000
0000
0000
0000
1000
0000
0000
0000
0000
0000
0000
0000
0000
0000
0000
0000
0000
0000
0000
0100
0000
0000
0000
0000
0000
0000
0000
0000
,
0040
0000
0000
0000
0000
0000
0000
0000
0000
0000
0000
0000
0000
0000
0000
0000
0000
0000
0000
0000
0000
0000
0000
0000
0000
0000
0000
0000
0000
0000
0000
0000
0000
0000
0000
0000
0000
0000
0000
0000
0000
0000
0000
0000
0000
0000
0000
0000
0031
0000
0000
0000
0000
0000
0000
0000
0000
0000
0000
0000
0000
0000
0000
1000
0000
0000
0000
0000
0000
0000
0000
0000
0001
0000
0000
0000
0000
0000
0000
0000
0000
0000
0000
0000
0000
0000
0000
0100
0000
0000
0000
0000
0000
0000
0000
0000
0000
0000
0000
0000
000M
0000
0000
0000
0000
0000
0000
0000
0000
0000
0000
0100
0000
0000
0000
0000
0000
0000
0000
0000
2000
0000
0000
0000
0000
0000
0000
0000
0000
0000
0000
0000
0000
0000
0000
0000
0000
0000
0000
0000
0000
0000
0000
0000
3001
0000
0000
0000
0000
0000
0000
0000
0000
0000
0000
0000
0000
0000
0000
0100
0000
0000
0000
0000
0000
0000
0000
0000
0010
0000
0000
0000
0000
0000
0000
0000
0000
0000
0000
0000
0000
0000
0000
1000
0000
0000
0000
0000
0000
0000
0000
0000
,
0004
0000
2003
3010
2000
3100
2000
3010
,
2000
0000
0000
0000
0000
0000
0000
0000
3100
0000
0000
0000
0000
0000
0000
0000
2000
0000
0000
0000
0000
0000
0000
0000
3010
0000
0000
0000
0000
0000
0000
0000
0100
0000
0000
0000
0001
0000
0000
0000
1000
0000
0000
0000
0000
0000
0000
0000
0100
0000
0000
0000
0000
1000
0000
0000
0001
0000
0000
0000
0000
0100
0000
0000
,
0020
0000
1030
0001
0020
0000
0100
0000
0130
0000
1000
0001
0200
0000
0010
0000
,
0310
0000
0000
0000
0110
0000
0020
0000
1030
0000
1001
0000
0002
0003
2000
3000
,
0400
0000
2300
3010
2000
3100
2000
3010
,
2000
0000
3100
0000
2000
0000
3010
0000
0100
0001
1000
0000
1100
0000
0100
0000
,
4000
0000
0000
0000
0000
0000
0000
0000
0000
0000
0000
0000
0000
0000
0000
0000
0000
0000
0000
0000
0000
0000
0000
0000
0000
0000
0000
0000
0000
0000
0000
0000
0000
0000
0000
0000
0000
0000
0000
0000
0000
0000
0000
0000
0000
0000
0000
0000
3001
0000
0000
0000
0000
0000
0000
0000
0000
0000
0000
0000
0000
0000
0000
0100
0000
0000
0000
0000
0000
0000
0000
0000
0001
0000
0000
0000
0000
0000
0000
0000
0000
0000
0000
0000
0000
0000
0000
0010
0000
0000
0000
0000
0000
0000
0000
0000
0000
0000
0000
0000
000M
0000
0000
0000
0000
0000
0000
0000
0000
0000
0000
0010
0000
0000
0000
0000
0000
0000
0000
0000
1000
0000
0000
0000
0000
0000
0000
0000
0000
0000
0000
0000
0000
0000
0000
0010
0000
0000
0000
0000
0000
0000
0000
0000
0000
0000
0000
0000
M000
0000
0000
0000
0000
0000
0000
0000
0000
0000
0000
0010
0000
0000
0000
0000
0000
0000
0000
0000
0001
0000
0000
0000
0000
0000
0000
0000
0000
0000
0000
0000
0000
0000
0000
0010
0000
0000
0000
0000
0000
0000
0000
0000
,
0400
0000
0000
0000
0000
0000
0000
0000
0000
0000
0000
0000
0000
0000
0000
0000
0000
0000
0000
0000
0000
0000
0000
0000
0000
0000
0000
0000
0000
0000
0000
0000
0000
0000
0000
0000
0000
0000
0000
0000
0000
0000
0000
0000
0000
0000
0000
0000
1300
0000
0000
0000
0000
0000
0000
0000
0000
0000
0000
0000
0000
0000
0000
0001
0000
0000
0000
0000
0000
0000
0000
0000
1000
0000
0000
0000
0000
0000
0000
0000
0000
0000
0000
0000
0000
0000
0000
0010
0000
0000
0000
0000
0000
0000
0000
0000
0000
0000
0000
0000
M000
0000
0000
0000
0000
0000
0000
0000
0000
0000
0000
0010
0000
0000
0000
0000
0000
0000
0000
0000
0002
0000
0000
0000
0000
0000
0000
0000
0000
0000
0000
0000
0000
0000
0000
0000
0000
0000
0000
0000
0000
0000
0000
0000
0103
0000
0000
0000
0000
0000
0000
0000
0000
0000
0000
0000
0000
0000
0000
0010
0000
0000
0000
0000
0000
0000
0000
0000
1000
0000
0000
0000
0000
0000
0000
0000
0000
0000
0000
0000
0000
0000
0000
0001
0000
0000
0000
0000
0000
0000
0000
0000
,
0400
0000
0302
0013
0002
0103
0002
0013
,
0002
0000
0000
0000
0000
0000
0000
0000
0103
0000
0000
0000
0000
0000
0000
0000
0002
0000
0000
0000
0000
0000
0000
0000
0013
0000
0000
0000
0000
0000
0000
0000
0100
0000
0000
0000
1000
0000
0000
0000
0001
0000
0000
0000
0000
0000
0000
0000
1000
0000
0000
0000
0000
0010
0000
0000
0100
0000
0000
0000
0000
0001
0000
0000
,
4000
0000
3010
0010
0010
0010
0010
4000
,
3200
0000
0000
0000
0010
0000
0000
0000
2300
0000
0010
0000
3001
0000
0100
0001
,
1000
0000
0000
0000
0000
0010
0000
0000
1000
0000
0000
0000
0000
0000
0000
0000
1001
0000
0000
0000
0000
0000
0000
0000
0001
0000
0000
0000
0000
0000
0000
0000
0010
0000
0000
0000
0000
0001
0000
0000
1000
0000
0000
0000
0000
0000
0000
0000
1010
0000
0000
0000
0000
0000
0000
0000
0010
0000
0000
0000
0000
0000
0000
0000
,
0100
0000
0000
0000
0000
0001
0000
0000
1000
0000
0000
0000
0000
0000
0000
0000
1100
0000
0000
0000
0000
0000
0000
0000
0100
0000
0000
0000
0000
0000
0000
0000
0010
0000
0000
0000
0001
0000
0000
0000
1000
0000
0000
0000
0000
0000
0000
0000
0010
0000
0000
0000
0000
0000
0000
0000
0100
0000
0000
0000
0000
0000
0000
0000
,
0010
0000
0000
0000
0000
1000
0000
0000
0001
0000
0000
0000
0000
0000
0000
0000
0020
0000
0000
0000
0000
0000
0000
0000
0031
0000
0000
0000
1000
0000
0000
0000
0000
0000
0000
0000
0000
0000
0000
0000
0010
0000
0000
0000
0000
0000
0000
0000
0200
0000
0000
0000
0000
0000
0000
0000
0301
0000
0000
0000
1000
0000
0000
0000
,
0000
0000
0100
0000
0020
0000
0031
0100
0000
0001
1000
0000
0100
0010
0100
0010
;

//---------------dance-single - JA, BU----------------
#NOTES:
     dance-single:
     :
     Medium:
     8:
     0.400431,0.466524,0.180143,0.619690,0.072057,389.000000,364.000000,25.000000,86.000000,0.000000,0.000000,0.400431,0.466524,0.180143,0.619690,0.072057,389.000000,364.000000,25.000000,86.000000,0.000000,0.000000:
0000
0000
0000
0000
,
0000
0000
0000
0000
,
0000
0000
0000
0000
,
0000
0000
0000
0000
,
0002
0000
0203
0000
,
0302
0000
2003
0000
,
3200
0000
2300
0000
,
3002
0000
0203
0000
,
0302
0000
2003
0000
,
3200
0000
2300
0000
,
3001
0100
0001
1000
0100
0010
0001
1000
,
0010
0000
0010
0000
0100
0000
0100
0000
0001
1000
0001
0000
0010
0000
0010
0000
,
0200
4300
3004
0403
,
0304
4003
3400
4300
,
3001
0100
0001
1000
0100
0020
0130
1000
,
0100
0020
0130
1000
0001
0002
0103
0100
,
0020
4030
3004
0043
,
0034
0000
4003
0000
3010
0100
0001
0001
,
2000
0000
3000
0000
0100
0000
1000
0001
0000
0000
0000
0000
0100
0000
0001
1000
,
0000
0000
0000
0000
0100
0000
1000
0001
1000
0001
1000
0001
0100
0000
0100
0000
,
0020
4030
3004
4003
,
3400
4300
3004
0403
,
0310
1000
0001
0000
0010
0200
1300
0001
,
0100
0020
1030
0001
0010
0200
1300
1000
,
0002
0403
0340
4030
,
3004
0000
0043
0000
0031
1000
0010
0010
,
0200
0000
0301
1000
0001
1000
0001
0020
,
0230
0000
0000
0000
0000
1300
0002
1003
,
1001
0101
1100
0011
,
1010
0101
1100
1001
,
0001
0000
1000
0000
0100
0000
0000
1000
0000
0001
0000
0000
0100
0000
0010
0000
,
0100
0000
0001
0000
1000
0000
0000
0100
0000
0010
0000
0000
0001
0000
0001
0000
,
1001
1010
0101
1100
,
0011
0000
1010
0000
0101
0000
1001
1000
,
0001
0010
0001
1000
0010
0100
0010
1000
,
0002
0000
0000
0000
,
1003
0000
0000
0000
0000
0000
0000
0000
0000
0000
0100
0000
0000
0000
0000
1000
,
0001
0000
0000
0000
0000
0000
0000
0100
0000
0000
0010
0000
1000
0000
0000
0000
,
1001
0000
0000
0000
0000
0001
0010
0100
,
1000
0010
0100
0001
1000
0100
0010
0001
,
0200
0000
0000
0000
0310
1000
0100
0010
,
0002
0000
0000
0000
0000
0000
0000
0103
0000
0000
0010
0000
1000
0000
0000
0000
,
2002
3003
0000
0000
0000
0220
0330
0000
,
2002
0000
3003
0000
0000
0000
0000
0220
0000
0330
2002
3003
1000
0001
1000
0001
,
0200
0000
0320
0000
,
2030
0000
3002
0000
,
0023
0000
0032
0000
,
2003
0000
3020
0000
,
1030
0001
1000
0100
0010
0001
1000
0010
,
0100
0001
1000
0001
0010
0100
1000
0001
,
0100
0010
1000
0001
0010
0100
1000
0001
,
0100
0000
0100
0000
0010
0000
0010
0000
1000
0001
1000
0000
0100
0000
0010
0000
,
0002
0203
0320
0230
,
0320
0230
0320
0230
,
0302
0000
1003
0100
1000
0001
0100
0010
,
4000
0000
3001
0010
0001
2000
3010
0010
,
0400
0302
2003
3200
,
2300
0000
3002
0000
0103
0020
1030
1000
,
0002
0000
0013
0010
0010
0000
0001
0001
,
0002
0000
1003
0002
0103
0110
0010
1000
,
0002
0023
0032
2003
,
3020
0000
2030
0000
3001
0010
0100
0100
,
2000
0000
3001
0100
0001
1000
0100
1000
,
0004
0000
0103
0010
0100
0001
1000
1000
,
0200
2300
3002
0203
,
0302
0000
2003
0000
3100
0010
0001
0001
,
2000
0000
3010
0010
0010
0010
0010
1000
,
2002
0000
0000
0000
3003
0110
0000
0000
,
0001
0100
0001
1000
0100
1000
0001
0100
,
0010
0000
0100
0000
0001
0000
1000
0000
0100
0010
0100
0000
1000
0000
0001
0000
,
0100
0010
2000
3001
0010
0100
2000
3010
,
0100
0000
0001
0000
2000
0000
3100
0000
0010
0000
0001
0000
0100
0010
0100
0010
;

//---------------dance-single - ----------------
#NOTES:
     dance-single:
     :
     Easy:
     5:
     0.267640,0.336641,0.129703,0.929535,0.000000,260.000000,242.000000,18.000000,129.000000,0.000000,0.000000,0.267640,0.336641,0.129703,0.929535,0.000000,260.000000,242.000000,18.000000,129.000000,0.000000,0.000000:
// measure 0
0000
0000
0000
0000
,  // measure 1
0000
0000
0000
0000
,  // measure 2
0000
0000
0000
0000
,  // measure 3
0000
0000
0000
0000
,  // measure 4
2000
0000
3002
0000
,  // measure 5
0203
0000
0302
0000
,  // measure 6
2003
0000
3200
0000
,  // measure 7
2300
0000
3002
0000
,  // measure 8
0103
0000
0010
0000
,  // measure 9
1000
0000
0001
0000
,  // measure 10
1000
0100
0010
0001
,  // measure 11
1000
1000
0001
0001
0100
0000
0100
0000
,  // measure 12
0110
0020
2030
3002
,  // measure 13
2003
3002
0023
0230
,  // measure 14
1300
1001
0001
0101
,  // measure 15
0100
0000
0110
0000
0010
0000
1000
0001
,  // measure 16
2000
3200
2300
3002
,  // measure 17
0203
0302
2003
3200
,  // measure 18
2300
0001
0000
0001
,  // measure 19
0000
0000
3001
0000
1000
0001
0200
0000
,  // measure 20
0320
2030
3002
0023
,  // measure 21
0032
2003
3020
2030
,  // measure 22
3001
1001
1000
1100
,  // measure 23
0100
0000
0110
0000
0010
0000
0001
1000
,  // measure 24
0002
0203
0320
2030
,  // measure 25
3002
0023
0032
2003
,  // measure 26
3020
0000
0130
0100
0100
0100
0100
0000
,  // measure 27
0002
0000
0000
0000
,  // measure 28
1003
0200
2300
3002
,  // measure 29
0203
0302
2003
3200
,  // measure 30
1300
1100
0001
0101
,  // measure 31
1000
0000
1010
0000
0001
0000
1000
0001
,  // measure 32
2000
3200
2300
3002
,  // measure 33
0203
0320
2030
3002
,  // measure 34
0013
0100
1000
0001
,  // measure 35
0100
0010
0100
0000
0001
1000
0001
0000
,  // measure 36
2002
3003
0000
0000
0000
0000
0000
0000
,  // measure 37
0220
0330
0000
0000
0000
0000
0000
0000
,  // measure 38
2002
3003
0000
0000
0000
1000
0000
0000
,  // measure 39
2200
3300
0000
0000
0000
0001
0000
0000
,  // measure 40
2002
3003
0000
0000
2000
3020
0230
0302
,  // measure 41
2003
3000
0000
0000
0000
0000
0000
0000
,  // measure 42
2002
3003
0000
0000
0000
0100
0000
0000
,  // measure 43
0220
0330
0000
0000
0000
1000
0001
1000
,  // measure 44
0020
0000
2030
0000
,  // measure 45
3002
0000
0023
0000
,  // measure 46
0032
0000
2003
0000
,  // measure 47
3020
0000
2030
0000
,  // measure 48
3002
0000
0023
0000
,  // measure 49
0230
0000
2300
0000
,  // measure 50
3002
0000
0203
0000
,  // measure 51
0301
0001
1000
1000
0100
0000
0100
0000
,  // measure 52
0020
0032
2003
3002
,  // measure 53
2003
3002
2003
3002
,  // measure 54
0203
0310
0010
0010
,  // measure 55
2000
0000
3001
0000
0100
0010
0100
0000
,  // measure 56
0002
0023
0230
0320
,  // measure 57
0032
2003
3020
0230
,  // measure 58
0301
0000
1000
0100
1000
0000
0001
0100
,  // measure 59
0001
1001
0000
0000
,  // measure 60
2000
3002
0203
0302
,  // measure 61
2003
3200
0320
0032
,  // measure 62
2003
3010
0010
0010
,  // measure 63
2000
0000
3001
0000
0010
0100
0010
0000
,  // measure 64
0002
2003
3020
2030
,  // measure 65
3002
0023
0230
2300
,  // measure 66
3002
0000
0103
0100
0100
0100
0100
0000
,  // measure 67
0002
0000
0000
0000
,  // measure 68
1003
0010
1000
0001
,  // measure 69
0010
0000
0001
0000
0100
0010
0100
0000
,  // measure 70
0001
1000
0001
0010
,  // measure 71
0001
0000
1000
0000
0010
0000
0100
0100
;

//---------------dance-single - ----------------
#NOTES:
     dance-single:
     :
     Beginner:
     1:
     0.069998,0.102321,0.014411,0.000000,0.000000,68.000000,66.000000,2.000000,0.000000,0.000000,0.000000,0.069998,0.102321,0.014411,0.000000,0.000000,68.000000,66.000000,2.000000,0.000000,0.000000,0.000000:
0000
0000
0000
0000
,
0000
0000
0000
0000
,
0000
0000
0000
0000
,
0000
0000
0000
0000
,
1000
0000
0000
0000
,
0001
0000
0000
0000
,
0100
0000
0000
0000
,
0010
0000
0000
0000
,
1000
0000
0000
0000
,
0001
0000
0000
0000
,
0010
0000
0000
0000
,
0100
0000
0000
0000
,
1000
0000
0000
0000
,
0001
0000
0000
0000
,
0100
0000
0000
0000
,
0010
0000
0000
0000
,
1000
0000
0000
0000
,
0001
0000
0000
0000
,
1000
0000
0000
0000
,
0100
0000
0000
0000
,
0010
0000
0000
0000
,
0001
0000
0000
0000
,
1000
0000
0000
0000
,
0010
0000
0000
0000
,
0100
0000
0000
0000
,
0010
0000
0000
0000
,
1000
0000
0000
0000
,
1001
0000
0000
0000
,
0001
0000
0000
0000
,
1000
0000
0000
0000
,
0001
0000
0000
0000
,
0100
0000
0000
0000
,
0001
0000
0000
0000
,
1000
0000
0000
0000
,
0100
0000
0000
0000
,
1000
0000
0000
0000
,
0010
0000
0000
0000
,
0100
0000
0000
0000
,
0001
0000
0000
0000
,
1000
0000
0000
0000
,
0100
0000
0000
0000
,
0010
0000
0000
0000
,
0001
0000
0000
0000
,
1000
0000
0000
0000
,
0010
0000
0000
0000
,
0100
0000
0000
0000
,
0001
0000
0000
0000
,
1000
0000
0000
0000
,
0001
0000
0000
0000
,
0010
0000
0000
0000
,
0100
0000
0000
0000
,
1000
0000
0000
0000
,
1001
0000
0000
0000
,
0000
0000
0000
0000
,
0001
0000
0000
0000
,
1000
0000
0000
0000
,
0001
0000
0000
0000
,
0100
0000
0000
0000
,
0010
0000
0000
0000
,
0000
0000
0000
0000
,
1000
0000
0000
0000
,
0001
0000
0000
0000
,
1000
0000
0000
0000
,
0100
0000
0000
0000
,
0010
0000
0000
0000
,
0001
0000
0000
0000
,
1000
0000
0000
0000
,
0010
0000
0000
0000
,
1000
0000
0000
0000
,
0001
0000
0000
0000
,
1000
0000
0000
0000
,
0001
0000
0000
0000
;
