#VERSION:0.83;
#TITLE:Banger Machine;
#SUBTITLE:;
#ARTIST:Castion;
#TITLETRANSLIT:;
#SUBTITLETRANSLIT:;
#ARTISTTRANSLIT:;
#GENRE:;
#ORIGIN:;
#CREDIT:;
#BANNER:banger machine-bn.png;
#BACKGROUND:banger machine-bg.png;
#PREVIEWVID:;
#JACKET:banger machine jacket.png;
#CDIMAGE:;
#DISCIMAGE:;
#LYRICSPATH:;
#CDTITLE:;
#MUSIC:Banger Machine.ogg;
#OFFSET:0.009000;
#SAMPLESTART:95.288895;
#SAMPLELENGTH:17.455000;
#SELECTABLE:YES;
#DISPLAYBPM:124.000000;
#BPMS:0.000=124.000;
#STOPS:;
#DELAYS:;
#WARPS:;
#TIMESIGNATURES:0.000=4=4;
#TICKCOUNTS:0.000=4;
#COMBOS:0.000=1;
#SPEEDS:0.000=1.000=0.000=0;
#SCROLLS:0.000=1.000;
#FAKES:;
#LABELS:0.000=Song Start;
#BGCHANGES:;
#KEYSOUNDS:;
#ATTACKS:
;

//---------------dance-single - Maxx----------------
#NOTEDATA:;
#CHARTNAME:Maxx;
#STEPSTYPE:dance-single;
#DESCRIPTION:Maxx;
#CHARTSTYLE:;
#DIFFICULTY:Challenge;
#METER:11;
#RADARVALUES:0.801060,0.929254,0.275023,0.343779,1.084814,734.000000,698.000000,36.000000,45.000000,0.000000,0.000000,0.000000,0.000000,0.000000,0.801060,0.929254,0.275023,0.343779,1.084814,734.000000,698.000000,36.000000,45.000000,0.000000,0.000000,0.000000,0.000000,0.000000;
#CREDIT:Maxx;
#DISPLAYBPM:124.000000;
#NOTES:
0000
0000
0000
0000
,
0000
0000
0000
0000
,
0000
0000
0000
0000
,
0000
0000
0000
0000
,
0000
0000
0000
0000
0000
0000
0000
0000
0000
0000
0000
0000
0000
0000
0000
0000
0000
0000
0000
0000
0000
0000
0000
0000
0000
0000
0000
0000
0000
0000
0000
0000
0000
0000
0000
0000
0000
0000
0000
0000
0000
0000
0000
0000
0000
0000
0000
0000
0001
0000
0000
0000
0000
0000
0000
0000
0000
0000
0000
0000
0000
0000
0000
0000
1000
0000
0000
0000
0000
0000
0000
0000
0000
0000
0000
0000
0000
0000
0000
0000
0001
0000
0000
0000
0000
0000
0000
0000
0000
0000
0000
0000
0000
0000
0000
0000
1000
0000
0000
0000
0000
0000
0000
0000
0000
0000
0000
0000
0000
0000
0000
0000
0001
0000
0000
0000
0000
0000
0000
0000
0000
0000
0000
0000
0000
0000
0000
0000
1000
0000
0000
0000
0000
0000
0000
0000
0000
0000
0000
0000
0000
0000
0000
0000
0001
0000
0000
0000
0000
0000
0000
0000
0000
0000
0000
0000
0000
0000
0000
0010
0000
0000
0000
0000
0000
0000
0000
0000
0100
0000
0000
0000
0000
0000
0000
0000
0000
0000
0000
0000
0000
0000
0000
1000
0000
0000
0000
0000
0000
0000
0000
0000
,
0010
0000
0000
0000
0000
0100
0000
0000
0001
0000
0000
0000
0000
1000
0000
0000
0100
0000
0000
0000
0000
0000
0000
0000
0010
0000
0000
0000
0000
0000
0000
0000
0011
0000
0000
0000
0000
0000
0000
0000
0001
0000
0000
0000
0000
0000
0000
0000
0100
0000
0000
0000
0000
0000
0000
0000
0010
0000
0000
0000
0000
0000
0000
0000
,
1010
0000
0000
0000
0000
0000
0000
0000
1000
0000
0000
0000
0000
0001
0000
0000
0000
0000
0000
0000
0000
0010
0000
0000
0100
0000
0000
0000
0000
0000
0000
0000
0110
0000
0000
0000
0000
0000
0000
0000
0100
0000
0000
0000
0000
1000
0000
0000
0001
0000
0000
0000
0000
0000
0000
0000
0100
0000
0000
0000
0000
0000
0000
0000
,
0110
0000
0000
0000
0000
0000
0000
0000
0010
0000
0000
0000
0000
1000
0000
0000
0001
0000
0000
0000
0000
0000
0000
0000
0010
0000
0000
0000
0000
0000
0000
0000
0011
0000
0000
0000
0000
0000
0000
0000
0002
0000
0000
0000
0000
0000
0000
0000
0203
0000
0000
0000
0000
0000
0000
0000
0000
0000
0000
0000
0320
0000
0000
0000
,
0000
0000
0030
0000
1000
0000
0000
0000
0001
0000
0000
0000
0000
0000
0000
0000
0010
0000
0000
0000
0000
0000
0100
0000
0000
0000
1000
0000
0001
0000
0100
0010
,
0100
0000
0010
0000
1010
0000
1000
0001
0100
0010
0100
0001
1000
0100
1000
0100
,
0010
0000
0001
1000
0100
0010
0100
1000
0001
0100
0001
0010
0100
1000
0100
1000
,
0001
0000
1000
0001
0100
0010
0100
0001
1000
0100
1000
0100
0010
0001
1000
0010
,
0100
0000
0010
1000
0000
0001
0010
0001
1000
0010
0100
0010
0001
1000
0100
0010
,
1000
0000
0001
1000
0101
1000
0100
1000
0001
0100
0010
1000
0001
0010
0001
0010
,
0100
1000
0001
0100
0010
1000
0010
1000
0001
0010
0100
1000
0010
0100
0010
0100
,
0001
0000
1000
0000
0100
0000
0010
0001
0010
0000
0100
0000
1000
0000
0001
0100
0001
0000
0010
0000
0100
0000
1000
0001
1000
0000
0010
0000
0100
0000
0001
1000
,
0001
0010
0100
1000
0001
0000
0000
0000
0001
0000
0000
0000
1000
0001
0100
0010
,
1010
0000
0000
0000
2002
0000
0000
3003
1000
0000
0100
0000
0002
0000
0003
0100
,
0010
0000
0000
0000
0100
0000
1000
0000
0000
0000
1000
0000
0001
0000
0000
0000
0100
0000
0010
0000
1000
0000
0001
0000
0010
0100
0010
0000
0001
0000
1000
0000
,
0010
0000
0000
0000
0000
0000
0000
0000
0100
0000
0000
0000
0000
0000
0000
0000
0201
0000
0000
0000
0000
0000
0000
0000
0000
0000
0000
0000
0000
0301
0000
0000
1000
0000
0000
0000
0000
0000
0000
0000
0010
0000
0000
0000
0000
0000
0000
0000
0002
0000
0000
0000
0000
0000
0000
0000
0003
0000
0000
0000
0010
0000
0000
0000
,
0100
0000
0000
0000
0001
0000
1000
0000
0000
0000
1000
0000
0100
0000
0000
0000
0010
0000
0001
0000
1000
0000
0010
0000
0100
1000
0100
0000
0010
0000
1000
0000
,
0002
0000
0000
0000
0000
0000
0000
0000
0013
0000
0000
0000
0000
0000
0000
0000
0210
0000
0000
0000
0000
0000
0000
0000
0000
0000
0000
0000
0000
1300
0000
0000
0001
0000
0000
0000
0000
0000
0000
0000
0100
0000
0000
0000
0000
0000
0000
0000
2000
0000
0000
0000
0000
0000
0000
0000
3000
0000
0000
0000
0100
0000
0000
0000
,
0010
0000
0000
0000
0100
0000
0001
0000
0000
0000
0001
0000
1000
0000
0000
0000
0100
0000
0010
0000
0001
0000
1000
0000
0010
0100
0010
0000
1000
0000
0001
0000
,
0010
0000
0100
0000
1100
0000
1000
0000
0001
0100
1000
0000
0100
0000
0010
1000
,
0000
0001
0010
0100
1200
0000
0000
0000
0320
0000
0000
0000
0031
0100
0001
0100
,
0010
0000
0000
0000
2002
0000
0000
3003
0001
0000
0100
0000
2000
0000
3000
0100
,
0010
0000
0000
0000
0100
0000
0001
0000
0000
0000
0001
0000
1000
0000
0000
0000
0100
0000
0010
0000
0001
0000
1000
0000
0010
0100
0010
0000
1000
0000
0001
0000
,
0010
0000
0000
0000
0000
0000
0000
0000
0100
0000
0000
0000
0000
0000
0000
0000
1200
0000
0000
0000
0000
0000
0000
0000
0000
0000
0000
0000
0000
1300
0000
0000
0001
0000
0000
0000
0000
0000
0000
0000
0010
0000
0000
0000
0000
0000
0000
0000
2000
0000
0000
0000
0000
0000
0000
0000
3000
0000
0000
0000
0010
0000
0000
0000
,
0100
0000
0000
0000
1000
0000
0001
0000
0000
0000
0001
0000
0100
0000
0000
0000
0010
0000
1000
0000
0001
0000
0010
0000
0100
0001
0100
0000
0010
0000
0001
0000
,
2000
0000
0000
0000
0000
0000
0000
0000
3010
0000
0000
0000
0000
0000
0000
0000
0210
0000
0000
0000
0000
0000
0000
0000
0000
0000
0000
0000
0000
0301
0000
0000
1000
0000
0000
0000
0000
0000
0000
0000
0100
0000
0000
0000
0000
0000
0000
0000
0002
0000
0000
0000
0000
0000
0000
0000
0003
0000
0000
0000
0100
0000
0000
0000
,
0010
0000
0000
0000
0100
0000
1000
0000
0000
0000
1000
0000
0001
0000
0000
0000
0100
0000
0010
0000
1000
0000
0001
0000
0010
0100
0010
0000
0001
0000
1000
0000
,
0010
0000
0100
0000
0101
0000
0001
0000
1000
0100
0001
0000
0100
0000
0010
0001
,
0000
1000
0010
0100
0201
0000
0000
0000
0320
0000
0000
0000
1030
0100
1000
0100
,
0010
0001
0010
0001
1000
0000
0010
0000
0100
0000
0001
0000
1000
0000
0100
0000
,
0010
0000
0000
0000
0000
0000
0000
0000
0001
0000
0000
0000
0000
1000
0000
0000
0010
0000
0000
0000
0000
0000
0000
0000
1000
0000
0000
0000
0000
0000
0000
0000
0001
0000
0000
0000
0000
0000
0000
0000
0010
0000
0000
0000
0000
0000
0000
0000
0100
0000
0000
0000
0000
1000
0000
0000
0010
0000
0000
0000
0000
0100
0000
0000
,
0001
0000
0000
0000
0000
1000
0000
0000
0100
0000
0000
0000
0000
0000
0000
0000
0010
0000
0000
0000
0000
0000
0000
0000
0001
0000
0000
0000
0000
0000
0000
0000
1000
0000
0000
0000
0000
0000
0000
0000
0010
0000
0000
0000
0000
0000
0000
0000
0100
0000
0000
0000
0000
0000
0000
0000
0001
0000
0000
0000
0000
0000
0000
0000
,
0010
0000
0000
0000
0000
0000
0000
0000
0000
0000
0000
0000
0000
0000
0000
0000
0000
0000
0000
0000
0000
0000
0000
0000
0100
0000
0000
0000
0000
0000
0000
0000
0000
0000
0000
0000
0000
0000
0000
0000
0000
0000
0000
0000
0000
0000
0000
0000
1000
0000
0000
0000
0000
0000
0000
0000
0000
0000
0000
0000
0000
0000
0000
0000
0001
0000
0000
0000
0000
0000
0000
0000
0000
0000
0000
0000
0000
0000
0000
0000
1000
0000
0000
0000
0000
0000
0000
0000
0000
0000
0000
0000
0000
0000
0000
0000
0001
0000
0000
0000
0000
0000
0000
0000
0000
0000
0000
0000
0000
0000
0000
0000
1000
0000
0000
0000
0000
0000
0000
0000
0000
0000
0000
0000
0000
0000
0000
0000
0001
0000
0000
0000
0000
0000
0000
0000
0000
0000
0000
0000
0000
0000
0000
0000
1000
0000
0000
0000
0000
0000
0000
0000
0000
0000
0000
0000
0000
0000
0000
0010
0000
0000
0000
0000
0000
0000
0000
0000
0100
0000
0000
0000
0000
0000
0000
0000
0000
0000
0000
0000
0000
0000
0000
0001
0000
0000
0000
0000
0000
0000
0000
0000
,
1000
0000
0000
0000
0000
0100
0000
0000
0010
0000
0000
0000
0000
0001
0000
0000
1000
0000
0000
0000
0000
0000
0000
0000
0001
0000
0000
0000
0000
0000
0000
0000
0101
0000
0000
0000
0000
0000
0000
0000
0001
0000
0000
0000
0000
0000
0000
0000
0010
0000
0000
0000
0000
0000
0000
0000
0100
0000
0000
0000
0000
0000
0000
0000
,
1100
0000
0000
0000
0000
0000
0000
0000
1000
0000
0000
0000
0000
0001
0000
0000
0000
0000
0000
0000
0000
0100
0000
0000
0010
0000
0000
0000
0000
0000
0000
0000
0110
0000
0000
0000
0000
0000
0000
0000
0010
0000
0000
0000
0000
1000
0000
0000
0001
0000
0000
0000
0000
0000
0000
0000
0010
0000
0000
0000
0000
0000
0000
0000
,
0110
0000
0000
0000
0000
0000
0000
0000
0100
0000
0000
0000
0000
1000
0000
0000
0001
0000
0000
0000
0000
0000
0000
0000
0100
0000
0000
0000
0000
0000
0000
0000
0101
0000
0000
0000
0000
0000
0000
0000
0002
0000
0000
0000
0000
0000
0000
0000
0023
0000
0000
0000
0000
0000
0000
0000
0000
0000
0000
0000
0230
0000
0000
0000
,
0000
0000
0300
0000
1000
0000
0000
0000
0001
0000
0000
0000
0000
0000
0000
0000
0100
0000
0000
0000
0000
0000
0010
0000
0000
0000
1000
0000
0001
0000
0010
0100
,
0010
0000
0001
0000
1001
0000
0001
1000
0100
0010
0100
1000
0001
0100
0001
0100
,
0010
0000
1000
0001
0100
0010
0100
0001
1000
0100
1000
0100
0010
0001
1000
0010
,
0100
0000
0001
1000
0100
0010
0100
1000
0001
0100
0001
0100
0010
1000
0001
0010
,
0100
0000
0010
0001
0000
1000
0010
1000
0001
0010
0100
0010
1000
0001
0100
0010
,
0001
0000
1000
0001
1100
0001
0100
0001
1000
0100
0010
0001
1000
0010
1000
0010
,
0100
0001
1000
0100
0010
0001
0010
0001
1000
0010
0100
0001
0010
0100
0010
0100
,
1000
0000
0001
0000
0100
0000
0010
1000
0010
0000
0100
0000
0001
0000
1000
0100
1000
0000
0100
0000
0010
0000
0001
1000
0001
0000
0010
0000
0100
0000
1000
0001
,
1000
0010
0100
0001
1000
0000
0000
0000
1000
0000
0000
0000
0001
1000
0100
0010
,
0011
0000
0000
0000
2002
0000
0000
3003
0001
0000
0100
0000
2000
0000
3000
0100
,
0010
0000
0000
0000
0100
0000
0001
0000
0000
0000
0001
0000
1000
0000
0000
0000
0100
0000
0010
0000
0001
0000
1000
0000
0010
0100
0010
0000
1000
0000
0001
0000
,
0010
0000
0000
0000
0000
0000
0000
0000
0100
0000
0000
0000
0000
0000
0000
0000
1200
0000
0000
0000
0000
0000
0000
0000
0000
0000
0000
0000
0000
1300
0000
0000
0001
0000
0000
0000
0000
0000
0000
0000
0100
0000
0000
0000
0000
0000
0000
0000
2000
0000
0000
0000
0000
0000
0000
0000
3000
0000
0000
0000
0100
0000
0000
0000
,
0010
0000
0000
0000
1000
0000
0001
0000
0000
0000
0001
0000
0100
0000
0000
0000
0010
0000
1000
0000
0001
0000
0010
0000
0100
0001
0100
0000
0010
0000
0001
0000
,
2000
0000
0000
0000
0000
0000
0000
0000
3010
0000
0000
0000
0000
0000
0000
0000
0210
0000
0000
0000
0000
0000
0000
0000
0000
0000
0000
0000
0000
0301
0000
0000
1000
0000
0000
0000
0000
0000
0000
0000
0010
0000
0000
0000
0000
0000
0000
0000
0002
0000
0000
0000
0000
0000
0000
0000
0003
0000
0000
0000
0010
0000
0000
0000
,
0100
0000
0000
0000
0010
0000
1000
0000
0000
0000
1000
0000
0001
0000
0000
0000
0010
0000
0100
0000
1000
0000
0001
0000
0100
0010
0100
0000
0001
0000
1000
0000
,
0100
0000
0010
0000
0011
0000
0001
0000
1000
0100
0001
0000
0100
0000
0010
0001
,
0000
1000
0010
0100
0201
0000
0000
0000
0320
0000
0000
0000
1030
0100
1000
0100
,
0010
0000
0000
0000
2002
0000
0000
3003
1000
0000
0100
0000
0002
0000
0003
0100
,
0010
0000
0000
0000
0100
0000
1000
0000
0000
0000
1000
0000
0001
0000
0000
0000
0100
0000
0010
0000
1000
0000
0001
0000
0010
0100
0010
0000
0001
0000
1000
0000
,
0010
0000
0000
0000
0000
0000
0000
0000
0100
0000
0000
0000
0000
0000
0000
0000
0201
0000
0000
0000
0000
0000
0000
0000
0000
0000
0000
0000
0000
0301
0000
0000
1000
0000
0000
0000
0000
0000
0000
0000
0010
0000
0000
0000
0000
0000
0000
0000
0002
0000
0000
0000
0000
0000
0000
0000
0003
0000
0000
0000
0010
0000
0000
0000
,
0100
0000
0000
0000
0001
0000
1000
0000
0000
0000
1000
0000
0100
0000
0000
0000
0010
0000
0001
0000
1000
0000
0010
0000
0100
1000
0100
0000
0010
0000
1000
0000
,
0002
0000
0000
0000
0000
0000
0000
0000
0013
0000
0000
0000
0000
0000
0000
0000
0210
0000
0000
0000
0000
0000
0000
0000
0000
0000
0000
0000
0000
1300
0000
0000
0001
0000
0000
0000
0000
0000
0000
0000
0100
0000
0000
0000
0000
0000
0000
0000
2000
0000
0000
0000
0000
0000
0000
0000
3000
0000
0000
0000
0100
0000
0000
0000
,
0010
0000
0000
0000
0100
0000
0001
0000
0000
0000
0001
0000
1000
0000
0000
0000
0100
0000
0010
0000
0001
0000
1000
0000
0010
0100
0010
0000
1000
0000
0001
0000
,
0010
0000
0100
0000
1100
0000
1000
0000
0001
0100
1000
0000
0100
0000
0010
1000
,
0000
0001
0010
0100
1100
0000
0000
0000
0000
0000
0000
0000
0001
0100
0001
0100
,
0010
1000
0010
1000
0002
0000
0000
0000
0000
0000
0000
0000
0003
0000
0000
0000
;

//---------------dance-single - ----------------
#NOTEDATA:;
#CHARTNAME:;
#STEPSTYPE:dance-single;
#DESCRIPTION:;
#CHARTSTYLE:;
#DIFFICULTY:Beginner;
#METER:1;
#RADARVALUES:0.124415,0.124620,0.000000,0.000000,0.000000,114.000000,114.000000,0.000000,0.000000,0.000000,0.000000,0.000000,0.000000,0.000000,0.124415,0.124620,0.000000,0.000000,0.000000,114.000000,114.000000,0.000000,0.000000,0.000000,0.000000,0.000000,0.000000,0.000000;
#CREDIT:Maxx;
#DISPLAYBPM:124.000000;
#NOTES:
0000
0000
0000
0000
,
0000
0000
0000
0000
,
0000
0000
0000
0000
,
0000
0000
0000
0000
,
0000
0000
0000
0000
,
0000
1000
0000
0001
,
0000
1000
0000
0001
,
0000
0100
0000
0010
,
0000
0100
0000
0000
,
0000
0001
0000
0001
,
0000
1000
0000
1000
,
0000
0001
0000
0001
,
0000
0010
0000
0010
,
0000
0001
0000
1000
,
0000
0001
0000
1000
,
0000
0010
0000
0100
,
0000
0001
0000
0000
,
0000
1000
0000
0001
,
0000
1000
0000
0100
,
0000
1000
0000
0001
,
0000
1000
0000
0010
,
0000
1000
0000
0001
,
0000
1000
0000
0100
,
0000
0010
0000
0010
,
0000
0001
0000
1000
,
0000
0001
0000
1000
,
0000
0010
0000
1000
,
0000
0001
0000
1000
,
0000
0100
0000
1000
,
0000
0001
0000
1000
,
0000
0010
0000
1000
,
0000
0001
0000
0001
,
0000
1000
0000
0001
,
0000
1000
0000
0000
,
0000
0001
0000
0000
,
0000
0100
0000
0000
,
0000
0010
0000
0000
,
0000
1000
0000
1000
,
0000
0001
0000
0001
,
0000
0010
0000
0010
,
0000
0100
0000
0000
,
0000
1000
0000
0001
,
0000
1000
0000
0001
,
0000
0100
0000
0010
,
0000
0100
0000
0010
,
0000
1000
0000
1000
,
0000
0001
0000
0001
,
0000
0010
0000
0010
,
0000
0100
0000
0100
,
0000
1000
0000
0001
,
0000
1000
0000
0010
,
0000
1000
0000
0001
,
0000
1000
0000
0100
,
0000
1000
0000
0001
,
0000
1000
0000
0010
,
0000
0100
0000
0100
,
0000
0001
0000
1000
,
0000
0001
0000
0010
,
0000
0001
0000
1000
,
0000
0001
0000
0100
,
0000
0010
0000
0100
,
0000
0001
0000
1000
,
0000
0100
0000
0010
,
0000
0001
0000
1000
,
0000
0001
0000
0100
,
0000
0010
0000
0000
;

//---------------dance-single - ----------------
#NOTEDATA:;
#CHARTNAME:;
#STEPSTYPE:dance-single;
#DESCRIPTION:;
#CHARTSTYLE:;
#DIFFICULTY:Easy;
#METER:3;
#RADARVALUES:0.192080,0.224316,0.099314,0.022919,0.000000,176.000000,163.000000,13.000000,3.000000,0.000000,0.000000,0.000000,0.000000,0.000000,0.192080,0.224316,0.099314,0.022919,0.000000,176.000000,163.000000,13.000000,3.000000,0.000000,0.000000,0.000000,0.000000,0.000000;
#CREDIT:Maxx;
#DISPLAYBPM:124.000000;
#NOTES:
0000
0000
0000
0000
,
0000
0000
0000
0000
,
0000
0000
0000
0000
,
0000
0000
0000
0000
,
0000
0000
0000
0000
,
0000
1000
0001
1000
,
0001
0100
0010
0100
,
0010
1000
0001
1000
,
0001
0010
0000
0100
,
0000
1000
0001
1000
,
0001
0100
0010
0100
,
0010
1000
0001
1000
,
0001
0010
0100
0010
,
0100
1000
0000
1000
,
0000
0001
0000
0001
,
0000
0100
0000
0100
,
0000
0010
0000
0010
,
0000
1001
0000
0001
,
0000
1000
0000
0100
,
0000
0110
0000
0001
,
0000
1000
0000
0010
,
0000
0110
0000
0001
,
0000
1000
0000
0100
,
0000
0010
0100
0010
,
0100
2000
0000
3001
,
1001
0001
0000
0100
,
0000
0010
0000
1000
,
0000
1001
0000
1000
,
0000
0100
0000
0010
,
0000
0110
0000
0001
,
0000
1000
0000
0010
,
0000
0100
0010
0100
,
0010
2000
0000
3001
,
0000
1000
0100
1000
,
0100
0010
0001
0010
,
0001
1000
0010
1000
,
0010
0100
0001
0100
,
0001
1000
0100
1000
,
0000
0001
0100
0001
,
0000
0010
0100
0010
,
0000
0100
0000
0000
,
0000
1000
0001
1000
,
0001
0100
0010
0100
,
0010
1000
0001
1000
,
0001
0010
0100
0010
,
0100
1000
0000
1000
,
0000
0001
0000
0001
,
0000
0100
0010
0100
,
0010
1000
0000
1000
,
0001
1001
0000
1000
,
0000
0100
0000
0010
,
0000
0110
0000
1000
,
0000
0001
0000
0100
,
0000
0110
0000
0010
,
0000
1000
0000
0001
,
0000
0010
0000
0010
,
0000
0100
0000
0100
,
0000
1001
0000
1000
,
0000
0010
0000
0100
,
0000
0110
0000
1000
,
0000
0001
0000
0010
,
0000
0110
0000
1000
,
0000
0001
0000
0100
,
0000
0010
1000
0010
,
1000
0002
0000
0013
,
0000
0110
0000
0000
;

//---------------dance-single - ----------------
#NOTEDATA:;
#CHARTNAME:;
#STEPSTYPE:dance-single;
#DESCRIPTION:;
#CHARTSTYLE:;
#DIFFICULTY:Medium;
#METER:7;
#RADARVALUES:0.411444,0.426955,0.129872,0.053477,0.000000,377.000000,360.000000,17.000000,7.000000,0.000000,0.000000,0.000000,0.000000,0.000000,0.411444,0.426955,0.129872,0.053477,0.000000,377.000000,360.000000,17.000000,7.000000,0.000000,0.000000,0.000000,0.000000,0.000000;
#CREDIT:Maxx;
#DISPLAYBPM:124.000000;
#NOTES:
0000
0000
0000
0000
,
0000
0000
0000
0000
,
0000
0000
0000
0000
,
0000
0000
0000
0000
,
0000
0000
0000
0000
,
0000
0000
0001
0100
0010
1000
0001
0010
,
0100
1000
0001
0100
0010
0100
0001
0010
,
0100
0010
0001
1000
0010
0100
0001
1000
,
0100
0010
0001
0000
1000
0000
0020
0000
,
0000
0030
0110
0000
0001
1000
0100
0000
,
0010
0000
0001
1000
0001
0100
0010
0000
,
1000
0000
0001
0000
0010
0100
1000
0000
,
0001
0000
0100
0010
0100
0001
1000
0100
,
0010
0000
0001
0100
0001
0100
0001
0100
,
0001
0100
0010
1000
0010
1000
0010
1000
,
0010
1000
0001
0000
0010
0000
0100
0000
,
1000
0001
0100
0000
0100
0000
0001
1000
,
0100
0000
0110
0000
0010
0001
1000
0000
,
0010
0000
0100
0010
0100
0001
1000
0100
,
0010
0001
0011
0000
0001
1000
0010
0000
,
1000
0000
0010
0100
0010
1000
0001
0010
,
0100
1000
1100
0000
1000
0001
0010
0000
,
0100
0000
1000
0001
1000
0010
0100
0001
,
1000
0000
0100
0000
0010
0000
0001
1000
,
0010
0200
0000
0301
,
1000
0000
1100
0000
0100
0010
0001
0000
,
1000
0000
0010
0100
0010
1000
0001
0010
,
0100
0000
1000
0001
0100
0010
1000
0000
,
0001
0000
0010
0100
0010
0001
1000
0010
,
0100
0001
0011
0000
0001
1000
0010
0000
,
0100
0000
0001
1000
0001
0010
0100
1000
,
0001
0000
0100
0000
0010
0000
1000
0001
,
0010
0200
0000
1300
,
0001
0000
1000
0010
0100
0001
1000
0100
,
0010
0001
1000
0010
0100
0010
1000
0100
,
0010
0100
1000
0001
0100
0010
1000
0001
,
0010
0100
1000
0001
0100
0001
1000
0100
,
0010
0001
1000
0000
1010
0000
0001
0000
,
0011
1000
1100
0001
,
0101
1000
1001
0100
,
0110
0002
0000
0000
,
0000
0000
1003
0000
0010
0100
0001
0000
,
1000
0000
0100
0010
0100
1000
0001
0100
,
0010
0000
1000
0000
0001
0010
0100
0000
,
1000
0000
0100
0010
0100
1000
0001
0100
,
0010
0000
1000
0100
0010
0001
1000
0010
,
0100
0010
1000
0001
0010
0100
1000
0001
,
0100
0001
1000
0100
0010
0001
1000
0010
,
0100
0001
1000
0000
1000
0000
0100
0000
,
0010
0000
1001
0000
1000
0001
0100
0000
,
0010
0000
0100
0010
0100
0001
1000
0100
,
0010
0001
0011
0000
0001
1000
0010
0000
,
1000
0000
0010
0100
0010
1000
0001
0010
,
0100
1000
1100
0000
1000
0001
0010
0000
,
0100
0000
1000
0001
1000
0010
0100
0001
,
1000
0000
0100
0000
0010
0000
0001
1000
,
0010
0200
0000
0301
,
1000
0000
1100
0000
0100
0010
0001
0000
,
1000
0000
0010
0100
0010
1000
0001
0010
,
0100
0000
1000
0001
0100
0010
1000
0000
,
0001
0000
0010
0100
0010
0001
1000
0010
,
0100
0001
0011
0000
0001
1000
0010
0000
,
0100
0000
0001
1000
0001
0010
0100
1000
,
0001
0000
0100
0000
0010
0000
1000
0001
,
0010
0000
0200
0000
0000
0000
1300
0001
,
0100
0010
2000
0000
0000
0000
3000
0000
;

//---------------dance-single - ----------------
#NOTEDATA:;
#CHARTNAME:;
#STEPSTYPE:dance-single;
#DESCRIPTION:;
#CHARTSTYLE:;
#DIFFICULTY:Hard;
#METER:9;
#RADARVALUES:0.615528,0.627874,0.213907,0.259744,0.504209,564.000000,536.000000,28.000000,34.000000,0.000000,0.000000,0.000000,0.000000,0.000000,0.615528,0.627874,0.213907,0.259744,0.504209,564.000000,536.000000,28.000000,34.000000,0.000000,0.000000,0.000000,0.000000,0.000000;
#CREDIT:Maxx;
#DISPLAYBPM:124.000000;
#NOTES:
// measure 0
0000
0000
0000
0000
,  // measure 1
0000
0000
0000
0000
,  // measure 2
0000
0000
0000
0000
,  // measure 3
0000
0000
0000
0000
,  // measure 4
0000
0000
0000
0000
0000
0000
0001
0000
1000
0000
0001
0000
1000
0000
0001
0000
1000
0000
0001
0000
0000
0100
0000
0000
,  // measure 5
0010
1000
0001
0010
0011
0001
0100
0010
,  // measure 6
1010
0000
0000
0000
0000
0000
0000
0000
1000
0000
0000
0000
0000
0001
0000
0000
0000
0000
0000
0000
0000
0010
0000
0000
0100
0000
0000
0000
0000
0000
0000
0000
0110
0000
0000
0000
0000
0000
0000
0000
0100
0000
0000
0000
0000
1000
0000
0000
0001
0000
0000
0000
0000
0000
0000
0000
0100
0000
0000
0000
0000
0000
0000
0000
,  // measure 7
0110
0000
0000
0000
0000
0000
0000
0000
0010
0000
0000
0000
0000
1000
0000
0000
0001
0000
0000
0000
0000
0000
0000
0000
0010
0000
0000
0000
0000
0000
0000
0000
0011
0000
0000
0000
0000
0000
0000
0000
0002
0000
0000
0000
0000
0000
0000
0000
0203
0000
0000
0000
0000
0000
0000
0000
0000
0000
0000
0000
0320
0000
0000
0000
,  // measure 8
0000
0030
1000
0000
0001
0000
0000
0000
0010
0000
0000
0100
0000
1000
0001
0100
,  // measure 9
0010
1000
1010
0010
0100
0001
0010
0100
,  // measure 10
0010
0000
0001
0000
1000
0000
0001
0000
0100
0000
0010
0000
1000
0001
1000
0000
,  // measure 11
0100
0010
0001
1000
0001
0100
0010
1000
,  // measure 12
0001
0000
1000
0000
0100
0000
0010
0000
0100
0000
1000
0000
0001
1000
0001
0000
,  // measure 13
0100
0010
1000
0100
1000
0100
0010
0001
,  // measure 14
0010
0001
1000
0010
1000
0010
0100
0001
,  // measure 15
0100
0000
0001
0000
1000
0100
0010
0001
1000
0010
0100
0001
1000
0100
1000
0001
,  // measure 16
0100
0010
1000
0001
0010
0000
0000
0000
0010
0000
0000
0000
0001
1000
0001
1000
,  // measure 17
0010
0000
0000
0000
2020
0000
0000
3030
1000
0000
0001
0000
0200
0000
0000
0310
,  // measure 18
1000
0000
0000
0001
0000
0001
0010
0000
0100
1000
0001
0000
0100
0000
0010
0000
,  // measure 19
1000
0000
0000
0000
0000
0000
0000
0000
0001
0000
0000
0000
0000
0000
0000
0000
0011
0000
0000
0000
0000
0000
0000
0000
0000
0000
0000
0000
0000
0001
0000
0000
1000
0000
0000
0000
0000
0000
0000
0000
0010
0000
0000
0000
0000
0000
0000
0000
0200
0000
0000
0000
0000
0000
0000
0000
0000
0000
0000
0000
0301
0000
0000
0000
,  // measure 20
1000
0000
0000
0001
0000
0001
0010
0000
0100
1000
0001
0000
0100
0000
1000
0000
,  // measure 21
0100
0000
0000
0000
0000
0000
0000
0000
0010
0000
0000
0000
0000
0000
0000
0000
0110
0000
0000
0000
0000
0000
0000
0000
0000
0000
0000
0000
0000
1000
0000
0000
0001
0000
0000
0000
0000
0000
0000
0000
0010
0000
0000
0000
0000
0000
0000
0000
0200
0000
0000
0000
0000
0000
0000
0000
0000
0000
0000
0000
1300
0000
0000
0000
,  // measure 22
0001
0000
0000
0100
0000
0100
0010
0000
1000
0001
0010
0000
0100
0000
1000
0001
,  // measure 23
0100
0000
0010
0000
1010
0000
1000
0000
0001
1000
0001
0000
0010
0000
0100
1000
,  // measure 24
0000
0100
1000
0001
0200
0000
0000
0000
0320
0000
0000
0000
1030
0001
1000
0001
,  // measure 25
0010
0000
0000
0000
0022
0000
0000
0033
0001
0000
1000
0000
0200
0000
0000
0310
,  // measure 26
0001
0000
0000
1000
0000
1000
0010
0000
0100
0001
1000
0000
0100
0000
0010
0000
,  // measure 27
0001
0000
0000
0000
0000
0000
0000
0000
1000
0000
0000
0000
0000
0000
0000
0000
1010
0000
0000
0000
0000
0000
0000
0000
0000
0000
0000
0000
0000
1000
0000
0000
0001
0000
0000
0000
0000
0000
0000
0000
0010
0000
0000
0000
0000
0000
0000
0000
0200
0000
0000
0000
0000
0000
0000
0000
0000
0000
0000
0000
1300
0000
0000
0000
,  // measure 28
0001
0000
0000
1000
0000
1000
0010
0000
0100
0001
1000
0000
0100
0000
0001
0000
,  // measure 29
0100
0000
0000
0000
0000
0000
0000
0000
0010
0000
0000
0000
0000
0000
0000
0000
0110
0000
0000
0000
0000
0000
0000
0000
0000
0000
0000
0000
0000
0001
0000
0000
1000
0000
0000
0000
0000
0000
0000
0000
0010
0000
0000
0000
0000
0000
0000
0000
0200
0000
0000
0000
0000
0000
0000
0000
0000
0000
0000
0000
0301
0000
0000
0000
,  // measure 30
1000
0000
0000
0100
0000
0100
0010
0000
0001
1000
0010
0000
0100
0000
0001
1000
,  // measure 31
0100
0000
0010
0000
0011
0000
0001
0000
1000
0001
1000
0000
0010
0000
0100
0001
,  // measure 32
0000
0100
0001
1000
0200
0000
0000
0000
0320
0000
0000
0000
0031
0000
1000
0000
,  // measure 33
0010
0100
0001
1000
0100
0010
0001
1000
,  // measure 34
0010
0100
0001
1000
0001
0010
0100
1000
,  // measure 35
0001
0100
0010
0100
0001
1000
0100
0010
,  // measure 36
0001
0000
0000
1000
0000
0000
0001
0000
1000
0000
0001
0000
1000
0000
0001
0000
1000
0000
0010
0000
0000
0100
0000
0000
,  // measure 37
0001
1000
0100
0010
0011
0001
1000
0010
,  // measure 38
1010
0000
0000
0000
0000
0000
0000
0000
1000
0000
0000
0000
0000
0001
0000
0000
0000
0000
0000
0000
0000
0100
0000
0000
0010
0000
0000
0000
0000
0000
0000
0000
0110
0000
0000
0000
0000
0000
0000
0000
0010
0000
0000
0000
0000
1000
0000
0000
0001
0000
0000
0000
0000
0000
0000
0000
0010
0000
0000
0000
0000
0000
0000
0000
,  // measure 39
0110
0000
0000
0000
0000
0000
0000
0000
0100
0000
0000
0000
0000
1000
0000
0000
0001
0000
0000
0000
0000
0000
0000
0000
0100
0000
0000
0000
0000
0000
0000
0000
0101
0000
0000
0000
0000
0000
0000
0000
0002
0000
0000
0000
0000
0000
0000
0000
0023
0000
0000
0000
0000
0000
0000
0000
0000
0000
0000
0000
0230
0000
0000
0000
,  // measure 40
0000
0300
1000
0000
0001
0000
0000
0000
0100
0000
0000
0010
0000
0100
0001
1000
,  // measure 41
0100
0010
0011
0001
1000
0010
0100
0010
,  // measure 42
1000
0000
0001
0000
0010
0000
0001
0000
0100
0000
0010
0000
1000
0001
1000
0000
,  // measure 43
0100
0010
0001
1000
0001
0100
0010
1000
,  // measure 44
0001
0000
1000
0000
0100
0000
0010
0000
0100
0000
1000
0000
0001
1000
0001
0000
,  // measure 45
0100
0010
1000
0100
1000
0100
0010
0001
,  // measure 46
0010
0001
1000
0010
1000
0010
0100
0001
,  // measure 47
0100
0000
0001
0000
1000
0100
0010
0001
1000
0010
0100
0001
1000
0100
1000
0001
,  // measure 48
0100
0010
1000
0001
0010
0000
0000
0000
0010
0000
0000
0000
0001
1000
0001
1000
,  // measure 49
0010
0000
0000
0000
2020
0000
0000
3030
1000
0000
0001
0000
0200
0000
0000
0310
,  // measure 50
1000
0000
0000
0001
0000
0001
0010
0000
0100
1000
0001
0000
0100
0000
0010
0000
,  // measure 51
1000
0000
0000
0000
0000
0000
0000
0000
0001
0000
0000
0000
0000
0000
0000
0000
0011
0000
0000
0000
0000
0000
0000
0000
0000
0000
0000
0000
0000
0001
0000
0000
1000
0000
0000
0000
0000
0000
0000
0000
0010
0000
0000
0000
0000
0000
0000
0000
0200
0000
0000
0000
0000
0000
0000
0000
0000
0000
0000
0000
0301
0000
0000
0000
,  // measure 52
1000
0000
0000
0001
0000
0001
0010
0000
0100
1000
0001
0000
0100
0000
1000
0000
,  // measure 53
0100
0000
0000
0000
0000
0000
0000
0000
0010
0000
0000
0000
0000
0000
0000
0000
0110
0000
0000
0000
0000
0000
0000
0000
0000
0000
0000
0000
0000
1000
0000
0000
0001
0000
0000
0000
0000
0000
0000
0000
0010
0000
0000
0000
0000
0000
0000
0000
0200
0000
0000
0000
0000
0000
0000
0000
0000
0000
0000
0000
1300
0000
0000
0000
,  // measure 54
0001
0000
0000
0100
0000
0100
0010
0000
1000
0001
0010
0000
0100
0000
1000
0001
,  // measure 55
0100
0000
0010
0000
1010
0000
1000
0000
0001
1000
0001
0000
0010
0000
0100
1000
,  // measure 56
0000
0100
1000
0001
0200
0000
0000
0000
0320
0000
0000
0000
1030
0001
1000
0001
,  // measure 57
0010
0000
0000
0000
0022
0000
0000
0033
0001
0000
1000
0000
0200
0000
0000
0310
,  // measure 58
0001
0000
0000
1000
0000
1000
0010
0000
0100
0001
1000
0000
0100
0000
0010
0000
,  // measure 59
0001
0000
0000
0000
0000
0000
0000
0000
1000
0000
0000
0000
0000
0000
0000
0000
1010
0000
0000
0000
0000
0000
0000
0000
0000
0000
0000
0000
0000
1000
0000
0000
0001
0000
0000
0000
0000
0000
0000
0000
0010
0000
0000
0000
0000
0000
0000
0000
0200
0000
0000
0000
0000
0000
0000
0000
0000
0000
0000
0000
1300
0000
0000
0000
,  // measure 60
0001
0000
0000
1000
0000
1000
0010
0000
0100
0001
1000
0000
0100
0000
0001
0000
,  // measure 61
0100
0000
0000
0000
0000
0000
0000
0000
0010
0000
0000
0000
0000
0000
0000
0000
0110
0000
0000
0000
0000
0000
0000
0000
0000
0000
0000
0000
0000
0001
0000
0000
1000
0000
0000
0000
0000
0000
0000
0000
0010
0000
0000
0000
0000
0000
0000
0000
0200
0000
0000
0000
0000
0000
0000
0000
0000
0000
0000
0000
0301
0000
0000
0000
,  // measure 62
1000
0000
0000
0100
0000
0100
0010
0000
0001
1000
0010
0000
0100
0000
0001
1000
,  // measure 63
0100
0000
0010
0000
0011
0000
0001
0000
1000
0001
1000
0000
0010
0000
0100
0001
,  // measure 64
0000
0100
0001
1000
0200
0000
0000
0000
0300
0000
0000
0000
1000
0001
1000
0001
,  // measure 65
0100
0010
0100
0010
2000
0000
0000
0000
0000
0000
0000
0000
3000
0000
0000
0000
;
