#TITLE:Ballin Flossin;
#SUBTITLE:(feat. Shawn Mendes);
#ARTIST:Chance the Rapper;
#TITLETRANSLIT:;
#SUBTITLETRANSLIT:;
#ARTISTTRANSLIT:;
#GENRE:House;
#CREDIT:;
#BANNER:Ballin Flossin-bn.png;
#BACKGROUND:Ballin Flossin-bg.png;
#LYRICSPATH:;
#CDTITLE:;
#MUSIC:Ballin flossin.ogg;
#OFFSET:0.008000;
#SAMPLESTART:46.071999;
#SAMPLELENGTH:15.360000;
#SELECTABLE:YES;
#DISPLAYBPM:62.000000:125.000000;
#BPMS:0.000000=124.999992
,32.000000=62.499996
,48.000000=124.999992
,208.000000=62.499996
;
#STOPS:
;
#BGCHANGES:;
#KEYSOUNDS:;
#ATTACKS:;

//---------------dance-single - Feraligatr----------------
#NOTES:
     dance-single:
     Feraligatr:
     Challenge:
     10:
     0.583851,0.775272,0.123188,0.608696,0.873188,564.000000,547.000000,17.000000,84.000000,35.000000,0.000000,0.583851,0.775272,0.123188,0.608696,0.873188,564.000000,547.000000,17.000000,84.000000,35.000000,0.000000:
0000
0000
0000
0000
,
0000
0000
0000
0000
,
0000
0000
0000
0000
,
0000
0000
0000
0000
0000
0000
0000
0000
0000
0000
0000
0000
0001
0010
0100
1000
,
0010
0100
0001
1000
0100
0100
0010
0002
,
1000
0000
0013
0000
0100
0000
1000
0001
0000
0001
0000
0001
0100
0010
1000
0000
,
0100
0100
0100
0100
0100
0100
0100
0020
,
0000
0000
0001
0000
0000
0000
0000
0000
0001
0000
0000
0000
0001
0000
0000
0000
0030
0000
0001
0000
0000
0000
1000
0010
0100
0000
0000
0000
0000
0000
0000
0000
,
0001
0000
0010
0000
0100
0000
1000
0000
0020
0000
0000
0130
0000
0000
0001
0000
1000
0000
0100
0000
0010
0000
0001
0000
0200
0000
0000
0310
0000
0000
0100
0000
,
0001
0000
1000
0000
0100
0000
1000
0000
0020
0000
0000
0130
0000
0000
0001
0000
0020
0000
0000
0130
1000
0000
0010
0000
0002
0000
0003
0000
0020
0000
0130
0001
,
1000
0000
0100
0000
0010
0000
0001
0000
0200
0000
0000
0310
1000
0000
0001
0000
1000
0000
0100
0000
0010
0000
0001
0000
0200
0000
0000
0310
1000
0000
0001
0000
,
1000
0000
0000
0000
0100
0000
0000
0000
0010
0000
0000
0000
0001
0000
0000
0000
0200
0000
0000
0000
0000
0000
0310
0000
0100
0000
0000
0000
0001
0000
0000
0000
1000
0000
0100
0000
0000
0000
0000
0000
0100
0000
0000
0000
0100
0000
0000
0000
0000
0000
0100
0000
0000
0000
0010
0001
1000
0000
0010
0000
1000
0000
0010
0000
,
0002
0000
0000
0000
0023
0000
0130
0001
1000
0000
1000
0000
0100
0010
0002
0000
,
1000
0000
0103
0010
0000
0010
0000
0010
2000
0000
0000
3001
0010
0000
0100
0000
,
2000
0000
3020
0000
0032
0000
0023
0000
0230
0000
0000
0000
0302
0000
0000
0003
,
1001
0000
0000
1000
0000
0000
1000
0000
0200
0000
0000
1300
0010
0100
0001
0010
,
2000
0000
3000
0000
0020
0000
0000
0000
1030
0001
0200
0000
1300
0000
0002
0000
,
0100
0000
1003
0000
0001
0000
0100
0000
0020
0000
0000
1030
0001
0000
0010
0000
,
0002
0000
0203
0000
2300
0000
3000
0000
0200
0000
0010
0000
0310
1000
0001
0000
,
0010
0000
0100
0000
0000
0000
0000
0000
0100
0000
0000
0000
0100
0000
0000
0000
0000
0000
0100
0000
0000
0000
0010
0001
1000
0000
0010
0000
1000
0000
0010
0000
,
0100
0000
0000
0000
0001
1000
0001
0000
0010
0000
0100
0000
1000
0000
0001
0000
,
0100
0000
0000
0000
0010
1000
0001
0000
0010
0000
0001
0000
0100
00M0
0100
0000
,
1000
0000
0000
0000
0001
0010
0001
0000
0100
00M0
0100
0000
0010
0M00
0010
0000
,
1000
0000
0000
0000
0001
0010
0001
0000
0100
00M0
0100
0000
0010
0M00
0010
0000
,
1000
0000
0000
0000
0001
0010
0001
0000
0200
0000
0000
0000
0310
0000
1000
0000
,
0001
0000
0000
0000
1000
0100
1000
0000
0010
0M00
0010
0000
0100
00M0
0100
0000
,
0001
0000
0000
0000
1000
0100
1000
0000
0010
0M00
0010
0000
0100
00M0
0100
0000
,
0001
0000
1000
0000
0000
0000
0000
0000
1000
0000
0000
0000
1000
0000
0000
0000
0000
0000
1000
0000
0000
0000
0001
0010
0100
0000
1000
0000
0100
0000
1000
0000
,
0010
0M00
0010
0000
0100
00M0
0100
0000
0001
0000
1000
0000
0010
0000
0100
0000
1000
0000
0000
0000
0100
0000
0000
0000
0002
0000
0000
0000
0003
0000
0000
0000
,
1001
0000
0000
0000
1000
0000
0010
0100
1000
0000
0100
0000
0002
0000
0003
0000
,
0010
0M00
0010
0000
0100
00M0
0100
0000
1000
0000
0001
0000
0010
0000
0100
0000
0001
0000
0000
0000
0100
0000
0000
0000
2000
0000
0000
0000
3000
0000
0000
0000
,
0010
0M00
0010
0000
0100
00M0
0100
0000
0001
0000
1000
0000
0010
0000
0100
0000
0010
0M00
0010
0000
0100
00M0
0100
0000
0001
0000
1000
0000
0010
0000
1000
0000
,
0100
00M0
0100
0000
0010
0M00
0010
0000
0001
0000
1000
0000
0001
0000
0100
0000
1000
0000
0000
0000
0100
0000
0000
0000
0002
0000
0000
0000
0003
0000
0000
0000
,
1001
0000
0000
0000
1000
0000
0001
0100
1000
0000
0100
0000
0002
0000
0003
0000
,
0010
0M00
0010
0000
0100
00M0
0100
0000
1000
0000
0001
0000
1000
0000
0100
0000
0001
0000
0000
0000
0100
0000
0000
0000
0010
0000
0000
0000
10M0
0000
0100
0000
,
0001
0000
0000
0000
0100
0000
0000
0000
0010
0000
0000
0000
10M0
0000
0100
0000
0001
0000
0000
0000
0100
0000
0010
0001
1000
0000
0010
0000
1000
0000
0010
0000
,
0100
0000
0001
0000
0200
00M0
0000
1300
0000
0001
1000
0000
0200
00M0
0000
0000
,
0301
0000
1000
0000
0020
0M00
0000
0031
0000
1000
0001
0000
0200
00M0
0000
0000
,
1300
0000
0001
0000
0020
0M00
0000
1030
0000
0001
1000
0000
0200
00M0
0000
0000
,
0301
0000
1000
0000
0020
0M00
0000
0031
0000
1000
0001
0000
0020
0M00
0000
0000
,
1030
0000
0010
0000
0002
0M00
0000
0103
0000
0010
0100
0000
2000
00M0
0000
0000
,
3001
0000
0010
0000
2000
00M0
0000
3100
0000
0010
0100
0000
0002
00M0
0000
0000
,
0000
1003
0001
0000
0100
0000
0010
1000
0001
0000
0010
0000
0001
0000
0200
0000
,
0000
0010
0000
0300
0010
0000
0010
0000
0000
0010
0100
0001
1000
0100
0010
0001
,
0100
0000
0010
0000
0110
0000
0000
2000
0000
3001
0010
0000
0011
0000
0000
0000
,
1000
0000
0100
0000
1100
0000
0000
0010
0000
0001
0000
0000
0011
0000
0000
0000
,
1000
0002
0000
0003
1001
0000
0000
1000
0000
0010
0000
0100
0110
0000
0000
0000
,
0100
0000
0001
0000
0101
0000
0000
0100
0000
0100
0000
0000
0100
0000
0001
1000
,
0100
0000
0010
0000
0110
0000
0000
0002
0000
1003
0010
0000
1010
0000
0000
0000
,
0001
0000
0100
0000
0101
0000
0000
0010
0000
1000
0000
0000
1010
0000
0000
0000
,
0001
2000
0000
3000
1001
0000
0000
0001
0000
0010
0000
0100
0110
0000
0000
0000
,
0100
0000
1000
0000
0001
0000
0000
0000
0101
0000
0000
0000
0001
0000
0100
0000
0000
0000
0100
0000
0000
0000
0001
0010
0100
0000
1000
0000
0100
0000
1000
0000
,
0010
0000
0100
0000
0010
0000
1000
0000
0200
0000
0000
0310
0000
0000
0001
0000
1000
0000
0010
0000
0100
0000
0001
0000
0020
0000
0000
0130
0000
0000
0010
0000
,
0001
0000
1000
0000
0010
0000
1000
0000
0200
0000
0000
0310
0000
0000
0100
0000
2000
0000
0000
3001
1000
0000
0010
0000
0002
0000
0000
0000
0023
0000
0000
0000
,
1030
0000
0001
0000
0010
0000
0001
0000
0200
0000
0000
0310
0000
0000
1000
0000
0001
0000
0010
0000
0100
0000
1000
0000
0020
0000
0000
0130
0000
0000
0010
0000
,
1000
0000
0001
0000
0010
0000
0001
0000
0200
0000
0000
0310
0000
0000
1000
0000
0200
0000
0000
0310
0001
0000
1000
0000
0200
0000
0000
0310
0001
0000
0100
0000
,
2000
0000
0000
0000
3200
0000
0000
0000
0301
0000
0000
0000
0000
0000
2000
0000
0000
0000
3100
0000
0010
0000
0001
0000
2000
0000
0000
3001
0100
0000
0010
0000
,
2000
0000
3200
0000
0302
0000
0003
0000
0200
0000
0000
0000
2300
0000
3000
0000
0010
0000
0000
0010
0000
0000
0010
0000
0200
0000
0000
0301
0010
0100
1000
0010
,
0002
0000
0003
0000
0020
0000
0000
0000
0031
1000
0200
0000
0300
0000
0002
0000
0000
0000
0013
0000
0100
0000
1000
0000
0002
0000
0000
1003
0010
0000
0100
0000
,
0002
0000
0023
0000
2030
0000
3000
0000
0020
0000
0100
0000
0130
1000
0001
0000
0000
0000
0000
0000
0000
0000
0000
0000
0000
0000
0000
0000
0000
0000
0000
0000
;

//---------------dance-single - Feraligatr----------------
#NOTES:
     dance-single:
     Feraligatr SH:
     Hard:
     9:
     0.545549,0.624524,0.123188,0.557971,0.717391,527.000000,510.000000,17.000000,77.000000,28.000000,0.000000,0.545549,0.624524,0.123188,0.557971,0.717391,527.000000,510.000000,17.000000,77.000000,28.000000,0.000000:
0000
0000
0000
0000
,
0000
0000
0000
0000
,
0000
0000
0000
0000
,
0000
0000
0000
0000
0000
0000
0000
0000
0000
0000
0000
0000
0001
0100
0001
0100
,
0010
1000
0001
0000
0010
0010
0100
2000
,
0000
0000
3010
0000
0100
0000
0000
0001
0000
1000
0000
0001
0010
0000
0100
0000
,
1000
0001
1000
0001
1000
0001
1000
0020
,
0000
0100
0000
0000
0100
0000
0100
0000
0030
0100
0000
0000
0001
0000
1000
0000
,
0100
0000
0010
0000
0001
0000
1000
0000
0020
0000
0000
0130
0000
0000
0001
0000
1000
0000
0100
0000
0010
0000
0001
0000
2000
0000
0000
3010
0000
0000
0100
0000
,
0001
0000
1000
0000
0100
0000
1000
0000
0002
0000
0000
0103
0000
0000
0001
0000
2000
0000
0000
3100
0010
0000
0001
0000
0200
0000
0300
0000
0020
0000
0000
0000
,
0030
0000
1000
0000
0001
0000
0010
0000
0200
0000
0000
1300
0000
0000
0001
0000
1000
0000
0010
0000
0100
0000
0001
0000
2000
0000
0000
3100
0000
0000
0010
0000
,
0100
0000
1000
0000
0001
0000
0100
0000
0020
0000
0000
1030
0000
0000
0001
0000
0020
0000
0000
0130
1000
0000
0001
0000
0020
0000
0000
0130
1000
0000
0001
0000
,
0200
0000
0320
0000
1030
1000
0001
0020
,
0000
0000
0130
0000
1000
0000
0001
0000
0200
0000
0000
0301
1000
0000
0100
0000
,
0020
0000
2030
0000
3002
0000
0203
0000
0320
0000
0000
0000
0032
0000
0000
0003
,
1001
0000
0000
0001
0000
0000
0001
0000
2000
0000
0000
3100
0010
0000
0001
0000
,
0200
0000
0300
0000
0020
0000
0000
0000
0031
0010
2000
0000
3001
0000
0020
0000
,
0000
0000
0130
0000
1000
0000
0001
0000
0200
0000
0000
0310
1000
0000
0001
0000
,
0020
2030
3002
0003
0200
0010
0320
0000
,
0031
1000
0000
0000
0010
0000
1000
0000
0000
0010
0000
0100
0001
1000
0001
1000
,
0100
0000
0000
0000
0010
0001
0010
0000
0100
0000
1000
0000
0001
0000
0100
0000
,
0000
0000
0000
0000
0010
1000
0010
0000
0100
0000
0001
0000
0010
0M00
0010
0000
,
1000
0000
0000
0000
0010
0100
0010
0000
1000
0000
0001
0000
0100
00M0
0100
0000
,
1000
0000
0000
0000
0100
0010
0100
0000
1000
0000
0001
0000
0100
00M0
0100
0000
,
1000
0000
0000
0000
0001
0100
0001
0000
0020
0000
0000
0000
0130
0000
0000
0000
,
1000
0000
0000
0000
0100
0010
0100
0000
1000
0000
0001
0000
0010
0M00
0010
0000
,
1000
0000
0000
0000
0010
0100
0010
0000
1000
0000
0001
0000
0100
00M0
0100
0000
,
1000
0001
0000
0000
0100
0010
0100
0000
0001
0000
1000
0000
0100
00M0
0100
0000
,
0001
0000
1000
0000
0100
0000
0010
0000
0001
0000
1000
0000
0100
00M0
0100
0000
0001
0000
0000
0000
0010
0000
0000
0000
0200
0000
0000
0000
0300
0000
0000
0000
,
0110
0000
0000
0000
0000
0000
0000
0000
1000
0000
0000
0000
0100
00M0
0100
0000
0001
0000
0000
0000
0010
0000
0000
0000
0200
0000
0000
0000
0300
0000
0000
0000
,
1000
0000
0010
0000
1000
0000
0001
0000
0010
0000
0001
0000
0100
00M0
0100
0000
1000
0000
0000
0000
0010
0000
0000
0000
0200
0000
0000
0000
0300
0000
0000
0000
,
0001
0000
0100
0000
0001
0000
1000
0000
0100
0000
1000
0000
0010
0M00
0010
0000
0001
0000
0100
0000
0001
0000
1000
0000
0100
0000
1000
0000
0010
0M00
0010
0000
,
0001
0000
0100
0000
0010
0000
1000
0000
0001
0000
1000
0000
0100
00M0
0100
0000
0001
0000
0000
0000
0010
0000
0000
0000
0200
0000
0000
0000
0300
0000
0000
0000
,
0110
0000
0000
0000
0000
0000
0000
0000
1000
0000
0000
0000
0100
00M0
0100
0000
0001
0000
0000
0000
0010
0000
0000
0000
0200
0000
0000
0000
0300
0000
0000
0000
,
1000
0000
0001
0000
0100
0000
0010
0000
1000
0000
0001
0000
0100
00M0
0100
0000
1000
0000
0000
0000
0010
0000
0000
0000
0100
0000
0000
0000
0010
0M00
0010
0000
,
0001
0000
0000
0000
0100
0000
0000
0000
0010
0000
0000
0000
0100
00M0
0100
0000
1000
0000
0000
0000
0010
0000
0000
0000
0100
0000
0000
0000
0010
0000
0000
0000
,
1000
0000
0001
0000
0100
00M0
0100
1000
0000
0001
1000
0000
0100
00M0
0100
0000
,
0001
0000
1000
0000
0010
0M00
0010
0001
0000
1000
0001
0000
0100
00M0
0100
0000
,
1000
0000
0001
0000
0010
0M00
0010
1000
0000
0001
1000
0000
0100
00M0
0100
0000
,
0001
0000
1000
0000
0010
0M00
0010
0001
0000
1000
0001
0000
0010
0M00
0010
0000
,
1000
0000
0010
0000
0001
0M00
0001
0100
0000
0010
0100
0000
1000
00M0
1000
0000
,
0001
0000
0010
0000
1000
00M0
1000
0100
0000
0010
0100
0000
0001
00M0
0002
0000
,
0000
1003
0001
0000
0100
0000
0010
1000
0001
0000
0010
0000
0001
0000
0200
0000
,
0000
0010
0000
0300
0010
0000
0010
0000
0000
0010
1000
0001
1000
0100
0010
0001
,
1000
0000
0010
0000
1010
0000
0000
2000
0000
3001
0010
0000
0011
0000
0000
0000
,
0010
0000
0100
0000
0110
0000
0000
0010
0000
0001
0000
0000
0011
0000
0000
0000
,
1000
0002
0000
0003
1001
0000
0000
1000
0000
0010
0000
0000
1010
0000
0000
0000
,
0100
0000
0001
0000
0101
0000
0000
0100
0000
0100
0000
0000
0100
0000
0001
0000
,
1000
0000
0100
0000
1100
0000
0000
0002
0000
1003
0010
0000
1010
0000
0000
0000
,
0010
0000
0100
0000
0110
0000
0000
0010
0000
1000
0000
0000
1010
0000
0000
0000
,
0001
2000
0000
3000
1001
0000
0000
0001
0000
0010
0000
0000
0011
0000
0000
0000
,
0100
0000
1000
0000
1100
0000
0000
0100
0000
0100
0000
0000
0100
0000
1000
0000
,
0010
0000
0100
0000
0001
0000
1000
0000
0200
0000
0000
0310
0000
0000
0001
0000
1000
0000
0010
0000
0100
0000
0001
0000
2000
0000
0000
3100
0000
0000
0010
0000
,
0001
0000
1000
0000
0010
0000
1000
0000
0002
0000
0000
0013
0000
0000
0001
0000
2000
0000
0000
3010
0100
0000
0001
0000
0020
0000
0030
0000
0200
0000
0000
0000
,
0300
0000
1000
0000
0001
0000
0100
0000
0020
0000
0000
1030
0000
0000
0001
0000
1000
0000
0100
0000
0010
0000
0001
0000
2000
0000
0000
3010
0000
0000
0100
0000
,
0010
0000
1000
0000
0001
0000
0010
0000
0200
0000
0000
1300
0000
0000
0001
0000
0200
0000
0000
0310
1000
0000
0001
0000
0200
0000
0000
0310
1000
0000
0001
0000
,
0020
0000
0000
0000
0230
0000
0000
0000
1300
0000
0000
0000
0000
0000
0002
0000
0000
0000
0103
0000
0000
0000
0010
0000
2000
0000
0000
3001
0010
0000
0100
0000
,
0020
0000
2030
0000
3002
0000
0003
0000
0200
0000
0000
0000
2300
0000
3000
0000
0001
0000
0000
0001
0000
0000
0001
0000
0200
0000
0000
0310
1000
0000
0001
0000
,
0020
0000
0030
0000
0200
0000
0000
0000
0301
0100
2000
0000
3000
0000
0002
0000
0000
0000
0103
0000
0000
0000
0010
0000
2000
0000
0000
3001
0010
0000
0100
0000
,
0020
2030
3002
0003
0200
0010
0320
0030
0000
0000
0000
0000
0000
0000
0000
0000
;

//---------------dance-single - Feraligatr----------------
#NOTES:
     dance-single:
     Feraligatr SM:
     Medium:
     7:
     0.381988,0.387432,0.123188,0.144928,0.184783,369.000000,352.000000,17.000000,20.000000,0.000000,0.000000,0.381988,0.387432,0.123188,0.144928,0.184783,369.000000,352.000000,17.000000,20.000000,0.000000,0.000000:
0000
0000
0000
0000
,
0000
0000
0000
0000
,
0000
0000
0000
0000
,
0000
0000
0000
0000
,
1000
0000
0001
0000
0100
0100
0010
2000
,
0000
0000
3001
0000
0010
0000
0000
0100
0000
1000
0000
0100
1000
0000
0001
0000
,
0400
0000
0000
0000
0000
0000
0000
0320
,
0000
1000
0000
0000
1000
0000
1000
0000
0030
1000
0000
0000
0000
0000
0000
0000
,
0001
0010
0100
0000
1000
0001
0100
0000
,
0001
1000
0100
0000
1000
0100
0002
0203
,
1300
0010
0100
0000
0010
1000
0001
0000
,
1000
0100
0010
0000
0001
0100
0001
0100
,
2000
0000
3200
0000
0310
0010
1000
0002
,
0000
0013
0100
1000
0001
0000
0100
0010
,
1000
0000
0100
0000
0010
0000
0001
0000
0200
0000
0000
0000
0320
0000
0000
0030
,
1010
0000
0000
1000
0000
0000
1000
0000
0001
0000
0000
0000
1000
0000
0100
0000
,
0002
0000
0203
0000
2300
0000
3000
0002
,
0000
0103
0000
0010
1000
0000
0001
0010
,
0001
0100
0010
0000
2000
0000
3200
0000
,
0310
0001
0000
0000
1000
0000
0001
0000
0000
1000
0000
0000
0004
0000
0000
0000
,
0103
0000
0010
0100
0001
0010
0100
1000
,
0000
0000
0001
0100
0010
1000
0100
0010
,
0001
0000
1000
0010
0100
0001
0010
0100
,
1000
0000
0001
0100
0010
1000
0100
0010
,
0001
0000
0100
0001
0020
0000
0130
0000
,
1000
0000
0001
0100
0010
1000
0100
0010
,
0001
0000
1000
0010
0100
0001
0010
0100
,
1000
0001
0000
0000
0100
0000
0001
0000
0000
0100
0000
0000
0040
0000
0000
0000
,
1030
0100
0010
0100
0001
0100
1000
0000
,
1100
0000
1000
0100
0001
0100
1000
0000
,
0001
0100
0010
0100
1000
0100
0001
0000
,
0001
0100
1000
0100
0001
0100
1000
0100
,
0001
0010
0100
0010
1000
0010
0001
0000
,
0011
0000
0001
0010
1000
0010
0001
0000
,
1000
0010
0100
0010
0001
0010
1000
0010
,
0001
0010
1000
0010
0001
0010
1000
0100
,
0000
0000
1000
0000
0010
0000
0000
0100
0000
0001
1000
0000
0100
0000
0010
0000
,
0001
0000
1000
0000
0010
0000
0000
0100
0000
0001
1000
0000
0100
0000
0010
0000
,
0000
0000
0100
0000
1000
0000
0000
0001
0000
0100
0010
0000
1000
0000
0001
0000
,
0010
0000
0100
0000
1000
0000
0000
0001
0000
0100
0001
0000
1000
0000
0100
0000
,
0010
0000
0001
0000
1000
0000
0000
0010
0000
0100
0001
0000
1000
0000
0100
0000
,
0010
0000
0001
0000
1000
0000
0000
0010
0000
0100
0001
0000
1000
0000
0200
0000
,
0000
0300
1000
0000
0001
0000
0100
0020
,
0000
1030
0000
0000
0001
0000
1000
0000
0000
0001
0000
0000
1000
0000
0000
0000
,
0100
0000
0010
0000
0110
0000
0000
0001
0000
0000
1000
0000
1001
0000
0000
0000
,
0001
0000
0100
0000
0101
0000
0000
0010
0000
1000
0000
0000
1010
0000
0000
0000
,
0001
1000
0000
0000
1001
0000
0000
0001
0000
0010
0000
0000
0110
0000
0000
0000
,
0100
0000
0100
0000
0110
0000
0000
0100
0000
0100
0000
0000
0100
0000
1000
0000
,
0001
0000
0100
0000
0101
0000
0000
1000
0000
0000
0010
0000
1010
0000
0000
0000
,
0010
0000
0100
0000
0110
0000
0000
0010
0000
1000
0000
0000
1010
0000
0000
0000
,
1000
0001
0000
0000
1001
0000
0000
1000
0000
0100
0000
0000
0110
0000
0000
0000
,
0100
0000
0100
0000
0110
0000
0000
0100
0000
0100
0000
0000
0100
0000
1000
0000
,
0020
0000
0000
0030
0000
0000
0000
0000
0100
0000
0000
0001
0000
0000
1000
0000
,
0100
0010
0000
0000
0001
0000
0000
0000
1000
0000
0000
0000
0010
0000
0100
0000
,
0001
0000
0000
0000
1000
0000
0000
0000
0000
0000
0100
0010
0001
0000
1000
0000
,
0010
0000
0100
0000
0000
0000
0000
0000
0010
0000
0000
0000
1000
0001
0000
0000
0010
0000
0000
0000
0010
0000
0000
0000
0100
0000
0000
0000
0000
0000
0000
0000
,
2000
0000
0000
3000
0001
0000
0000
0000
0100
0000
0010
1000
0001
0000
0010
0000
,
0100
0010
0000
0000
0001
0000
0000
0000
1000
0000
0000
0000
0010
0000
1000
0000
,
0100
0000
0000
0000
0010
0000
0000
0000
0000
0000
0001
1000
0010
0000
0100
0000
,
0001
0000
1000
0000
0000
0000
0000
0000
0100
0000
0010
0000
0001
1000
0000
0000
0000
0000
0000
0000
0000
0000
0000
0000
0000
0000
0000
0000
0000
0000
0000
0000
;

//---------------dance-single - Feraligatr----------------
#NOTES:
     dance-single:
     Feraligatr SE:
     Easy:
     5:
     0.250518,0.301178,0.101449,0.123188,0.000000,242.000000,228.000000,14.000000,17.000000,0.000000,0.000000,0.250518,0.301178,0.101449,0.123188,0.000000,242.000000,228.000000,14.000000,17.000000,0.000000,0.000000:
// measure 0
0000
0000
0000
0000
,  // measure 1
0000
0000
0000
0000
,  // measure 2
0000
0000
0000
0000
,  // measure 3
0000
0000
0000
0000
,  // measure 4
1000
0000
0001
0000
0100
0100
0010
0000
,  // measure 5
1000
0001
0010
0100
,  // measure 6
4000
0000
0000
0000
0000
0000
0000
3020
,  // measure 7
0000
0000
0030
0000
,  // measure 8
1000
0100
1000
0001
,  // measure 9
0100
0000
0010
0000
1000
0100
0020
0032
,  // measure 10
1003
0010
0100
0001
,  // measure 11
1000
0000
0100
0000
0010
0001
0010
0001
,  // measure 12
0200
0320
1030
0001
,  // measure 13
0010
0000
0100
1000
,  // measure 14
0001
0100
0010
1000
,  // measure 15
0100
0000
1000
0010
,  // measure 16
0200
0302
2003
3000
,  // measure 17
0100
0010
0001
1000
,  // measure 18
0010
0100
0001
1000
,  // measure 19
0100
0000
0000
1000
,  // measure 20
0001
0100
0100
1000
,  // measure 21
0000
0001
0010
0010
,  // measure 22
1000
0001
0100
0100
,  // measure 23
1000
0001
0010
0010
,  // measure 24
1000
0001
0020
0130
,  // measure 25
1000
0001
0100
0100
,  // measure 26
1000
0001
0010
0010
,  // measure 27
1000
0001
0100
0001
,  // measure 28
1000
0000
0010
0000
0100
0001
0100
0000
,  // measure 29
0010
0000
0000
0000
0100
0001
0100
0000
,  // measure 30
0010
0000
1000
0000
0001
0010
0001
0000
,  // measure 31
1000
0010
1000
0010
,  // measure 32
0100
0000
0001
0000
1000
0100
1000
0000
,  // measure 33
0001
0000
0000
0000
1000
0100
1000
0000
,  // measure 34
0001
0000
0100
0000
0010
1000
0010
0000
,  // measure 35
1000
0010
1000
0000
0010
1000
0010
0000
,  // measure 36
0100
0000
0001
0000
1000
0100
0010
0000
,  // measure 37
0001
0000
1000
0000
0010
0100
0001
0000
,  // measure 38
1000
0000
0100
0000
0010
0100
1000
0000
,  // measure 39
0001
0000
0100
0000
0010
1000
0001
0000
,  // measure 40
0010
0000
0100
0000
0010
0001
1000
0000
,  // measure 41
0010
0000
0100
0000
0001
1000
0100
0000
,  // measure 42
0010
0000
0001
1000
,  // measure 43
0010
0000
0000
0000
,  // measure 44
0100
0101
1000
1001
,  // measure 45
0100
0110
0010
0110
,  // measure 46
1000
1001
0001
0101
,  // measure 47
0100
0110
0100
0100
,  // measure 48
0010
1010
0001
0101
,  // measure 49
0100
0110
0010
0110
,  // measure 50
0001
1001
1000
1100
,  // measure 51
0100
0110
0100
0100
,  // measure 52
2000
0000
0000
3000
0000
0000
0000
0000
0001
0000
0000
0000
0000
0000
0000
0000
,  // measure 53
0100
0000
0010
0000
1000
0000
0200
0320
,  // measure 54
0031
1000
0010
0100
,  // measure 55
0001
0000
1000
0000
0100
1000
0100
1000
,  // measure 56
0002
0203
0310
0000
1000
0000
0001
0000
,  // measure 57
0010
0000
0100
0000
1000
0000
0001
0100
,  // measure 58
0020
2030
3002
0003
0000
0000
0010
0100
,  // measure 59
1000
0000
0001
0100
0000
0000
0000
0000
;

//---------------dance-single - Feraligatr----------------
#NOTES:
     dance-single:
     Feraligatr SN:
     Beginner:
     2:
     0.131470,0.213768,0.108696,0.007246,0.000000,127.000000,112.000000,15.000000,1.000000,0.000000,0.000000,0.131470,0.213768,0.108696,0.007246,0.000000,127.000000,112.000000,15.000000,1.000000,0.000000,0.000000:
0000
0000
0000
0000
,
0000
0000
0000
0000
,
0000
0000
0000
0000
,
0000
0000
0000
0000
,
1000
0000
0000
0000
,
0001
0000
0000
0000
,
0100
0000
0000
0000
,
0010
0000
0000
0000
,
1000
0000
0100
0000
,
1000
0000
0001
0100
,
0010
0000
1000
0000
,
0001
0000
0010
0010
,
0100
0000
1000
0000
,
0001
0000
0100
0000
,
0001
0000
1000
0000
,
0100
0000
0010
0000
,
0100
0000
1000
0000
,
0001
0000
0100
0000
,
0010
0000
1000
0000
,
0001
0000
0000
0000
,
0010
0000
0000
0000
,
0100
0000
1000
1000
,
1000
0000
0001
0001
,
0001
0000
0100
0100
,
0100
0000
0020
1030
,
0001
0000
0010
0010
,
0010
0000
0100
0100
,
0100
0000
1000
1000
,
1000
0000
0001
0000
,
0000
0000
0001
0000
,
0010
0000
0100
0000
,
1000
0000
1000
0000
,
0001
0000
0100
0000
,
0000
0000
0100
0000
,
0010
0000
1000
0000
,
1000
0000
1000
0000
,
0100
0000
0010
0000
,
0100
0000
1000
0000
,
0001
0000
0100
0000
,
0010
0000
1000
0000
,
0001
0000
0010
0000
,
0001
0000
1000
0000
,
0010
0000
0000
0000
,
0100
0000
0000
0000
,
0000
1001
0000
1001
,
0000
0110
0000
0110
,
0000
1001
0000
1001
,
0000
0110
0000
0100
,
0000
1001
0000
1001
,
0000
0110
0000
0110
,
0000
1001
0000
1001
,
0000
0110
0000
0100
,
1001
0000
0000
0000
,
1000
0000
0001
0010
,
0100
0000
1000
0000
,
0001
0000
0100
0100
,
0010
0000
1000
0000
,
0010
0000
1000
0001
,
0010
0000
0100
0000
,
1000
0000
0000
0000
;
