#VERSION:0.83;
#TITLE:Bad Boy;
#SUBTITLE:;
#ARTIST:Razihel;
#TITLETRANSLIT:;
#SUBTITLETRANSLIT:;
#ARTISTTRANSLIT:;
#GENRE:;
#ORIGIN:;
#CREDIT:loodee;
#BANNER:Bad Boy-bn.png;
#BACKGROUND:Bad Boy-bg.png;
#PREVIEWVID:;
#JACKET:Bad Boy-jacket.png;
#CDIMAGE:;
#DISCIMAGE:;
#LYRICSPATH:;
#CDTITLE:loodeecdtitle.png;
#MUSIC:Bad Boy.ogg;
#OFFSET:0.008000;
#SAMPLESTART:25.728001;
#SAMPLELENGTH:29.690001;
#SELECTABLE:YES;
#BPMS:0.000=111.950;
#STOPS:;
#DELAYS:;
#WARPS:;
#TIMESIGNATURES:0.000=4=4;
#TICKCOUNTS:0.000=4;
#COMBOS:0.000=1;
#SPEEDS:0.000=1.000=0.000=0;
#SCROLLS:0.000=1.000;
#FAKES:;
#LABELS:0.000=Song Start;
#LASTSECONDHINT:113.614151;
#BGCHANGES:;
#KEYSOUNDS:;
#ATTACKS:
;

//---------------dance-single - ----------------
#NOTEDATA:;
#CHARTNAME:;
#STEPSTYPE:dance-single;
#DESCRIPTION:;
#CHARTSTYLE:;
#DIFFICULTY:Challenge;
#METER:11;
#RADARVALUES:0.567487,0.720053,0.225017,0.778904,0.688032,459.000000,433.000000,26.000000,90.000000,0.000000,0.000000,1.000000,0.000000,0.000000,0.567487,0.720053,0.225017,0.778904,0.688032,459.000000,433.000000,26.000000,90.000000,0.000000,0.000000,1.000000,0.000000,0.000000;
#CREDIT:loodee;
#NOTES:
// measure 0
0000
0000
0000
0000
,  // measure 1
0000
0000
0000
0000
,  // measure 2
0000
0000
0000
0000
,  // measure 3
0000
0000
0000
0000
,  // measure 4
0101
0000
0010
0000
0010
0000
1000
0000
0200
0000
0310
0001
0000
0000
0000
1000
,  // measure 5
0010
0000
0010
0000
0100
0000
0010
0000
0002
0000
0000
0023
0000
0000
0030
0000
,  // measure 6
1000
0000
0001
0000
0001
0000
0010
0000
0002
0000
1003
0100
0000
0000
0000
0010
,  // measure 7
0100
0000
0100
0000
0001
0000
0100
0000
1000
0000
1000
0020
0000
0000
0030
0000
,  // measure 8
0110
0000
0001
0000
0001
0000
1000
0000
0020
0000
0130
0001
0000
0000
0000
0010
,  // measure 9
0100
0000
0010
0000
0001
0000
0010
0000
2000
0000
0000
3020
0000
0000
0030
0000
,  // measure 10
0100
0000
1000
0000
1000
0000
0010
0000
0200
0000
0301
0100
0000
0000
0000
0010
,  // measure 11
0100
0000
0100
0000
1000
0000
0100
0000
0001
0000
0001
0020
0000
0000
0030
0000
,  // measure 12
2100
0000
3001
0010
0001
0010
1000
1000
0100
0100
0002
0000
0203
0000
0000
0320
,  // measure 13
0000
0130
1000
0100
0001
0010
0200
0000
0320
0000
0000
0000
0230
0000
0000
2300
,  // measure 14
0000
3001
0010
0010
1200
0000
0000
0000
0310
0100
1000
0001
0200
0000
0301
0000
,  // measure 15
0010
0000
0000
0010
1100
0000
0001
0000
0001
1010
0100
0000
0110
0000
0100
1000
,  // measure 16
0012
0000
1003
0010
1000
0010
0001
0001
0100
0100
2000
0000
3002
0000
0000
0203
,  // measure 17
0000
1300
0001
0010
1000
0100
0002
0000
0203
0000
0000
0000
0320
0000
0000
0032
,  // measure 18
0000
1003
0010
0010
0201
0000
0000
0000
0310
0100
0001
1000
0200
0000
1300
0000
,  // measure 19
0010
0000
0101
1000
0000
0101
0010
0000
0001
0000
1000
0010
0100
0001
1000
0010
,  // measure 20
0002
0000
0000
0000
0023
0000
0000
0030
,  // measure 21
0100
0000
0001
0010
0100
0010
0000
1000
0000
0010
0000
0100
0000
1000
0010
0200
,  // measure 22
0001
0000
0000
0000
0320
0000
0000
0130
,  // measure 23
1000
0000
0100
0000
0001
0000
0010
0000
0200
0000
0000
0000
1000
0000
0000
0000
0310
0000
0001
0000
1000
0010
0100
0000
0001
0000
1000
0000
0100
0000
0010
0000
,  // measure 24
2000
0000
3002
0000
,  // measure 25
0013
0001
1000
0020
0000
0230
0000
0310
0001
1000
0010
0100
0001
0010
0100
1000
,  // measure 26
0020
0000
0000
0000
0230
0000
0000
0301
,  // measure 27
0010
0000
0100
0000
0010
0000
1000
0000
0020
0000
0000
0000
0000
0000
0000
0000
0031
0000
0000
0000
1000
0010
0100
0000
0001
0000
1000
0000
0100
0000
0010
0000
,  // measure 28
0200
0000
0000
0000
,  // measure 29
0300
0000
1000
0000
1000
0000
1000
0000
0002
0000
0103
0001
0000
0000
0000
0000
,  // measure 30
0000
0000
0010
0000
0010
0000
0010
0000
0200
0000
1300
0100
0000
0000
0000
1000
,  // measure 31
0001
0000
0001
0000
0001
0000
0100
0000
0020
0000
0000
2030
0000
0000
3000
0000
,  // measure 32
0000
0000
0001
0000
0001
0000
0001
0000
2000
0000
3100
1000
0000
0000
0000
0000
,  // measure 33
0000
0000
0100
0000
0100
0000
0100
0000
0020
0000
0031
0010
0000
0000
0000
0000
,  // measure 34
0000
0000
0001
0000
0001
0000
0001
0000
2000
0000
3010
1000
0000
0000
0000
0100
,  // measure 35
0040
0000
0031
0000
,  // measure 36
2010
0000
0000
0000
0000
0000
0000
0000
3100
0000
0100
0000
0001
0000
0010
0100
0010
0000
0001
0000
0100
0000
0001
0000
2000
0000
0000
0000
3010
0000
0010
0000
,  // measure 37
0002
0000
0000
0000
0000
0000
0203
0000
0000
0000
0000
0000
1300
0000
0000
1000
0000
0000
0010
0000
0000
0100
0000
0000
1000
0000
0000
1000
0000
0000
0010
0000
0100
0000
0001
0000
2000
0000
0000
0000
0000
0000
3200
0000
0000
0000
0000
0000
,  // measure 38
0310
0000
0001
0000
0010
0000
0100
0000
1000
0000
0001
0000
0200
0000
0000
0000
0000
0000
0310
0000
0000
0010
0000
0000
0002
0000
0000
0000
0000
0000
0103
0000
1000
0000
0100
0000
0020
0000
0000
0000
0000
0000
1030
0000
0000
0000
0000
0000
,  // measure 39
0200
0000
0000
0000
0310
0000
1000
0010
0001
1010
0100
0000
0110
0000
0100
1000
,  // measure 40
0021
0000
0000
0000
0000
0000
0000
0000
0130
0000
0100
0000
1000
0000
0010
0100
0010
0000
1000
0000
0100
0000
0010
0000
0002
0000
0000
0000
0013
0000
0010
0000
,  // measure 41
2000
0000
0000
0000
0000
0000
3200
0000
0000
0000
0000
0000
0301
0000
0000
0001
0000
0000
0010
0000
0000
0100
0000
0000
0001
0000
0000
0001
0000
0000
0010
0000
0100
0000
1000
0000
0002
0000
0000
0000
0000
0000
0203
0000
0000
0000
0000
0000
,  // measure 42
1300
0000
0000
0000
0100
0000
0000
0000
0001
0000
0000
0000
2000
0000
0000
0000
0000
0000
3100
0000
0000
0100
0000
0000
0002
0000
0000
0000
0000
0000
0013
0000
1000
0000
0010
0000
0200
0000
0000
0000
0000
0000
1300
0000
0000
0000
0000
0000
,  // measure 43
1000
0000
0101
0010
0000
0101
1000
0010
0200
0000
0301
0010
0001
0100
0010
1000
,  // measure 44
0102
0000
1003
0100
1000
0100
0001
0001
0010
0010
2000
0000
3020
0000
0000
0230
,  // measure 45
0000
0310
0001
0010
1000
0100
0020
0000
0230
0000
0000
0000
0320
0000
0000
0032
,  // measure 46
0000
1003
0100
0100
0021
0000
0000
0000
0130
0010
0001
1000
0020
0000
1030
0000
,  // measure 47
0100
0000
0000
0100
0011
0000
1000
0000
1000
0101
0010
0000
0110
0000
0010
0001
,  // measure 48
2100
0000
3001
0100
0001
0100
1000
1000
0010
0010
0002
0000
2003
0000
0000
3020
,  // measure 49
0000
0031
1000
0100
0001
0010
2000
0000
3020
0000
0000
0000
0230
0000
0000
2300
,  // measure 50
0000
3001
0100
0100
1020
0000
0000
0000
0130
0010
1000
0001
0020
0000
0031
0000
,  // measure 51
0100
0000
1010
0001
0000
1010
0100
0000
1000
0000
0001
0100
0001
0100
0001
0100
,  // measure 52
1000
0000
0000
0000
;

//---------------dance-single - ----------------
#NOTEDATA:;
#CHARTNAME:;
#STEPSTYPE:dance-single;
#DESCRIPTION:;
#CHARTSTYLE:;
#DIFFICULTY:Hard;
#METER:10;
#RADARVALUES:0.500724,0.585043,0.086545,0.718322,0.553887,405.000000,395.000000,10.000000,83.000000,0.000000,0.000000,0.000000,0.000000,0.000000,0.500724,0.585043,0.086545,0.718322,0.553887,405.000000,395.000000,10.000000,83.000000,0.000000,0.000000,0.000000,0.000000,0.000000;
#CREDIT:loodee;
#NOTES:
// measure 0
0000
0000
0000
0000
,  // measure 1
0000
0000
0000
0000
,  // measure 2
0000
0000
0000
0000
,  // measure 3
0000
0000
0000
0000
,  // measure 4
0001
0000
1000
0000
1000
0000
0001
0000
0020
0000
0130
0010
0000
0000
0000
0100
,  // measure 5
1000
0000
1000
0000
0010
0000
0010
0000
0200
0000
0000
0302
0000
0000
0003
0000
,  // measure 6
1000
0000
0001
0000
0001
0000
0010
0000
0200
0000
0310
0001
0000
0000
0000
1000
,  // measure 7
0010
0000
0010
0000
0100
0000
0100
0000
0002
0000
1003
0200
0000
0300
0000
0000
,  // measure 8
0010
0000
0100
0000
0100
0000
1000
0000
0002
0000
0103
0001
0000
0000
0000
1000
,  // measure 9
0010
0000
0010
0000
0100
0000
0100
0000
0002
0000
0000
2003
0000
0000
3000
0000
,  // measure 10
0100
0000
0010
0000
0010
0000
0100
0000
2000
0000
3001
0100
0000
0000
0000
0010
,  // measure 11
0100
0000
0010
0000
1000
0000
1000
0000
0002
0000
0013
0200
0000
0000
0300
0000
,  // measure 12
1100
0000
1000
0100
1000
0100
0010
0001
0010
0001
0200
0000
2300
0000
0000
3200
,  // measure 13
0000
0300
0001
0000
1000
0000
0200
0000
0302
0000
0000
0000
0203
0000
0000
0320
,  // measure 14
0000
0031
1000
0001
2000
0000
0000
0000
3010
0100
0001
0010
0200
0000
0310
0000
,  // measure 15
0011
0000
0000
1000
0001
0000
1000
0000
1000
0010
0100
0000
0110
0000
0010
1000
,  // measure 16
0001
0000
0010
0100
0010
0100
1000
0001
1000
0001
0200
0000
2300
0000
0000
3200
,  // measure 17
0000
0310
1000
0001
1000
0000
0200
0000
0302
0000
0000
0000
0203
0000
0000
0320
,  // measure 18
0000
0031
1000
0001
0200
0000
0000
0000
0310
1000
0001
0010
0200
0000
0310
0000
,  // measure 19
0011
0000
0001
1000
0000
0001
1000
0000
0010
0000
0100
0010
0100
0001
1000
0100
,  // measure 20
0020
0000
0000
0000
0230
0000
0000
0300
,  // measure 21
0000
0000
1000
0001
0100
0010
0000
1000
0000
0100
0000
0010
0000
0100
0010
0002
,  // measure 22
0000
0000
0203
0000
,  // measure 23
0310
1000
0001
0010
0200
0000
0000
0000
0300
0000
1000
0100
0010
0100
1000
0001
,  // measure 24
0200
0000
0320
0000
,  // measure 25
1030
0100
1000
0020
0000
0230
0000
0300
0001
1000
0001
0010
0100
1000
0100
0010
,  // measure 26
0002
0000
0203
0000
,  // measure 27
0310
1000
0001
0010
0002
0000
0000
0000
0003
0000
0001
1000
0001
0100
0010
1000
,  // measure 28
0002
0000
0000
0000
,  // measure 29
0003
0000
1000
0000
1000
0000
1000
0000
0002
0000
0013
0001
0000
0000
0000
0000
,  // measure 30
0000
0000
0100
0000
0100
0000
0100
0000
0020
0000
1030
0010
0000
0000
0000
0000
,  // measure 31
0100
0000
0100
0000
0001
0000
0001
0000
0020
0000
0030
0020
0000
0000
0030
0000
,  // measure 32
0000
0000
0100
0000
0100
0000
0100
0000
2000
0000
3001
1000
0000
0000
0000
0000
,  // measure 33
0000
0000
0010
0000
0010
0000
0010
0000
0200
0000
0301
0100
0000
0000
0000
0000
,  // measure 34
0000
0000
0001
0000
0001
0000
0001
0000
0020
0000
0130
0010
0000
0000
0000
0000
,  // measure 35
0001
0001
0001
0001
1000
0000
0000
0000
,  // measure 36
1200
0000
0000
0000
0310
0100
1000
0001
1000
1000
0010
0100
0020
0000
0130
0000
,  // measure 37
0002
0000
0000
0000
1003
0100
0010
0100
1000
0010
0100
0000
0001
0000
0020
0000
,  // measure 38
0130
0000
0000
0000
1002
0000
0103
0010
2000
0000
3001
0001
0020
0000
0130
0000
,  // measure 39
0020
0000
0000
0000
0031
0000
0100
0010
1000
0100
0010
0000
0010
0000
0010
0001
,  // measure 40
0200
0000
0000
0000
0310
1000
0010
0100
0001
0001
1000
0100
0020
0000
0130
0000
,  // measure 41
2000
0000
0000
0000
3010
0100
0001
0010
0001
0100
0010
0000
1000
0000
0002
0000
,  // measure 42
0013
0000
0000
0000
0210
0000
1300
0100
0010
0000
0001
0001
2000
0000
3010
0000
,  // measure 43
0100
0000
0001
0100
0000
0001
0100
0000
0020
0000
1030
0001
1000
0100
0010
0001
,  // measure 44
0010
0000
0001
1000
0001
1000
0100
0010
0100
0010
0200
0000
0302
0000
0000
0203
,  // measure 45
0000
0000
1300
0000
0001
0000
0200
0000
0320
0000
0000
0000
2030
0000
0000
3002
,  // measure 46
0000
0013
0100
0010
0002
0000
0000
0000
1003
0010
0100
0001
2000
0000
3100
0000
,  // measure 47
0110
0000
0000
0010
0001
0000
1000
0000
0001
1000
0100
0000
1100
0000
1000
0001
,  // measure 48
0100
0000
0010
1000
0010
1000
0001
0010
0001
0010
0200
0000
0302
0000
0000
0203
,  // measure 49
0000
0310
0001
1000
0010
0000
0200
0000
0302
0000
0000
0000
2003
0000
0000
3200
,  // measure 50
0000
0310
0100
1000
0002
0000
0000
0000
0103
0010
0100
0001
2000
0000
3100
0000
,  // measure 51
0110
0000
0010
0100
0000
0010
0100
0000
1000
0000
0010
0100
0001
1000
0100
0010
,  // measure 52
0001
0000
0000
0000
;

//---------------dance-single - ----------------
#NOTEDATA:;
#CHARTNAME:;
#STEPSTYPE:dance-single;
#DESCRIPTION:;
#CHARTSTYLE:;
#DIFFICULTY:Medium;
#METER:8;
#RADARVALUES:0.370907,0.427532,0.034618,0.553887,0.255307,300.000000,296.000000,4.000000,64.000000,0.000000,0.000000,0.000000,0.000000,0.000000,0.370907,0.427532,0.034618,0.553887,0.255307,300.000000,296.000000,4.000000,64.000000,0.000000,0.000000,0.000000,0.000000,0.000000;
#CREDIT:loodee;
#NOTES:
// measure 0
0000
0000
0000
0000
,  // measure 1
0000
0000
0000
0000
,  // measure 2
0000
0000
0000
0000
,  // measure 3
0000
0000
0000
0000
,  // measure 4
1000
0000
0100
0000
0100
0000
0100
0000
2000
0000
0000
3001
0000
0000
0000
0000
,  // measure 5
0100
0000
0100
0000
0010
0000
0010
0000
2000
0000
0000
3002
0000
0000
0003
0000
,  // measure 6
0010
0000
0100
0000
0100
0000
0100
0000
0200
0000
0000
0310
0000
0000
0000
0000
,  // measure 7
0001
0000
0001
0000
1000
0000
1000
0000
0020
0000
0000
0230
0000
0000
0300
0000
,  // measure 8
0010
0000
1000
0000
1000
0000
1000
0000
0002
0000
0000
0013
0000
0000
0000
0000
,  // measure 9
0100
0000
0100
0000
0010
0000
0010
0000
0200
0000
0000
2300
0000
0000
3000
0000
,  // measure 10
0001
0000
0100
0000
0100
0000
0100
0000
0200
0000
0000
0310
0000
0000
0000
0000
,  // measure 11
1000
0000
1000
0000
0001
0000
0001
0000
0020
0000
0000
0030
0000
0000
0000
0000
,  // measure 12
1001
0000
0001
0000
0010
0100
0010
0000
0001
0000
0100
0000
0020
0000
0000
0230
,  // measure 13
0000
0000
0301
0000
1000
0000
0100
0000
0020
0000
0000
0000
0230
0000
0000
2300
,  // measure 14
0000
0000
3001
0000
0200
0000
0000
0000
0310
0000
1000
0100
0010
0000
0100
0000
,  // measure 15
0100
0000
0000
0100
0000
0000
1000
0000
0010
0000
0000
0010
0000
0000
0100
0001
,  // measure 16
1000
0000
0000
0000
0100
0010
0100
0000
0010
0000
0001
0000
2000
0000
0000
3020
,  // measure 17
0000
0000
0130
0000
0001
0000
1000
0000
0200
0000
0000
0000
0320
0000
0000
0230
,  // measure 18
0000
0000
1300
0000
0002
0000
0000
0000
0103
0000
0010
1000
0100
0000
0100
0000
,  // measure 19
0100
0000
0000
0100
0000
0000
0010
0000
0001
0000
0000
0001
0000
0000
1000
0010
,  // measure 20
0200
0000
0302
0000
,  // measure 21
1003
0000
0100
0000
0010
0000
0000
0001
0000
0001
0000
0001
0000
0000
1000
0000
,  // measure 22
0020
0000
0230
0000
,  // measure 23
0301
0000
0010
0000
0200
0000
0000
0000
1300
0001
1000
0000
0010
0000
1000
0001
,  // measure 24
0020
0000
0230
0000
,  // measure 25
0301
0100
1000
0000
0010
0100
0001
0010
,  // measure 26
0002
0000
0203
0000
,  // measure 27
0310
0000
1000
0000
0200
0000
0000
0000
0310
0000
0001
1000
0001
1000
0001
1000
,  // measure 28
0002
0000
0000
0000
,  // measure 29
0003
0000
0000
0000
,  // measure 30
0000
0000
1000
0000
1000
0000
1000
0000
0020
0000
0000
0130
0000
0000
0000
0000
,  // measure 31
0001
0000
0001
0000
1000
0000
1000
0000
0002
0000
0000
0023
0000
0000
0030
0000
,  // measure 32
0000
0000
0100
0000
0100
0000
0100
0000
2000
0000
0000
3100
0000
0000
0000
0000
,  // measure 33
0000
0000
1000
0000
1000
0000
1000
0000
0002
0000
0000
0103
0000
0000
0000
0000
,  // measure 34
0000
0000
0010
0000
0010
0000
0010
0000
0200
0000
0000
0301
0000
0000
0000
0000
,  // measure 35
1000
0001
1000
0001
0010
0000
0000
0000
,  // measure 36
0210
0000
0000
0000
1300
0000
1000
0000
0100
0010
0001
0000
0200
0000
0310
0000
,  // measure 37
2000
0000
0000
0000
3001
0010
0001
0000
0100
0000
0010
0000
0100
0000
0001
0000
,  // measure 38
0010
0000
0000
0000
2001
0000
0000
0000
3010
0000
0010
0100
0010
0000
1000
0000
,  // measure 39
0002
0000
0000
0000
0013
0000
0100
1000
0200
0000
0000
0000
1300
0000
0001
0000
,  // measure 40
0020
0000
0000
0000
0031
0000
0001
0000
1000
0010
1000
0000
0001
0000
0010
0000
,  // measure 41
0200
0000
0000
0000
1300
0001
1000
0000
0010
0000
0100
0000
0010
0000
1000
0000
,  // measure 42
0001
0000
0000
0000
0021
0000
0000
0000
0130
0000
1000
0100
0010
0000
0001
0000
,  // measure 43
0100
0000
0000
0100
0000
0000
0010
0100
0002
0000
0000
0000
1003
0001
1000
0001
,  // measure 44
2000
0000
3000
0000
0100
0010
0001
0000
1000
0000
0010
0000
0200
0000
0000
0302
,  // measure 45
0000
0000
1003
0000
0010
0000
1000
0000
0200
0000
0000
0000
0320
0000
0000
0230
,  // measure 46
0000
0000
1300
0000
0002
0000
0000
0000
0103
0000
0010
1000
0010
0000
0100
0000
,  // measure 47
0100
0000
0000
0100
0000
0000
0001
0000
1000
0000
0000
1000
0000
0000
0100
0010
,  // measure 48
0002
0000
0003
0000
0010
0100
1000
0000
0010
0000
0100
0000
0020
0000
0000
0230
,  // measure 49
0000
0000
0310
0000
1000
0000
0001
0000
0020
0000
0000
0000
0230
0000
0000
2300
,  // measure 50
0000
0000
3100
0000
2000
0000
0000
0000
3010
0000
0100
0001
0100
0000
0010
0000
,  // measure 51
0010
0000
0000
0010
0000
0000
1000
0000
0001
0000
0000
0001
0000
0000
0010
0100
,  // measure 52
1000
0000
0000
0000
;

//---------------dance-single - ----------------
#NOTEDATA:;
#CHARTNAME:;
#STEPSTYPE:dance-single;
#DESCRIPTION:;
#CHARTSTYLE:;
#DIFFICULTY:Easy;
#METER:5;
#RADARVALUES:0.231198,0.270020,0.051927,0.276944,0.038945,187.000000,181.000000,6.000000,32.000000,0.000000,0.000000,0.000000,0.000000,0.000000,0.231198,0.270020,0.051927,0.276944,0.038945,187.000000,181.000000,6.000000,32.000000,0.000000,0.000000,0.000000,0.000000,0.000000;
#CREDIT:loodee;
#NOTES:
// measure 0
0000
0000
0000
0000
,  // measure 1
0000
0000
0000
0000
,  // measure 2
0000
0000
0000
0000
,  // measure 3
0000
0000
0000
0000
,  // measure 4
0001
0010
0002
0003
,  // measure 5
1000
1000
1000
0000
0020
0000
0030
0000
,  // measure 6
0100
0001
2000
3000
,  // measure 7
0100
0100
0100
0000
0020
0000
0030
0000
,  // measure 8
0100
1000
0002
0003
,  // measure 9
0100
0100
0100
0000
0020
0000
0030
0000
,  // measure 10
1000
0001
2000
3000
,  // measure 11
0100
0100
0100
0000
0010
0000
0000
0000
,  // measure 12
1001
0000
0001
0001
0010
0000
0200
0000
,  // measure 13
0310
0001
2000
3010
,  // measure 14
0100
0100
0100
0000
0001
1000
0001
0000
,  // measure 15
0010
0000
0000
0010
0000
0000
0000
0000
0100
0000
0000
0100
0000
0000
0000
0000
,  // measure 16
1100
0000
1000
1000
0001
0000
0200
0000
,  // measure 17
0301
0010
0200
1300
,  // measure 18
0001
0001
0001
0000
0100
0000
0001
1000
,  // measure 19
0001
0000
0000
0001
0000
0000
0000
0000
1000
0000
0000
1000
0000
0000
0000
0000
,  // measure 20
0020
0000
0000
0000
0230
0000
0000
0300
,  // measure 21
0001
0000
0000
0000
0000
0000
0000
0010
0000
0000
0000
0000
0000
0000
0000
0000
,  // measure 22
0200
0000
2300
0000
,  // measure 23
3001
0000
0100
0000
0010
0010
1000
0000
,  // measure 24
0002
0000
0023
0000
,  // measure 25
0130
0000
1000
0001
,  // measure 26
0200
0000
0320
0000
,  // measure 27
1030
0000
1000
0000
0100
0000
0010
0010
,  // measure 28
0002
0000
0000
0000
,  // measure 29
0003
0000
0000
0000
,  // measure 30
0000
1000
1000
0000
,  // measure 31
0010
0010
0020
0030
,  // measure 32
0000
1000
1000
0000
,  // measure 33
0000
0001
0001
0000
,  // measure 34
0000
0010
0010
0000
,  // measure 35
0001
0001
0001
0000
,  // measure 36
0200
0000
0310
0000
1000
0010
1000
0000
,  // measure 37
0001
0000
0010
0000
0100
0010
0100
0000
,  // measure 38
1000
0000
1001
0000
0002
0003
0200
0300
,  // measure 39
0020
0000
0130
0000
0001
0001
0001
0000
,  // measure 40
0020
0000
0130
0000
0010
0001
0010
0000
,  // measure 41
0001
0000
1000
0000
0010
0100
0010
0000
,  // measure 42
1000
0000
0110
0000
2000
3000
0200
0300
,  // measure 43
0010
0000
0000
0001
0001
0000
1000
1000
,  // measure 44
0001
0000
1000
1000
0100
0000
0020
0000
,  // measure 45
0130
1000
0002
0103
,  // measure 46
0010
0010
0010
0000
1000
0001
1000
0000
,  // measure 47
0100
0000
0000
0100
0000
0000
0000
0000
0010
0000
0000
0010
0000
0000
0000
0000
,  // measure 48
0011
0000
0001
0001
1000
0000
0020
0000
,  // measure 49
1030
0100
0020
0031
,  // measure 50
1000
1000
1000
0000
0010
0000
1000
0001
,  // measure 51
1000
0000
0000
1000
0000
0000
0000
0000
0001
0000
0000
0001
0000
0000
0000
0000
,  // measure 52
0110
0000
0000
0000
;

//---------------dance-single - ----------------
#NOTEDATA:;
#CHARTNAME:;
#STEPSTYPE:dance-single;
#DESCRIPTION:;
#CHARTSTYLE:;
#DIFFICULTY:Beginner;
#METER:1;
#RADARVALUES:0.068000,0.112508,0.025963,0.043272,0.000000,55.000000,52.000000,3.000000,5.000000,0.000000,0.000000,0.000000,0.000000,0.000000,0.068000,0.112508,0.025963,0.043272,0.000000,55.000000,52.000000,3.000000,5.000000,0.000000,0.000000,0.000000,0.000000,0.000000;
#CREDIT:loodee;
#NOTES:
// measure 0
0000
0000
0000
0000
,  // measure 1
0000
0000
0000
0000
,  // measure 2
0000
0000
0000
0000
,  // measure 3
0000
0000
0000
0000
,  // measure 4
0001
0000
0000
0000
,  // measure 5
0001
0000
0000
0000
,  // measure 6
1000
0000
0000
0000
,  // measure 7
1000
0000
0000
0000
,  // measure 8
0001
0000
0000
0000
,  // measure 9
0001
0000
0000
0000
,  // measure 10
1000
0000
0000
0000
,  // measure 11
1000
0000
0000
0000
,  // measure 12
0110
0000
0000
0000
,  // measure 13
1000
0000
0000
0000
,  // measure 14
0001
0000
0000
0000
,  // measure 15
0100
0000
0100
0000
,  // measure 16
0001
0000
0000
0000
,  // measure 17
1000
0000
0000
0000
,  // measure 18
0001
0000
0000
0000
,  // measure 19
0010
0000
0010
0000
,  // measure 20
0002
0000
0000
0000
,  // measure 21
1003
0000
0000
0000
,  // measure 22
0002
0000
0000
0000
,  // measure 23
1003
0000
0000
0000
,  // measure 24
2000
0000
0000
0000
,  // measure 25
3100
0000
0000
0000
,  // measure 26
2000
0000
0000
0000
,  // measure 27
3001
0000
0000
0000
,  // measure 28
0200
0000
0000
0000
,  // measure 29
0300
0000
0000
0000
,  // measure 30
0000
0000
0000
0000
,  // measure 31
0000
0000
0000
0000
,  // measure 32
0001
0000
0000
0000
,  // measure 33
0001
0000
0000
0000
,  // measure 34
0001
0000
0000
0000
,  // measure 35
0010
0000
0000
0000
,  // measure 36
1001
0000
0000
0000
,  // measure 37
0001
0000
0000
0000
,  // measure 38
0100
0000
0000
0000
,  // measure 39
0001
0000
0001
0000
,  // measure 40
0001
0000
0000
0000
,  // measure 41
1000
0000
0000
0000
,  // measure 42
0100
0000
0000
0000
,  // measure 43
1000
0000
1000
0000
,  // measure 44
1000
0000
0000
0000
,  // measure 45
1000
0000
0000
0000
,  // measure 46
0001
0000
0000
0000
,  // measure 47
0100
0000
0100
0000
,  // measure 48
0001
0000
0000
0000
,  // measure 49
1000
0000
0000
0000
,  // measure 50
0001
0000
0000
0000
,  // measure 51
0010
0000
0010
0000
,  // measure 52
1001
0000
0000
0000
;
