#TITLE:BOY;
#SUBTITLE:;
#ARTIST:Charlie Puth;
#TITLETRANSLIT:;
#SUBTITLETRANSLIT:;
#ARTISTTRANSLIT:;
#GENRE:;
#CREDIT:;
#BANNER:BOY-bn.png;
#BACKGROUND:BOY-bg-wide-final.png;
#LYRICSPATH:;
#CDTITLE:cd-title-Benpai.png;
#MUSIC:BOY.ogg;
#OFFSET:0.009000;
#SAMPLESTART:36.119957;
#SAMPLELENGTH:20.000000;
#SELECTABLE:YES;
#BPMS:0.000000=93.000000
,32.250000=46.500000
,33.250000=44.900002
,33.750000=93.000000
;
#STOPS:25.750000=1.124000,
28.000000=1.111000
;
#BGCHANGES:;
#KEYSOUNDS:;
#ATTACKS:;

//---------------dance-single - XO FS FL 32nds----------------
#NOTES:
     dance-single:
     YEAH BOI:
     Challenge:
     10:
     0.608786,0.719053,0.024213,1.985472,1.246973,528.000000,525.000000,3.000000,246.000000,12.000000,0.000000,0.608786,0.719053,0.024213,1.985472,1.246973,528.000000,525.000000,3.000000,246.000000,12.000000,0.000000:
0000
0000
0000
0000
,
0000
0000
0000
0000
0000
0000
0000
0000
0000
0000
0000
0000
0000
0001
1000
0000
,
0000
0000
0010
0000
0010
0000
0100
0001
0010
0000
0100
0000
0100
0000
0100
1000
,
0002
0000
0000
0000
2003
0000
0000
0000
3002
0000
0000
0000
0023
0000
0000
0000
0230
0000
0000
0000
0000
0300
0000
0000
0000
0000
1000
0000
0001
0000
0100
0000
,
0010
0000
1000
0002
0000
0003
0020
0000
0000
0030
0000
0000
0000
0001
1000
0100
,
0020
0000
0031
2000
0000
3001
0200
0000
0000
0300
0000
0000
0000
0000
0000
0020
,
0000
0130
0001
2000
0000
3100
0010
M002
0203
0000
0310
1000
0002
0000
0013
0100
,
200M
3002
0000
0103
0010
1000
0000
0100
1000
0001
0000
0000
0100
0010
0100
0001
,
1000
0000
01M0
0000
1000
0001
0100
0000
0010
1000
0100
0000
0000
0000
M010
0000
0100
0000
0000
0000
1000
0000
0001
0000
0100
0000
0010
0000
0100
0000
0001
0000
,
0020
0230
1300
0002
0003
2000
3001
0200
0320
0030
2000
3001
0000
0100
0001
1000
,
0200
0320
0130
2000
3000
0002
0103
0020
2030
3000
0002
0013
0000
0100
0010
0001
,
0200
0000
0320
0000
1030
0000
0002
0000
0003
0000
2000
0000
3000
0020
0000
0030
0200
0000
0301
0000
2000
0000
3001
0000
0040
0000
0100
0000
0000
0000
0031
0000
,
1000
0001
0200
0010
0000
0301
1000
0000
1001
1000
0020
0230
2300
3100
0001
1000
,
0200
0320
0031
2000
3000
0020
0130
0002
2003
3000
0200
0310
0000
0001
1000
0001
,
0200
0320
1030
0002
0003
0020
0031
2000
3020
0030
2000
3100
0000
0010
0100
1000
,
0002
0000
0203
0000
0310
0000
2000
0000
3000
0000
0200
0000
0300
0020
0000
0030
0002
0000
1003
0000
0020
0000
0130
0000
0004
0000
1000
0000
0000
0000
0103
0000
,
0010
1000
0200
0010
0000
1300
0001
0000
0011
0010
0200
2300
3002
2003
3020
0032
,
0000
0000
0023
0000
0230
0000
2300
0000
0000
3000
0100
0000
0010
0M00
0010
0000
0001
0000
0010
0000
0100
0000
0002
0000
0000
0000
0203
0000
2300
0000
3020
0000
,
0000
0000
0230
0000
0302
0000
2003
0000
0000
0000
3001
0000
0100
00M0
0100
0000
1000
0000
0010
0000
0001
0000
2000
0000
0000
0000
3200
0000
0320
0000
0032
0000
,
0000
0023
2030
3002
0000
1003
0010
1000
0200
0320
0032
0203
2300
3200
0320
2030
,
0000
3200
0320
0032
0000
1003
0100
1000
0010
0200
0302
2003
3000
0000
0000
0000
,
0000
0000
0000
0000
0000
0000
0000
0000
0000
0000
0000
0000
0000
0000
0000
0000
0000
0000
0000
0000
0000
0000
0000
0000
0000
0000
0000
0000
0000
0000
0000
0000
0000
0000
0000
0000
0000
0000
0000
0000
0000
0000
0000
0000
0000
0000
0000
0000
0000
0000
0000
0000
0000
0000
0000
0000
0000
0000
0000
0000
0100
0000
0000
0000
0000
0000
0000
0000
0000
0000
0000
0000
0010
0000
0000
0000
0000
0000
0000
0000
0000
0000
0000
0000
0001
0000
0000
0000
0000
0000
0000
0000
0000
0000
0000
0000
0100
0000
0000
0000
0000
0000
0000
0000
0000
0000
0000
0000
0000
0000
0000
0000
0000
0000
0000
0000
0000
0000
0000
0000
0100
0000
0000
0000
0000
0000
0000
0000
0000
0000
0010
0000
0000
0000
0000
0000
0000
0000
0000
0000
0000
0000
0000
0000
1000
0000
0000
0000
0000
0000
0000
0000
0000
0000
0000
0000
0001
0000
0000
0000
0000
0000
0000
0000
0000
0000
0000
0000
2000
0000
0000
0000
0000
0000
0000
0000
0000
0000
0000
0000
0000
0000
0000
0000
0000
0000
0000
0000
0000
0000
0000
0000
,
0000
0000
0000
3000
0000
0100
0010
0001
1000
0010
0100
1000
0100
0010
0001
0010
,
0000
0000
0000
1000
0000
0000
0000
0000
0000
1000
0000
0000
0000
0000
0000
1000
0000
0000
0000
0000
0000
0001
0000
0000
1000
0000
0000
0001
0010
0000
0100
0000
0000
2000
0000
0000
0000
0000
0000
0000
0000
0000
0000
0000
0000
0000
0000
0000
,
0000
0000
0000
3000
0000
0000
0000
0000
0000
0000
0000
0002
0000
1003
0000
0100
,
0000
0000
0000
0000
0000
0000
0000
0000
0000
0000
0000
0000
1000
0000
0000
0000
0000
0000
0000
0000
0000
0000
0000
0000
0000
0000
0000
0000
0000
0000
0000
0000
0000
0000
0000
0000
0010
0000
0000
0000
0100
0000
0000
0000
0000
0000
0000
0000
0000
0000
0000
0000
0000
0000
0000
0000
0000
0000
0000
0000
0001
0000
0000
0000
0000
0000
0000
0000
0000
0000
0000
0000
0000
0000
0000
0000
0000
0000
0000
0000
0000
0000
0000
0000
0000
0000
0000
0000
0000
0000
0000
0000
0000
0000
0000
0000
0000
0000
0000
0000
0000
0000
0000
0000
0000
0000
0000
0000
0000
0000
0000
0000
0000
0000
0000
0000
0000
0000
0000
0000
0000
0000
0000
0000
0000
0000
0000
0000
0000
0000
0000
0000
1000
0000
0000
0000
0000
0000
0100
0000
0000
0000
0000
0000
0010
0000
0000
0000
0000
0000
0001
0000
0000
0000
0000
0000
1000
0000
0000
0000
0000
0000
0010
0000
0000
0000
0000
0000
0100
0000
0000
0000
0000
0000
0001
0000
0000
0000
0000
0000
1000
0000
0000
0000
0000
0000
0001
0000
0000
0000
0000
0000
,
0010
0000
0000
0000
0000
0000
0100
0000
0000
0000
0000
0000
1000
0000
0000
0000
0000
0000
0001
0000
0000
0000
0000
0000
1000
0000
0000
0000
0000
0000
0010
0000
0000
0000
0000
0000
0100
0000
0000
0000
0000
0000
0001
0000
0000
0000
0000
0000
1000
0000
0000
0000
0000
0000
0001
0000
0000
0000
0000
0000
0000
0000
0000
0000
0000
0000
1000
0000
0000
0000
0000
0000
0100
0000
0000
0000
0000
0000
1000
0000
0000
0000
0000
0000
0001
0000
0000
0000
0000
0000
0000
0000
0000
0000
0000
0000
0000
0000
0100
0000
0000
0000
0000
0000
0000
0000
0000
0000
0010
0000
0000
0000
0000
0000
0000
0000
0000
0000
0000
0000
1000
0000
0000
0000
0001
0000
0000
0000
0000
0000
0000
0000
0100
0000
0000
0000
0000
0000
0000
0000
0000
0000
0000
0000
0000
0000
0000
0000
0000
0000
0000
0000
0000
0000
0000
0000
0000
0000
0000
0000
0000
0000
0000
0000
0000
0000
0000
0000
0000
0000
0000
0000
0000
0000
0000
0000
0000
0000
0000
0000
0100
0000
0000
0000
0000
0000
0000
0000
0000
0000
0000
0000
,
0000
0000
0000
0000
0000
0000
0000
0000
0000
0000
0000
0000
0100
0000
0000
0000
0000
0000
0000
0000
0000
0000
0000
0000
0000
0000
0000
0000
0000
0000
0000
0000
0000
0000
0000
0000
0100
0000
0000
0000
0000
0000
0000
0000
0000
0000
0000
0000
0010
0000
0000
0000
0000
0000
0000
0000
0000
0000
0000
0000
1000
0000
0000
0000
0000
0000
0000
0000
0000
0000
0000
0000
0001
0000
0000
0000
0000
0000
0000
0000
0000
0000
0000
0000
0000
0000
0000
0000
0000
0000
0000
0000
0000
0000
0000
0000
0010
0000
0000
0000
0000
0000
0000
0100
0000
0000
0000
0000
0000
0000
0000
0000
0000
0000
0000
0000
0000
0000
0000
0000
1000
0000
0000
0000
0000
0000
0000
0000
0000
0000
0000
0000
0002
0000
0000
0000
0000
0000
0000
0000
0000
0000
0000
0000
0000
0000
0000
0000
0000
0000
0000
0000
0000
0000
0000
0000
0000
0000
0000
0000
0000
0000
0000
0000
0000
0000
0000
0000
0000
0000
0000
0000
0000
0000
0000
0000
0000
0000
0000
0000
2003
0000
0000
0000
0000
0000
0000
0000
0000
0000
0000
0000
,
0000
0000
0000
3020
0000
0000
0000
1030
0001
0000
0010
0001
0100
0010
0100
0001
,
0020
0230
1300
0002
0003
2000
3001
0200
0320
0030
2000
3100
0002
0000
0203
1300
,
0020
0230
0301
2000
3000
0002
0013
0200
2300
3002
0203
2300
0000
3100
0020
1030
,
0200
0000
0320
0000
0031
0000
2000
0000
3000
0000
0002
0000
0003
0200
0000
0300
0020
0000
1030
0000
0002
0000
1003
0000
0400
0000
0010
0000
0000
0000
1300
0000
,
0001
1000
0040
0100
0000
1030
0001
0000
1001
1000
0100
0010
1000
0010
0001
1000
,
0020
0230
0301
2000
3000
0200
0310
0002
2003
3000
0020
0032
0000
0013
0200
0302
,
2003
0000
3002
0000
0103
0000
0020
0000
0030
0000
0200
0000
0301
0000
2000
0000
3100
0000
0010
0M00
0010
0000
0002
0000
0000
0000
0023
0000
2030
0000
3001
0000
,
0020
0000
0230
0000
0300
0000
2000
0000
3000
0000
0020
0000
0030
0200
0000
0300
0004
0000
1000
0000
0000
0000
0103
0000
0040
0000
1000
0000
0000
0000
0230
0000
,
0302
2003
3200
0010
0000
2300
3002
0203
0320
2030
3200
0320
0032
2003
3020
0032
,
0000
0000
0023
0000
0230
0000
2300
0000
0000
3000
0100
0000
0010
0M00
0010
0000
0001
0000
0010
0000
0100
0000
0002
0000
0000
0000
0203
0000
2300
0000
3020
0000
,
0000
0000
0230
0000
0302
0000
2003
0000
0000
0000
3001
0000
0100
00M0
0100
0000
1000
0000
0010
0000
0001
0000
2000
0000
0000
0000
3200
0000
0320
0000
0032
0000
,
0000
0023
2030
3002
0000
1003
0010
1000
0200
0320
0032
0203
2300
3200
0320
2030
,
0000
3200
0320
0032
2003
3020
2030
3002
0023
0230
0302
2003
3020
0032
0203
2300
,
0000
0000
3200
0000
0320
0000
0032
0000
0000
0000
0013
0000
0100
00M0
0100
0000
1000
0000
0100
0000
0010
0000
2000
0000
0000
0000
3020
0000
0032
0000
0203
0000
,
0000
0000
0320
0000
2030
0000
3002
0000
0000
0000
1003
0000
0100
00M0
0100
0000
0001
0000
0010
0000
1000
0000
0002
0000
0000
0000
0203
0000
0320
0000
2030
0000
,
0000
3020
0032
2003
0000
3001
0100
0002
0023
0230
2300
3020
0032
0023
0230
0302
,
0000
0023
0230
2300
0000
3002
0203
0320
0000
0230
0302
2003
3100
0000
0000
0000
,
0000
0000
0000
0000
0000
0000
0000
0000
0000
0000
0000
00M0
0000
0000
0000
0000
;

//---------------dance-single - ----------------
#NOTES:
     dance-single:
     Similar to him:
     Hard:
     9:
     0.501557,0.516243,0.032284,0.492333,0.944310,435.000000,431.000000,4.000000,61.000000,6.000000,0.000000,0.501557,0.516243,0.032284,0.492333,0.944310,435.000000,431.000000,4.000000,61.000000,6.000000,0.000000:
0000
0000
0000
0000
,
0000
0000
0000
0000
0000
0000
0000
0000
0000
0000
0000
0000
0000
1000
0001
0000
,
0000
0000
0010
0000
0010
0000
0100
0010
0001
0000
0100
0000
0100
0000
0100
0010
,
2000
0000
0000
0000
3002
0000
0000
0000
2003
0000
0000
0000
3200
0000
0000
0000
0320
0000
0000
0000
0000
0030
0000
0000
0000
0000
0100
0000
1000
0000
0001
0000
,
0200
0000
0310
2000
0000
3000
0002
0000
0000
0003
0000
0000
0000
0000
0100
0001
,
0020
0000
0030
0200
0000
1300
0002
0000
0000
0003
0000
0000
0000
0000
0000
0020
,
0000
0130
1000
0020
0000
0130
0001
20M0
3200
0000
1300
0001
0200
0000
0310
1000
,
0M02
2003
0000
3100
0010
0100
0000
1000
0001
1000
0000
0000
0010
0100
0010
0100
,
0001
M020
0000
0230
0000
1300
0000
00M1
1000
0000
0100
0000
1000
0000
0001
0000
,
0100
0010
0000
0010
0000
1000
0000
0001
0010
0000
0100
1000
0000
0001
1000
0001
,
0100
0010
0000
0010
0000
1000
0000
0001
0100
0000
0001
0010
0000
0100
1000
0100
,
0010
0000
0001
0000
0000
0000
0001
0000
0000
0000
1000
0000
0000
0010
0000
0000
0100
0000
0000
0000
0001
0000
0000
0000
2000
0000
0000
0000
0000
0000
0000
0000
,
3100
0000
0020
0000
0000
0031
1000
0000
1001
0000
0001
0100
2000
0000
3100
0000
,
0010
1000
0000
0100
0000
1000
0000
0001
0100
0000
0010
0100
0000
0001
1000
0001
,
0010
0100
0000
0010
0000
0001
0000
1000
0010
0000
1000
0100
0000
0010
0100
0010
,
0001
0000
1000
0000
0000
0000
0010
0000
0000
0000
0100
0000
0000
0001
0000
0000
1000
0000
0000
0000
0100
0000
0000
0000
0020
0000
0000
0000
0000
0000
0000
0000
,
0031
0000
2000
0000
0000
3001
0100
0000
0110
0000
0010
1000
0004
0100
0000
0013
,
0000
0100
1000
0010
0000
0000
0100
0001
1000
1000
0100
0020
0000
0130
1000
0020
,
0000
0130
0001
1000
0000
0000
0001
0010
0100
0100
1000
0020
0000
0130
0010
2000
,
0000
3001
1000
0100
0000
0000
0010
0000
0100
1000
0001
1000
0010
0100
0010
2000
,
0000
3001
1000
0200
0000
0300
0010
0000
0011
0000
0001
1000
0000
0000
0000
0000
,
0000
0000
0000
0000
0000
0000
0000
0000
0000
0000
0000
0000
0000
0000
0000
0000
0000
0000
0000
0000
0000
0000
0000
0000
0000
0000
0000
0000
0000
0000
0000
0000
0000
0000
0000
0000
0000
0000
0000
0000
0000
0000
0000
0000
0000
0000
0000
0000
0000
0000
0000
0000
0000
0000
0000
0000
0000
0000
0000
0000
0010
0000
0000
0000
0000
0000
0000
0000
0000
0000
0000
0000
0100
0000
0000
0000
0000
0000
0000
0000
0000
0000
0000
0000
0001
0000
0000
0000
0000
0000
0000
0000
0000
0000
0000
0000
1000
0000
0000
0000
0000
0000
0000
0000
0000
0000
0000
0000
0000
0000
0000
0000
0000
0000
0000
0000
0000
0000
0000
0000
0100
0000
0000
0000
0000
0000
0000
0000
0000
0000
1000
0000
0000
0000
0000
0000
0000
0000
0000
0000
0000
0000
0000
0000
0001
0000
0000
0000
0000
0000
0000
0000
0000
0000
0000
0000
1000
0000
0000
0000
0000
0000
0000
0000
0000
0000
0000
0000
0002
0000
0000
0000
0000
0000
0000
0000
0000
0000
0000
0000
0000
0000
0000
0000
0000
0000
0000
0000
0000
0000
0000
0000
,
0000
0000
0000
0003
0000
0100
0010
1000
0001
0010
0100
0010
0001
1000
0100
0010
,
0000
0000
0000
0001
0000
0000
0000
0000
0000
0001
0000
0000
0000
0000
0000
0001
0000
0000
0000
0000
0000
1000
0000
0000
0001
0000
0000
0100
0010
0000
1000
0000
0000
0002
0000
0000
0000
0000
0000
0000
0000
0000
0000
0000
0000
0000
0000
0000
,
0000
0000
0000
0003
0000
0000
0000
0000
0000
0000
0000
2000
0000
3001
0000
0100
,
0000
0001
0000
0010
0000
0100
0000
0000
0000
0000
0000
4000
3040
0430
0304
4003
,
3400
0000
4300
0000
3004
0000
0403
0000
0310
0000
1000
0000
0001
1000
0001
0000
0010
0000
0100
0000
0010
0000
0001
0000
0000
0000
0000
0000
0000
0000
0001
0000
,
0000
0001
0000
0001
0100
0010
0100
0000
0001
0000
1000
0200
0000
0000
0000
0320
,
0000
0000
0000
0032
0000
0000
0000
1003
0001
0000
0100
0000
0010
0000
0100
0000
,
0001
1000
0000
0100
0000
0010
0000
0001
1000
0000
0010
0000
0002
0000
0013
0100
,
0001
1000
0000
0001
0000
0010
0000
0100
1000
0010
0100
2000
0000
0000
3100
0001
,
1000
0000
0001
0000
0000
0000
0010
0000
0000
0000
0100
0000
0000
1000
0000
0000
0001
0000
0000
0000
0100
0000
0000
0000
0020
0000
0000
0000
0000
0000
0000
0000
,
1030
0000
0002
0000
0000
1003
0100
0000
0110
0000
0010
0001
2000
0000
3001
0000
,
0100
0010
0000
1000
0000
0001
0000
0010
0100
0000
0010
2000
0000
0000
3010
0100
,
1000
0000
0001
0000
0000
0000
1000
0000
0000
0000
0010
0000
0000
0000
1000
0000
0001
0000
0100
00M0
0100
0000
0020
0000
0000
0000
0000
0000
0031
0000
0000
0000
,
1000
0000
0100
0000
0000
0000
0010
0000
0000
0000
0001
0000
0000
1000
0000
0000
0040
0000
0100
0000
0000
0000
1030
0000
0002
0000
0000
0000
0013
0000
0000
0000
,
0100
1000
0002
0000
0000
1003
0010
0100
0001
1000
0100
1000
0004
0100
0000
0013
,
0000
0100
1000
0010
0000
0000
0100
0001
1000
1000
0100
0020
0000
0130
1000
0020
,
0000
0130
0001
1000
0000
0000
0001
0010
0100
0100
1000
0020
0000
0130
0010
2000
,
0000
3001
1000
0200
0000
0320
0000
0032
0000
1003
0001
1000
0010
0100
0010
2000
,
0000
3001
1000
0100
0010
0001
0010
0100
1000
0010
0100
0001
4000
0010
0000
3100
,
0000
0010
0001
0100
0000
0000
0010
1000
0001
0001
0010
0200
0000
0310
0001
0200
,
0000
0310
1000
0001
0000
0000
1000
0100
0010
0010
0001
0200
0000
0310
0100
0002
,
0000
1003
0001
0010
0000
0000
0100
0000
0010
0001
1000
0001
0100
0010
0100
0002
,
0000
1003
0001
0020
0000
0130
1000
0002
0000
0103
0010
1000
0001
0000
0000
0000
,
0000
0000
0000
0000
0000
0000
0000
0000
0000
0000
0000
00M0
0000
0000
0000
0000
;

//---------------dance-single - ----------------
#NOTES:
     dance-single:
     Crappy piano solo:
     Medium:
     7:
     0.385103,0.368745,0.056497,0.532688,0.609362,334.000000,327.000000,7.000000,66.000000,5.000000,0.000000,0.385103,0.368745,0.056497,0.532688,0.609362,334.000000,327.000000,7.000000,66.000000,5.000000,0.000000:
0000
0000
0000
0000
,
0000
0000
0000
0000
,
0000
1000
1000
0010
0010
0100
0100
0100
,
0001
0000
0000
0000
1000
0000
0000
0000
0001
0000
0000
0000
0010
0000
0000
0000
0020
0000
0000
0000
0000
0030
0000
0000
0000
0000
0000
0000
0100
0000
0000
0000
,
1000
0000
0000
0001
0000
0000
0200
0000
0000
0300
0000
0000
0000
0000
0010
0000
,
0010
0000
0000
1000
0000
0000
0002
0000
0000
0003
0000
0000
0000
0000
0000
0020
,
0000
0031
0000
2000
0000
3010
0100
00M2
2003
0000
3100
0000
0020
0000
0031
1000
,
002M
0130
0000
0001
0000
1000
0000
0100
0000
1000
0000
0000
0001
0000
0001
0000
,
1000
0M10
0000
0100
0000
0001
0000
10M0
0001
0000
0010
0000
0100
0000
0100
0000
,
1000
0010
0000
0010
0000
0100
0000
0001
1000
0000
0100
0000
1000
0000
1000
0000
,
0001
0100
0000
0100
0000
0010
0000
1000
0100
0000
1000
0000
0001
0000
0001
0000
,
0100
0010
0000
0010
0000
1000
0000
0001
0010
0000
0100
0000
2000
0000
0000
0000
,
3001
0000
0200
0000
0000
0000
0310
0000
0110
0000
0010
1000
0002
0000
0000
0000
,
0013
0100
0000
0100
0000
1000
0000
0001
0100
0000
0010
0000
1000
0000
1000
0000
,
0001
0010
0000
0010
0000
0100
0000
1000
0001
0000
0100
0000
0010
0000
0010
0000
,
1000
0001
0000
0001
0000
0010
0000
0100
1000
0000
0001
0000
0200
0000
0000
0000
,
0310
0000
2000
0000
0000
0000
3001
0000
1001
0000
0001
0000
0020
0000
0000
0230
,
0000
1300
0001
0100
0000
0000
0010
0000
0100
0001
0100
0020
0000
0000
0000
2030
,
0000
3001
0010
0100
0000
0000
1000
0000
0100
0010
0100
0002
0000
0000
0000
0203
,
0000
0310
0001
1000
0000
0000
0001
0000
0100
0000
0010
0000
2000
0000
0000
3002
,
0000
0013
0100
2000
0000
0000
3001
0000
1001
0000
1000
0100
0000
0000
0000
0000
,
0000
0000
0000
0000
0000
1000
0000
0001
1000
0000
0010
0000
0100
0000
0200
0000
,
0000
0000
0000
0300
0000
0001
0000
1000
0100
0000
0010
0000
0100
0000
1000
0001
,
0000
0100
0000
0100
0000
0100
0000
0100
0020
0000
1030
0002
0000
0000
0000
0000
,
0000
0000
0000
0003
0000
0000
0000
0000
0000
0000
0000
2000
0000
3001
0000
0100
,
0000
0001
0000
0010
0000
0100
0000
0000
0000
0000
0000
4000
0000
3001
0100
0040
,
0000
0130
0001
2000
0000
0000
0000
0000
0000
0000
0000
3200
0000
0000
0000
1300
,
0000
1000
0000
1000
0010
0000
0100
0000
0001
0000
0000
2000
0000
0000
0000
3020
,
0000
0000
0000
0230
0000
0000
0000
0310
1000
0000
0001
0000
2000
0000
0000
0000
,
3001
0010
0000
0010
0000
0100
0000
1000
0100
0000
1000
0000
0020
0000
0230
0000
,
0301
1000
0000
1000
0000
0100
0000
1000
0001
0000
0100
0020
0000
0000
0130
0000
,
0001
1000
0000
1000
0000
0100
0000
0010
0001
0000
1000
0000
0020
0000
0000
0000
,
0130
0002
0000
1003
1001
1000
0200
0000
,
0310
0001
0000
0001
0000
1000
0000
0001
0100
0000
0001
0020
0000
0000
0130
0000
,
1000
0001
0000
0001
0000
0100
0000
0010
1000
0000
0100
0020
0000
0000
0130
0000
,
1000
0001
0000
0001
0000
0100
0000
0010
2000
0000
3002
0000
0023
0000
0000
0000
,
0130
1000
0002
0000
0000
1003
0010
0000
0110
0000
0100
0000
0002
0000
0000
0023
,
0000
0130
1000
0001
0000
0000
0100
0000
0010
1000
0010
0200
0000
0000
0000
0302
,
0000
1003
0100
0010
0000
0000
0100
0000
1000
0001
1000
0020
0000
0000
0000
0230
,
0000
0301
1000
0200
0000
0320
0000
0032
0000
0000
0000
0000
2003
0000
0000
3001
,
0000
1000
0010
0200
0000
0000
0301
0000
1001
0000
1000
0000
0020
0000
0000
0230
,
0000
0301
1000
0100
0000
0000
0010
0000
0001
1000
0001
0200
0000
0000
0000
0320
,
0000
1030
0001
0010
0000
0000
0200
0000
2300
0000
3001
0200
0000
0000
0000
0320
,
0000
1030
0001
1000
0000
0000
0100
0000
1000
0000
0001
0000
0100
0000
0010
2000
,
0000
3001
0010
0200
0000
0000
1300
0000
1001
0000
0001
0000
0100
0000
0000
0000
,
0000
0000
0000
0000
0000
0000
0000
0000
0000
0000
0000
00M0
0000
0000
0000
0000
;

//---------------dance-single - ----------------
#NOTES:
     dance-single:
     Borning in the 90s:
     Beginner:
     2:
     0.123371,0.162530,0.032284,0.145278,0.117030,107.000000,103.000000,4.000000,18.000000,0.000000,0.000000,0.123371,0.162530,0.032284,0.145278,0.117030,107.000000,103.000000,4.000000,18.000000,0.000000,0.000000:
0000
0000
0000
0000
,
0000
0000
0000
0000
,
0000
0001
0000
0001
,
0000
0001
0000
0001
,
0000
1000
0000
1000
,
0000
0000
0000
0000
1000
0000
0000
0000
0000
0000
0000
0000
1000
0000
0000
0001
,
0000
0000
0000
0000
0000
0000
0000
1000
0100
0000
0000
0000
0000
0000
0000
0000
,
0010
0001
0000
0000
0000
0000
0000
0000
0000
1000
0000
0000
0000
0000
0000
0000
,
0000
0010
0000
0000
0000
0100
0000
0000
0000
0000
0000
0000
0001
0000
0000
0000
,
1000
0000
0100
1000
,
0001
0000
0100
0010
,
1000
0000
0001
0020
,
0031
0000
1000
0100
,
1000
0000
0001
0100
,
0001
0000
0010
0100
,
0010
0000
0001
2000
,
3100
0000
0110
0002
,
0000
0000
0000
0103
0000
0000
0000
0000
0000
0000
0000
0020
0000
0000
0000
0000
,
0000
0000
0000
1030
0000
0000
0000
0000
0000
0000
0000
0200
0000
0000
0000
0000
,
0000
0000
0000
1300
0000
0000
0000
0000
0000
0000
0000
0000
0002
0000
0000
0000
,
0000
0000
0000
0103
0000
0000
0000
0000
0000
0000
0000
0000
0001
0000
0000
0000
,
0000
0000
0000
0000
0000
0000
0000
0000
0000
0000
0000
1000
0000
0000
0000
0000
,
0000
0000
0000
0000
0000
0000
0000
0000
0000
0000
0000
0100
0000
0000
0000
0000
,
0000
0000
0000
0000
0000
0000
0000
0000
0000
0000
0000
1000
0000
0000
0000
0000
,
0000
0000
0000
0000
0000
0000
0000
0000
0000
0000
0000
0001
0000
0000
0000
0000
,
0000
0000
0000
0000
0000
0000
0000
0000
0000
0000
0000
0200
0000
0000
0000
0000
,
0000
0000
0000
0000
0000
0000
0000
0000
0000
0000
0000
0310
0000
0000
0000
0000
,
0000
0000
0000
0000
0000
0000
0000
0000
0000
0000
0000
1000
0000
0000
0000
0000
,
0000
0000
0000
0001
,
1000
0000
0100
0010
,
0100
0000
1000
0010
,
0100
0000
0001
0020
,
0130
2000
0000
3000
1001
0000
0001
0000
,
0100
0000
0001
0010
,
0100
0000
1000
0010
,
0100
0000
0002
2003
,
3100
0000
0110
0002
,
0000
0000
0000
0103
0000
0000
0000
0000
0010
0000
0000
2000
0000
0000
0000
0000
,
0000
0000
0000
3001
0000
0000
0000
0000
0000
0000
0000
0020
0000
0000
0000
0000
,
0000
0000
0000
0130
0000
0000
0000
0000
0000
0000
0000
0000
2000
0000
0000
0000
,
0000
3001
1001
2000
,
0000
0000
0000
3010
0000
0000
0000
0000
0100
0000
0000
0002
0000
0000
0000
0000
,
0000
0000
0000
1003
0000
0000
0000
0000
0000
0000
0000
0200
0000
0000
0000
0000
,
0000
0000
0000
0310
0000
0000
0000
0000
0001
0000
0000
0000
1000
0000
0000
0000
,
0010
0000
0100
0001
;

//---------------dance-single - ----------------
#NOTES:
     dance-single:
     Easy there, boy:
     Easy:
     4:
     0.187940,0.198648,0.072639,0.347054,0.270379,163.000000,154.000000,9.000000,43.000000,4.000000,0.000000,0.187940,0.198648,0.072639,0.347054,0.270379,163.000000,154.000000,9.000000,43.000000,4.000000,0.000000:
// measure 0
0000
0000
0000
0000
,  // measure 1
0000
0000
0000
0000
,  // measure 2
0000
0000
1000
0000
0010
0100
0100
0000
,  // measure 3
0001
0000
0010
0100
0200
0300
0000
0000
,  // measure 4
1000
0000
0001
0100
0000
0000
0000
0010
,  // measure 5
1000
0000
0000
0000
0100
0000
0010
0000
0000
0000
0000
0000
0000
0000
0000
0001
,  // measure 6
0000
0000
0000
1000
0000
0000
0000
0M20
0130
0000
0000
0000
0001
0000
0000
0000
,  // measure 7
0M20
0130
0000
0000
0000
1000
0000
0000
0000
0001
0000
0000
0200
0000
0000
0000
,  // measure 8
0000
031M
0000
1000
0000
0001
0000
00M0
0000
0000
0100
0000
0001
0000
0000
0000
,  // measure 9
1000
0000
0000
1000
0000
0000
0000
0000
0100
0000
0000
0000
0010
0000
0000
0000
,  // measure 10
0001
0000
0000
0001
0000
0000
0000
0000
1000
0000
0000
0000
0010
0000
0000
0000
,  // measure 11
0100
0000
0000
0100
0000
0000
0000
0000
0001
0000
0000
0000
0020
0000
0000
0000
,  // measure 12
0030
0200
0000
0300
1000
0000
2001
0000
,  // measure 13
3010
0000
0000
0010
0000
0000
0000
0000
0100
0000
0000
0000
0001
0000
0000
0000
,  // measure 14
0010
0000
0000
0010
0000
0000
0000
0000
0100
0000
0000
0000
1000
0000
0000
0000
,  // measure 15
0001
0000
0000
0001
0000
0000
0000
0000
0100
0000
0000
0000
0020
0000
0000
0000
,  // measure 16
0030
2000
0000
3000
0001
0000
0012
0000
,  // measure 17
0000
1003
0000
0010
0000
0000
0000
0000
0100
0000
0000
0020
0000
0000
0000
0000
,  // measure 18
0000
1030
0000
0001
0000
0000
0000
0000
0010
0000
0000
2000
0000
0000
0000
0000
,  // measure 19
0000
3010
0000
0100
0000
0000
0000
0000
1000
0000
0000
0000
0002
0000
0000
0000
,  // measure 20
0000
1003
0000
0100
0000
0000
0000
0000
1100
0000
0000
0000
0000
0000
0000
0000
,  // measure 21
0000
0000
0000
0000
0000
0000
0000
0000
0000
0000
0000
2000
0000
0000
0000
0000
,  // measure 22
0000
0000
0000
3000
0000
0000
0000
0000
0000
0000
0000
0002
0000
0000
0000
0000
,  // measure 23
0000
0000
0000
0003
0000
0000
0000
0000
0000
0000
0000
0200
0000
0000
0000
0000
,  // measure 24
0000
0000
0000
0300
0000
0000
0000
0000
0000
0000
0000
0002
0000
0000
0000
2003
,  // measure 25
0000
0000
0000
3100
0000
0000
0000
0000
0000
0000
0000
0020
0000
0000
0000
0032
,  // measure 26
0000
0000
0000
2003
0000
0000
0000
0000
0000
0000
0000
3020
0000
0000
0000
0230
,  // measure 27
0000
0000
0000
0301
0000
0000
0000
0000
0000
0000
0000
2000
0000
0000
0000
3020
,  // measure 28
0000
0000
0000
0130
0000
0000
0000
0000
0000
0000
0010
0000
1000
0000
0000
0000
,  // measure 29
0001
0000
0000
0001
0000
0000
0000
0000
0010
0000
0000
0000
0200
0000
0000
0000
,  // measure 30
1300
0000
0000
1000
0000
0000
0000
0000
0001
0000
0000
0000
0200
0000
0000
0000
,  // measure 31
0310
0000
0000
0010
0000
0000
0000
0000
1000
0000
0000
0000
0200
0000
0000
0000
,  // measure 32
0300
0020
0000
0030
0001
0000
1002
0000
,  // measure 33
0103
0000
0000
0100
0000
0000
0000
0000
0010
0000
0000
0000
2000
0000
0000
0000
,  // measure 34
3100
0000
0000
0100
0000
0000
0000
0000
0010
0000
0000
0000
0002
0000
0000
0000
,  // measure 35
1003
0000
0000
1000
0000
0000
0000
0000
0020
0000
0000
0000
0230
0000
0000
0000
,  // measure 36
0300
0002
0000
0003
1001
0000
2100
0000
,  // measure 37
0000
3001
0000
0100
0000
0000
0000
0000
0010
0000
0000
0200
0000
0000
0000
0000
,  // measure 38
0000
0301
0000
1000
0000
0000
0000
0000
0100
0000
0000
0002
0000
0000
0000
0000
,  // measure 39
0000
0103
0000
0010
0000
0000
0000
0000
0001
0000
0000
0000
2000
0000
0000
0000
,  // measure 40
0000
3001
0000
0100
0000
0000
0000
0000
0110
0000
0000
0000
2010
0000
0000
0000
,  // measure 41
0000
3001
0000
0010
0000
0000
0000
0000
0100
0000
0000
0020
0000
0000
0000
0000
,  // measure 42
0000
0031
0000
1000
0000
0000
0000
0000
0010
0000
0000
0002
0000
0000
0000
0000
,  // measure 43
0000
0013
0000
0100
0000
0000
0000
0000
0001
0000
0000
0000
2000
0000
0000
0000
,  // measure 44
0000
3001
0000
0010
0000
0000
0000
0000
0110
0000
0000
0000
1000
0000
0000
0000
;
