#TITLE:Asymmetric Snowflakes;
#SUBTITLE:;
#ARTIST:Camellia;
#TITLETRANSLIT:;
#SUBTITLETRANSLIT:;
#ARTISTTRANSLIT:;
#GENRE:;
#CREDIT:;
#BANNER:Asymmetric_Snowflakes-bn.png;
#BACKGROUND:Asymmetric_Snowflakes-bg.png;
#LYRICSPATH:;
#CDTITLE:;
#MUSIC:Asymmetric Snowflakes.ogg;
#OFFSET:0.998000;
#SAMPLESTART:99.949997;
#SAMPLELENGTH:16.000000;
#SELECTABLE:YES;
#DISPLAYBPM:120.000000;
#BPMS:0.000000=120.000000
;
#STOPS:
;
#BGCHANGES:;
#KEYSOUNDS:;
#ATTACKS:;

//---------------dance-single - Maxx----------------
#NOTES:
     dance-single:
     Maxx:
     Challenge:
     12:
     0.834214,1.094190,0.028625,0.665531,1.574375,816.000000,812.000000,4.000000,93.000000,4.000000,0.000000,0.834214,1.094190,0.028625,0.665531,1.574375,816.000000,812.000000,4.000000,93.000000,4.000000,0.000000:
// measure 0
0000
0000
0000
0000
,  // measure 1
0000
0000
0000
0000
,  // measure 2
0000
0000
0000
0000
,  // measure 3
0000
0000
0000
0000
,  // measure 4
0000
0000
0000
0000
0000
0000
0000
0000
0002
0000
0000
0000
1003
0000
0000
1000
,  // measure 5
0010
0100
0000
0001
2000
0000
3200
0000
,  // measure 6
0310
0000
0000
0000
0000
0000
0001
0000
1000
0000
0100
0000
0010
0000
0000
0001
0000
0000
0000
0000
0000
0000
0000
0000
0022
0000
0000
0000
0033
0000
0010
0000
0000
0000
0000
0000
0001
0000
0000
0000
0000
0000
1000
0000
0000
0000
0000
0000
,  // measure 7
0001
0010
0001
0200
0310
1000
0001
0010
,  // measure 8
0100
0000
0000
1000
0001
0100
0010
0000
0000
1000
0000
0000
0002
0000
0000
0103
0000
0000
0001
0000
0000
1000
0000
0000
,  // measure 9
0001
0000
0100
0000
0001
0000
2000
0000
3100
0000
0020
0000
0031
1000
0010
0000
,  // measure 10
0100
0000
0000
0001
0000
0000
2000
0000
0000
3200
0000
0000
0310
0000
0001
1000
0000
0001
0100
0000
0010
1000
0001
1000
,  // measure 11
0100
0000
1000
0001
0000
0100
0010
1000
0001
1000
0100
0010
0001
0000
1000
0010
0000
1000
0001
0000
0010
0100
1000
0001
,  // measure 12
0100
0000
0010
1000
0000
0001
0010
0001
1000
0010
0100
0001
1000
0100
0010
0001
1000
0001
0100
0010
1000
0001
1000
0100
,  // measure 13
0010
0001
1000
0010
0100
0010
1000
0100
0010
0001
1000
0010
0400
0000
0000
0000
0000
0000
0301
0000
0000
1000
0000
0000
,  // measure 14
0200
0000
0000
0310
0000
0001
1000
0000
0020
0000
0000
0000
1030
0000
0100
0000
0000
0020
0000
0000
0000
0000
0000
0000
,  // measure 15
0031
0000
0000
0000
0000
0000
0100
0000
0000
0000
0000
0000
0010
0000
0000
0000
0000
0000
2020
0000
0000
3030
0000
0000
1000
0000
0000
0000
0000
0000
0000
0000
0000
0000
1000
0000
0001
0000
0000
0000
0000
0000
0000
0000
0000
0000
0001
0000
,  // measure 16
0020
0000
0000
0000
0000
0000
0000
0000
0000
0030
0001
0000
0010
0000
0000
0000
0200
0000
0000
0000
0000
0000
0000
0000
1300
0000
0000
0000
0000
0000
1000
0000
0000
0000
0000
0000
0010
0000
0000
0000
1000
0000
0001
0000
0000
0000
0200
0000
,  // measure 17
0000
0000
0000
0000
0000
0000
0301
0000
0000
0000
0000
0000
0010
0000
0000
0000
0000
0000
0022
0000
0000
0033
0000
0000
0001
0000
0000
0000
0000
0000
0000
0000
0000
0000
0000
0000
0001
0000
0000
0000
1000
0000
0001
0000
0000
0000
1000
0000
,  // measure 18
0020
0000
0000
0000
0000
0000
0000
0000
0000
0030
1000
0000
0010
0000
0000
0000
0200
0000
0000
0000
0000
0000
0000
0000
0301
0000
0000
0000
1000
0000
0000
0000
0000
0000
0200
0000
0000
0000
0000
0000
1300
0000
0001
0000
0000
0000
1000
0000
,  // measure 19
0010
0000
0000
0000
0000
0000
0100
0000
0000
0000
0000
0000
0001
0000
0000
0000
0000
0000
2002
0000
0000
3003
0000
0000
1000
0000
0000
0000
0000
0000
0000
0000
0000
0000
1000
0000
0001
0000
0000
0000
0000
0000
0000
0000
0000
0000
0001
0000
,  // measure 20
0200
0000
0000
0000
0000
0000
0000
0000
0000
0300
0001
0000
0100
0000
0000
0000
0020
0000
0000
0000
0000
0000
0000
0000
2030
0000
0000
0000
0000
0000
0000
0000
0000
0000
3001
0000
0010
0000
0000
0000
0100
0000
0000
0000
0000
0000
2000
0000
,  // measure 21
0000
0000
0000
0000
0000
3001
0010
0000
0100
0000
0000
1000
0002
0000
0000
0000
0000
0000
0203
0000
0000
0000
0000
0000
,  // measure 22
0320
0000
0000
0000
0000
1030
0001
1000
0100
0010
0001
1000
0010
0000
0100
0000
0000
0002
0000
0000
1003
0100
0000
0100
,  // measure 23
0020
0000
0031
0100
0000
0001
1000
0000
1000
0020
0000
1030
0001
0000
0001
0010
0000
0001
1000
0001
0100
0010
1000
0001
,  // measure 24
0020
0000
0000
0000
0000
0000
0000
0000
0000
0030
0001
0000
0010
0000
0000
0000
0200
0000
0000
0000
0000
0000
0000
0000
1300
0000
0000
0000
0000
0000
1000
0000
0000
0000
0000
0000
0001
0000
0000
0000
0010
0000
0100
0000
0000
0000
2000
0000
,  // measure 25
0000
0000
3001
0100
0000
0010
1000
0000
1000
0002
0000
0013
0100
0000
1000
0001
0000
0100
0010
0000
0010
1000
0000
0001
,  // measure 26
0200
0000
0000
0000
0000
0000
0000
0000
0000
0300
0001
0000
0100
0000
0000
0000
0020
0000
0000
0000
0000
0000
0000
0000
1030
0000
0000
0000
0001
0000
1000
0000
0000
0000
0001
0000
0010
0000
0000
0000
0100
0000
1000
0000
0001
0000
1000
0000
,  // measure 27
0010
0000
1000
0001
0000
0010
0100
1000
0001
1000
0010
0100
0001
0000
1000
0100
0000
1000
0001
0000
0100
0010
1000
0001
,  // measure 28
0010
0000
0100
1000
0000
0001
0100
0001
1000
0100
0010
0001
1000
0010
0100
0001
1000
0001
0010
0100
1000
0001
1000
0010
,  // measure 29
0100
0001
1000
0100
0010
0100
1000
0010
0100
0001
1000
0100
0040
0000
0000
0000
0000
0000
0000
0000
0000
0000
0000
0000
,  // measure 30
0030
0000
0000
0001
0000
1000
0002
0003
1000
0001
1000
0010
0100
0000
0010
1000
0000
1000
0004
0000
0000
0000
0000
0000
,  // measure 31
1003
0000
0100
0000
0000
0100
0010
0100
1000
0002
0000
0000
0103
0000
0010
0000
0000
0010
2000
0000
0000
3001
0000
1000
,  // measure 32
0010
0000
M010
0001
0000
1000
0020
0000
0000
0130
0000
0001
1000
0100
0010
0001
1000
0010
0200
0000
0000
0301
0000
0000
,  // measure 33
1000
0000
0010
0000
0000
0010
0100
0010
1000
0001
0000
0001
1000
0000
0100
0000
0000
0010
0002
0000
0000
1003
0000
0001
,  // measure 34
0100
0000
0000
0000
010M
0000
1000
0000
0000
0000
0001
0000
0200
0000
0000
0000
0000
0000
0000
0000
0000
0300
0000
0000
0001
0000
0000
0000
1000
0000
0001
0000
0000
0000
0001
0000
0040
0000
0000
0000
0000
0000
0000
0000
0000
0000
0000
0000
,  // measure 35
0031
0000
0010
0000
0000
0010
0100
0010
0001
2000
0000
0000
3010
0000
0100
0000
0000
0100
0002
0000
0000
1003
0000
0001
,  // measure 36
0010
0000
001M
1000
0000
0001
0020
0000
0000
0130
0000
1000
0010
0100
0010
1000
0001
0010
0200
0000
0000
1300
0000
0000
,  // measure 37
0001
0000
0100
0000
0000
0100
0010
0100
0001
2000
0000
0000
3100
0000
0010
0001
0000
1000
0020
0000
0000
0130
0000
0000
,  // measure 38
0001
1000
0100
0010
0001
1000
0010
0100
0010
1000
0001
0010
0100
0000
1000
0001
0000
1000
0010
0000
0100
0001
1000
0001
,  // measure 39
0010
0000
0001
1000
0000
0010
0100
0001
1000
0001
0010
0100
1000
0000
0001
0100
0000
0001
1000
0000
0100
0010
0001
1000
,  // measure 40
0010
0000
0100
0001
0000
1000
0100
1000
0001
0100
0010
1000
0001
0010
0100
1000
0001
1000
0010
0100
0001
1000
0001
0010
,  // measure 41
0100
1000
0001
0100
0010
1000
0001
0010
0001
1000
0010
0100
0004
0000
0000
0000
0000
0000
0000
0000
0000
0000
0000
0000
,  // measure 42
1003
0000
0000
0010
0000
1000
0001
0100
0010
1000
0001
0010
0200
0000
1300
0001
0000
0100
0000
0000
0010
1000
0001
0010
,  // measure 43
0001
0000
1000
0010
0000
1000
0100
0010
0100
1000
0010
0100
0001
0000
1000
0100
0000
1000
0000
0000
0001
0100
0001
1000
,  // measure 44
0100
0000
0010
0001
0000
1000
0010
0100
0010
1000
0001
0010
0200
0000
0310
0001
0000
1000
0000
0000
0001
1000
0010
1000
,  // measure 45
0001
0000
0100
0010
0000
1000
0100
0010
0100
1000
0010
0100
0001
0000
1000
0100
0000
0010
0000
0000
0001
1000
0001
0100
,  // measure 46
0010
0000
1000
0001
0000
0010
0100
0010
0001
1000
0010
0100
0002
0000
1003
0100
0000
1000
0001
0000
0001
0100
0000
0010
,  // measure 47
1000
0000
0001
1000
0000
0100
0010
0000
0010
0001
0000
1000
0010
0000
1000
0001
0000
0100
0010
0000
0010
1000
0000
0001
,  // measure 48
0010
0000
0001
1000
0000
0010
0100
0000
0100
0001
0000
1000
0001
1000
0100
0010
0001
1000
0001
0100
0010
1000
0001
1000
,  // measure 49
0100
0010
0001
1000
0010
0100
0001
1000
0001
0010
0100
1000
0001
1000
0010
0100
0010
1000
0001
0000
1000
0000
0100
0000
,  // measure 50
0020
0000
0000
0031
0000
1000
0002
0000
0000
0103
0000
0000
0020
0000
0000
1030
0000
0100
0000
0000
0010
0000
0000
2000
,  // measure 51
0000
0000
3010
0000
0000
0001
0000
0000
0010
0000
0000
0200
0000
0000
0000
0301
0000
0000
0100
0010
0001
1000
0000
0001
,  // measure 52
0000
0000
0100
0000
0000
0020
0000
0000
1030
0001
0000
0000
0020
0000
0000
0031
0000
0100
0000
0000
0010
0000
0000
0002
,  // measure 53
0000
0000
0013
0000
0000
1000
0000
0000
0010
0000
0000
0200
0000
0000
0300
0001
0000
0000
1000
0000
0100
0020
0000
0000
,  // measure 54
1030
0000
0100
0020
0000
0000
1030
0001
1000
0010
0100
0001
0020
0000
0000
0031
0000
0010
0000
0000
0100
0000
0000
0002
,  // measure 55
0000
0000
0103
0000
0000
1000
0000
0000
0100
0000
0000
0020
0000
0000
0000
1030
0000
0000
0010
0100
1000
0001
0000
1000
,  // measure 56
0000
0000
0010
0000
0000
0200
0000
0000
0301
0010
0000
0000
2000
0000
0000
3010
0000
0100
0000
0000
0010
0000
0000
0002
,  // measure 57
0000
0000
0013
0000
0000
0100
0000
0000
1000
0000
0000
0020
0000
0000
0030
0100
0000
0000
0001
0000
0100
0020
0000
0000
,  // measure 58
0031
0100
0010
1000
0100
0010
0002
0000
0000
1003
0000
0000
0020
0000
0000
1030
0000
0001
0000
0000
0100
0000
0000
2000
,  // measure 59
0000
0000
3100
0000
0000
0001
0000
0000
0100
0000
0000
0020
0000
0000
0000
0031
0000
0000
0010
0100
0001
1000
0000
0001
,  // measure 60
0000
0000
0010
0000
0000
0200
0000
0000
1300
0001
0000
0000
0020
0000
0000
0031
0000
1000
0001
0000
0010
0000
0000
0002
,  // measure 61
0000
0000
0013
0000
0000
1000
0000
0000
0010
0000
0000
0200
0000
0000
0000
1300
0000
0000
0001
0000
1000
0020
0000
0000
,  // measure 62
0031
0000
1000
0020
0000
0000
1030
0001
0010
0100
1000
0001
0200
0000
0000
0301
0000
1000
0000
0000
0010
0100
0010
1000
,  // measure 63
0001
0000
1000
0100
0000
0010
0100
0010
0001
1000
0010
0100
0001
0000
1000
0100
0000
0010
0001
1000
0010
0100
0000
0001
,  // measure 64
0000
0000
0010
0000
0000
0200
0000
0000
1300
0001
0000
0000
0020
0000
0000
0031
0000
1000
0000
0000
0010
0000
0000
0200
,  // measure 65
0000
0000
0301
0000
0000
1000
0000
0000
0100
0000
0000
0020
0000
0000
0031
1000
0000
0010
1000
0000
1000
0001
0000
0100
,  // measure 66
0010
1000
0001
0010
0100
1000
0002
0000
0000
0000
0000
0000
,  // measure 67
0000
0000
0000
0000
,  // measure 68
0000
0000
0003
0000
,  // measure 69
0000
0000
00M0
0000
;

//---------------dance-single - sangyule----------------
#NOTES:
     dance-single:
     :
     Beginner:
     1:
     0.092009,0.118973,0.021469,0.000000,0.000000,90.000000,87.000000,3.000000,0.000000,0.000000,0.000000,0.092009,0.118973,0.021469,0.000000,0.000000,90.000000,87.000000,3.000000,0.000000,0.000000,0.000000:
0000
0000
0000
0000
,
0000
0000
0000
0000
,
0000
0000
0000
0000
,
0000
0000
0000
0000
,
0000
0000
0000
0000
,
0000
0000
0000
0000
,
0000
0000
1000
0000
,
0000
0000
0001
0000
,
0000
0000
0010
0000
,
0000
0000
0100
0000
,
0100
0000
1000
0000
,
0000
0000
0001
0000
,
0000
0000
1000
0000
,
1000
0000
1000
0000
,
0000
0000
0001
0000
,
0010
0000
0100
0000
,
0000
0000
1000
0000
,
0010
0000
0100
0000
,
0000
0000
0001
0000
,
1000
0000
0001
0000
,
0000
0000
0010
0000
,
0100
0000
0010
0000
,
0000
0000
1001
0000
,
1000
0000
0010
0000
,
0000
0000
0100
0000
,
0001
0000
0100
0000
,
0000
0000
0001
0000
,
1000
0000
0100
0000
,
0000
0000
0010
0000
,
0000
0000
0001
0000
,
0000
0000
1000
0000
,
0001
0000
0000
0000
,
0100
0000
0100
0000
,
0000
0000
0010
0000
,
0000
0000
1000
0000
,
0001
0000
0000
0000
,
0010
0000
0010
0000
,
0000
0000
0100
0000
,
0000
0000
1000
0000
,
1000
0000
0010
0000
,
0010
0000
0100
0000
,
0100
0000
0100
0000
,
0000
0000
1001
0000
,
0000
0000
0001
0000
,
0001
0000
0100
0000
,
0000
0000
0010
0000
,
0010
0000
1000
0000
,
1000
0000
1000
0000
,
1000
0000
0001
0000
,
0000
0000
0000
0000
,
0000
0000
1001
0000
,
1000
0000
0010
0000
,
0000
0000
0100
0000
,
0001
0000
0100
0000
,
0000
0000
0001
0000
,
1000
0000
0100
0000
,
0000
0000
0010
0000
,
0001
0000
1000
0000
,
0000
0000
0001
0000
,
0010
0000
0001
0000
,
0000
0000
1000
0000
,
0100
0000
1000
0000
,
0000
0000
0010
0000
,
0100
0000
0010
0000
,
0000
0000
1000
0000
,
0001
0000
1000
0000
,
0001
0000
1000
0000
;

//---------------dance-single - sangyule----------------
#NOTES:
     dance-single:
     :
     Easy:
     5:
     0.289317,0.434742,0.193219,0.107344,0.000000,283.000000,256.000000,27.000000,15.000000,0.000000,0.000000,0.289317,0.434742,0.193219,0.107344,0.000000,283.000000,256.000000,27.000000,15.000000,0.000000,0.000000:
0000
0000
0000
0000
,
0000
0000
0000
0000
,
0000
0000
0000
0000
,
0000
0000
0000
0000
,
0000
0000
0000
0000
,
0000
0000
0000
0000
,
0000
0000
1000
0000
,
0000
0000
0000
0001
0000
0000
0000
0000
,
0010
0100
1000
0000
,
0000
0000
0000
0010
0000
0000
0000
0100
,
0000
0001
1000
0000
,
1000
0000
0001
0000
,
0001
0000
0100
0100
,
0010
0010
2000
0000
,
3000
0000
1001
0001
,
0010
0000
0010
0100
0000
0000
1000
0000
,
0001
0100
0010
0010
,
1000
0000
1000
0001
0000
0000
0010
0100
,
0000
0100
1000
0000
0001
0000
1001
0000
,
1000
0000
1010
0001
0000
0000
1001
0000
,
1000
0100
0010
0011
,
1000
0000
1100
0002
0000
0000
0103
0000
,
0010
1000
1001
0001
,
0010
0000
0001
1000
0010
0000
0100
0000
,
0001
0001
0010
0100
,
1000
0000
0001
0100
0001
0000
1000
0100
,
0010
0010
0110
0100
,
1000
0000
0001
0100
0010
0000
1000
0001
,
1000
0100
0020
0000
,
0000
0000
0030
0002
0000
0000
0000
0000
,
0003
0100
0010
0000
1001
0000
1000
0001
,
1000
0000
0100
0010
0100
0000
2000
0000
,
3020
0000
0032
0000
0023
0000
1030
0001
,
1000
0000
0001
0010
0001
0000
0100
0010
,
0000
1000
0002
0000
0013
0000
0100
1000
,
0100
0000
1000
0001
1000
0000
0002
0000
,
0203
0000
2300
0000
3100
0000
0001
1000
,
0001
0000
1000
0010
1000
0000
0001
0000
,
0100
0000
1001
0001
,
0010
0000
0010
0100
1000
0000
1000
0000
,
0001
0000
0001
0100
0010
0000
0010
0000
,
1000
1000
0002
0000
,
1000
0103
0110
0110
,
1001
1001
0011
0011
,
0011
0011
1001
1001
,
0110
0110
0101
0101
,
0101
0101
0001
1000
,
0100
0010
0001
1000
,
0010
0100
0001
0001
,
0001
0001
0002
0000
,
0003
0100
0001
0000
1001
0000
1000
0010
,
1000
0000
0001
0010
0100
0000
0010
0000
,
0001
0000
1000
0000
0010
0000
0100
0010
,
0100
0000
0001
1000
0100
0000
0010
0100
,
0010
0100
0010
0000
0001
0000
1000
0001
,
1000
0000
0010
0100
0001
0000
1000
0000
,
0100
0000
1000
0000
0010
0000
0100
0010
,
0100
0000
0001
1000
0100
0000
0010
0001
,
0010
0000
0010
0001
1000
0000
0010
1000
,
0010
0000
1000
0001
0010
0000
0100
0000
,
1000
0000
0001
0000
0100
0010
0100
0000
,
0001
0000
1000
0100
0010
0000
0001
0001
,
0000
1000
1000
0000
0010
0000
0100
0001
,
0100
0000
0010
1000
0000
0001
1000
0000
,
0100
0010
0001
0001
,
1000
0000
1000
0010
0100
0000
0100
0000
,
0001
0001
2000
0000
,
0000
0000
3000
0000
;

//---------------dance-single - sangyule----------------
#NOTES:
     dance-single:
     :
     Medium:
     7:
     0.392571,0.458894,0.071562,0.236156,0.182484,384.000000,374.000000,10.000000,33.000000,0.000000,0.000000,0.392571,0.458894,0.071562,0.236156,0.182484,384.000000,374.000000,10.000000,33.000000,0.000000,0.000000:
0000
0000
0000
0000
,
0000
0000
0000
0000
,
0000
0000
0000
0000
,
0000
0000
0000
0000
,
0000
0000
0000
0000
,
0000
0000
0000
0000
,
0000
0000
0002
0000
,
0000
0000
0003
2000
0000
0000
3010
0100
,
0001
1000
0001
0000
0020
0000
0000
0000
,
0000
0000
0030
0100
0000
1000
0001
0100
,
0000
0000
0010
1000
0001
0000
0001
0000
,
1000
1000
0100
0100
,
0010
0010
0001
0001
,
1000
0000
1000
0010
0200
0000
0000
0000
,
0301
0000
0000
0001
1000
0000
1001
0000
0000
0001
0000
0000
,
0010
0000
0010
0100
1000
0000
0001
0100
,
0010
0000
0000
0000
0000
0000
0010
0000
1000
0000
0000
0000
0001
0000
0000
0001
0000
0000
0010
0000
0000
0100
0000
0000
,
1000
0002
0000
0103
0000
0000
0010
0100
,
0001
0000
0000
1000
0000
0000
0001
0000
1000
0000
0000
0000
0100
0000
0000
0000
0000
0000
0011
0000
0000
0000
0000
0000
,
1000
0000
0101
0100
0000
0010
1000
0001
,
0010
0000
0000
0010
0100
0000
1000
0000
0000
1010
0000
0000
,
0001
0000
0101
0200
0000
0000
0310
0000
,
1000
0000
0000
0000
0000
0000
0001
0000
1000
0000
0000
0000
1001
0000
0001
0000
0000
0000
0010
0000
0000
0100
0000
0000
,
1000
0000
0001
0100
0000
0010
1000
0001
,
0010
0000
0000
0001
0000
0000
1000
0000
0001
0000
0000
0000
0100
0000
0000
0100
0000
0000
0010
0000
0000
1000
0000
0001
,
0000
2000
0000
3100
0000
0010
0100
0010
,
0002
0000
0000
0000
0000
0000
1003
0000
0010
0000
0000
0000
1010
0000
1000
0000
0000
0001
0000
0000
0000
0010
0000
0000
,
0001
0000
0100
0010
0000
1000
0001
1000
,
0200
0000
0000
0310
0001
0000
0011
0000
0000
0010
0000
0000
,
0001
0000
0000
0000
0000
0000
1000
0000
0001
0000
0000
0100
0000
0000
0000
0020
0000
0000
0000
0000
0000
0000
0000
0000
,
0030
1000
0001
0000
1001
0000
1000
0001
,
1000
0000
0010
0000
0000
0010
0000
0000
0000
0100
0000
0000
0001
0000
0000
0000
0000
0000
0020
0000
0000
0000
0000
0000
,
2030
0000
3020
0000
0032
0000
1003
0010
,
0100
0000
0001
0000
0000
0001
0000
0000
0000
1000
0000
0000
0100
0000
0000
0000
0000
0000
0010
0000
0000
0010
0000
0000
,
0001
1000
0002
0000
0013
0000
0100
0100
,
1000
0000
0001
0000
0000
0001
0000
0000
0000
0010
0000
0000
0001
0000
0000
0000
0000
0000
0200
0000
0000
0000
0000
0000
,
2300
0000
3200
0000
0302
0000
1003
1000
,
0100
0000
0010
0000
0000
0010
0000
0000
0000
0001
0000
0000
1000
0000
0000
0000
0000
0000
0020
0000
0000
0000
0000
0000
,
0130
0001
0001
0000
1000
0100
1000
0100
,
1000
0100
1000
0100
0010
0001
0010
0001
,
0010
0002
2003
3020
0130
0001
1000
0001
,
0100
0001
1000
0001
0020
0000
0000
0000
,
0230
0000
0000
0000
0000
0000
1300
0000
0000
0001
0000
0000
0200
0000
0000
0000
0000
0310
0000
0000
0100
0000
0000
0001
,
0000
0000
1000
0000
0000
0001
0000
0000
0010
0000
0000
0200
0000
0000
0000
1300
0000
0000
0001
0000
0000
0100
0000
0010
,
0000
0000
0100
0000
0000
0001
0000
0000
0000
1000
0000
0000
2000
0000
0000
0000
0000
3100
0000
0000
0010
0000
0000
0001
,
0000
0000
1000
0000
0000
0001
0000
0000
0100
0000
0000
0020
0000
0000
0000
1030
0000
0000
1000
0000
0000
0100
0000
0010
,
0000
0000
0001
0000
0000
2000
0000
0000
0000
3001
0000
0000
0001
0000
0000
0100
0000
0000
0001
0000
0000
0100
0000
0000
,
0010
1000
0010
1000
0001
0010
0001
0010
,
0100
1000
0100
1000
0010
0100
0001
1000
,
0100
0010
0001
1000
0040
0000
0000
0000
,
0030
0100
0010
0000
1001
0000
1000
0100
,
0010
0000
0001
0010
0100
1000
0001
1000
,
0010
0100
0001
1000
1000
0000
0100
0010
,
0001
0000
0000
0000
0000
0000
0100
0000
0000
0010
0000
0000
1000
0000
0000
0001
0000
0000
1000
0000
0100
1000
0000
0000
,
1000
0000
0100
1000
0000
0000
0002
0000
0000
0000
0000
0000
0103
0000
0000
0000
0000
0000
0010
0000
0000
1000
0000
0000
,
0001
0000
0010
0100
0010
0100
1000
0001
,
0100
0001
1000
0100
0010
0000
0001
0100
,
0010
0000
0000
0000
0000
0000
1000
0000
0000
0001
0000
0000
1000
0000
0000
0100
0000
0000
0010
0000
0001
0010
0000
0000
,
0020
0000
0031
1000
0001
0000
0100
0010
,
0100
0000
0001
1000
0001
0010
0100
1000
,
0001
0100
0010
0000
1000
1000
0001
0000
,
0010
0000
0000
0100
0000
0000
1000
0000
0000
0001
0000
0000
1000
0000
0000
0010
0000
0000
0100
0000
0010
0100
0000
0000
,
0001
0000
1000
0001
0000
0000
1000
0000
0000
0100
0000
0000
0010
0000
0000
0000
0000
0000
0001
0000
0000
1000
0000
0000
,
1000
0000
0010
0100
0000
0001
1000
0001
,
0010
0000
0100
1000
0010
0100
0010
0100
,
0001
1000
0001
1000
0100
0010
0001
0010
,
0001
1000
0001
1000
0001
1000
0200
0000
0000
0000
0000
0000
,
0000
0000
0300
0000
;

//---------------dance-single - sangyule----------------
#NOTES:
     dance-single:
     :
     Hard:
     10:
     0.612370,0.808835,0.100187,0.622594,0.930312,599.000000,585.000000,14.000000,87.000000,6.000000,0.000000,0.612370,0.808835,0.100187,0.622594,0.930312,599.000000,585.000000,14.000000,87.000000,6.000000,0.000000:
0000
0000
0000
0000
,
0000
0000
0000
0000
,
0000
0000
0000
0000
,
0000
0000
0000
0000
,
0000
0000
0000
0000
0000
0000
0000
0000
0002
0000
0000
0000
1003
0000
0000
1000
,
0100
1000
0000
0020
0000
0130
0002
0000
,
1003
0000
0000
0000
0000
0000
0001
0000
1000
0000
0001
0000
1000
0000
0000
0100
0000
0000
0000
0000
0000
0000
0000
0000
1100
0000
0000
0000
0000
0000
0100
0000
0000
0000
0000
0000
1000
0000
0000
0000
0000
0000
0001
0000
0000
0000
0000
0000
,
0100
0010
1000
0020
0130
0001
1000
0100
,
0010
0000
0000
0001
1000
0010
0100
0000
0000
0001
0000
0000
2000
0000
0000
3010
0000
0000
1000
0000
0000
0001
0000
0000
,
1000
0000
0010
0000
1000
0000
0002
0000
0013
0000
0200
0000
1300
0001
0100
0000
,
0010
1000
0002
0023
0130
1000
0001
1000
,
0010
0000
0000
0100
0000
0000
0001
0000
0000
1000
0001
0010
0002
0000
0000
1003
0000
0000
0010
0000
0000
0100
0000
0000
,
0001
2000
3200
0320
0031
0100
0010
0100
,
0001
1000
0100
0010
0004
0000
1003
0010
,
0200
0000
0000
0000
0300
0001
1000
0000
0200
0000
0000
0000
1300
0000
0001
0000
0000
0020
0000
0000
0000
0000
0000
0000
,
0031
0000
0000
0100
0000
0000
0010
0000
0000
1010
0000
0000
0000
0000
0000
0000
0000
1000
0001
0000
1000
0100
0000
0010
,
0002
0000
0000
0000
0000
1003
0010
0000
0200
0000
0000
0000
0301
0000
0000
0001
0000
0000
0010
0000
0100
1000
0000
0002
,
0000
0103
0001
1001
0000
1000
0100
0110
,
0002
0000
0000
0000
0000
1003
0010
0000
0200
0000
0000
0000
0301
0000
1000
0000
0000
0200
0000
0000
1300
0001
0000
1000
,
0010
0000
0000
0100
0000
0000
0001
0000
0000
1001
0000
0000
0000
0000
0000
0000
0000
1000
0001
0000
0010
0100
0000
1000
,
0200
0000
0000
0000
0000
0000
0000
0000
0000
0300
1000
0000
0001
0000
0000
0000
2000
0000
0000
0000
0000
0000
0000
0000
3200
0000
0000
0000
0000
0000
0000
0000
0000
0000
1300
0000
0001
0000
0000
0000
0100
0000
0000
0000
0000
0000
0020
0000
,
0000
0000
0000
0000
0000
0130
0001
0000
1000
0000
0000
0002
0000
0000
0000
0000
0000
0000
0023
0000
0000
0000
0000
0000
,
0130
0000
0000
0000
0000
1000
0001
1000
0010
0100
0001
1000
0100
0000
0010
0000
0000
0002
0000
0000
0000
1003
0000
1000
,
0020
0000
0000
0130
0000
0000
0001
0000
0000
1001
0000
0000
1000
0000
0000
0100
0000
0010
0100
1000
0001
0100
0000
0020
,
0000
0000
0000
0000
0000
0000
0000
0000
0000
0030
1000
0000
0010
0000
0000
0000
2000
0000
0000
0000
0000
0000
0000
0000
3001
0000
0000
0000
0000
0000
0001
0000
0000
0000
0000
0000
0010
0000
0000
0000
0100
0000
1000
0000
0000
0000
0002
0000
,
0000
0103
0010
1010
1000
0001
0010
0110
,
2000
0000
0000
0000
0000
3001
0100
0000
0002
0000
0000
0000
1003
0000
0100
0000
0000
0010
0001
0000
0000
0100
0000
0000
,
0101
0000
0000
0001
0000
0000
1000
0000
0000
1010
0000
0000
0010
0000
0000
0100
0000
0001
1000
0001
0010
0100
0000
1000
,
0020
0000
0000
0000
0000
0130
0001
0000
1000
0000
0000
0000
1200
0000
0000
0000
0000
0020
0000
0000
0000
0000
0000
0000
,
0000
0000
0000
0330
0000
0000
0001
0000
2000
0000
0000
0000
3010
0000
0000
0400
0000
0000
0000
0000
0000
0000
0000
0000
,
0300
0000
0000
0001
0000
1000
0002
0003
0010
0100
0000
1000
0010
0000
0100
0010
0000
1000
0004
0000
0000
0000
0000
0000
,
1003
0000
0000
0000
0100
0000
0000
00M0
0000
0000
0100
0000
0001
0000
1000
0000
0001
0000
0200
0000
0000
0000
0000
0000
0310
0000
0000
0000
1000
0000
0000
0000
0000
0000
1000
0000
0002
0000
0000
0000
0000
0000
0013
0000
0000
0000
0000
0000
,
2000
0000
0000
3010
0000
0000
0002
0000
0000
1003
0000
0010
0100
0000
0000
0001
1000
0001
4000
0000
0000
0000
0000
0000
,
3001
0000
0000
0000
0010
0000
0000
0M00
0000
0000
0010
0000
1000
0000
0001
0000
1000
0000
0020
0000
0000
0000
0000
0000
0130
0000
0000
0000
0001
0000
0000
0000
0000
0000
0001
0000
0040
0000
0000
0000
0000
0000
0000
0000
0000
0000
0000
0000
,
0130
0000
0000
0000
1000
0000
0010
0000
0000
0000
1000
0000
0002
0000
0000
0000
0000
0000
0000
0000
0000
0003
0000
0000
1000
0000
0000
0000
0001
0000
0010
0000
0000
0000
0100
0000
4000
0000
0000
0000
0000
0000
0000
0000
0000
0000
0000
0000
,
3001
0000
0000
0000
0100
0000
0000
00M0
0000
0000
0100
0000
1000
0000
0001
0000
1000
0000
0200
0000
0000
0000
0000
0000
0310
0000
0000
0000
0001
0000
0000
0000
0000
0000
0001
0000
2000
0000
0000
0000
0000
0000
3010
0000
0000
0000
0000
0000
,
0002
0000
0000
0013
0000
0000
2000
0000
0000
3001
0000
0010
0100
0000
0000
1000
0001
1000
0004
0000
0000
0000
0000
0000
,
1003
0000
0000
0000
0010
0000
0000
0M00
0000
0000
0010
0000
0001
0000
0000
0000
1000
0000
0010
0000
0000
0000
0200
0000
0000
0000
0000
0000
0301
0000
1000
0000
0000
0000
0001
0000
0020
0000
0000
0000
0000
0000
0000
0000
0000
0000
0000
0000
,
0130
0000
0000
1000
0000
0001
1000
0010
0100
0002
0000
0000
1003
0000
0000
0100
0000
0000
1000
0000
0000
0001
0000
0000
,
0100
0000
0000
0010
0000
0000
1000
0000
0000
0010
1000
0001
1000
0000
0000
0100
0000
0000
0010
0000
0000
0100
0000
0000
,
1000
0010
0100
0001
1000
1000
0100
0100
,
0010
0010
0001
0001
0400
0000
0000
0000
,
0320
0000
0000
1000
0000
0000
1030
0000
0000
0001
0000
0000
1001
0000
0000
1000
0000
0100
0000
0000
0010
0000
0000
1000
,
0000
0000
0010
0000
0000
0100
0000
0000
1000
0000
0000
0002
0000
0000
0000
0103
0000
0000
0010
1000
0010
0100
0000
0001
,
0000
0000
1000
0000
0000
0100
0000
0000
0010
0001
0000
0000
1000
0000
0000
0001
0000
0100
0000
0000
0010
0000
0000
0001
,
0000
0000
0010
0000
0000
0100
0000
0000
0001
0000
0000
2000
0000
0000
0000
3100
0000
0000
0010
0001
1000
0001
0000
0100
,
0000
0000
0010
0000
0000
1000
0000
0000
0100
0010
0000
0000
0001
0000
1000
0010
0000
0100
0010
0000
1000
0001
0000
0010
,
0100
0000
1000
0001
0000
0100
0001
0000
1000
0100
0000
0010
0100
0000
1000
0010
0000
0100
0001
0000
0010
0001
0000
1000
,
0010
0000
0100
0001
0000
1000
0001
0000
0010
0100
0000
1000
0004
0000
0000
0000
0000
0000
0000
0000
0000
0000
0000
0000
,
0000
0000
0000
0000
0000
0000
4003
0000
0000
3001
1000
0001
,
0200
0000
0000
0310
0000
1000
0002
0000
0000
1003
0000
0000
1001
0000
0000
0001
0000
0100
0000
0000
0010
0000
0000
0002
,
0000
0000
0013
0000
0000
1000
0000
0000
0010
0000
0000
0200
0000
0000
0000
0301
0000
0000
1000
0001
1000
0100
0000
0010
,
0000
0000
0100
0000
0000
2000
0000
0000
3001
0100
0000
0000
0020
0000
0000
1030
0000
0100
0000
0000
0010
0000
0000
2000
,
0000
0000
3010
0000
0000
0001
0000
0000
1000
0000
0000
0020
0000
0000
0000
0130
0000
0000
0001
0000
0100
0020
0000
0000
,
1030
0000
0100
0020
0000
0000
0031
1000
0010
0100
0001
1000
0200
0000
0000
1300
0000
0010
0000
0000
0100
0000
0000
2000
,
0000
0000
3100
0000
0000
0001
0000
0000
1000
0000
0000
0200
0000
0000
0000
0310
0000
0000
0001
1000
0001
0100
0000
0010
,
0000
0000
1000
0000
0000
0200
0000
0000
0310
0001
0000
0000
0200
0000
0000
0310
0000
1000
0000
0000
0001
0000
0000
0020
,
0000
0000
0130
0000
0000
1000
0000
0000
0001
0000
0000
0200
0000
0000
0000
0310
0000
0000
1000
0000
0100
0020
0000
0000
,
0031
1000
0001
0100
0010
1000
0002
0000
0000
1003
0000
0000
1001
0000
0000
0001
0000
0010
0000
0000
0100
0000
0000
0002
,
0000
0000
0103
0000
0000
1000
0000
0000
0100
0000
0000
0020
0000
0000
0000
0031
0000
0000
1000
0001
1000
0010
0000
0100
,
0000
0000
0010
0000
0000
2000
0000
0000
3001
0010
0000
0000
0200
0000
0000
1300
0000
0010
0000
0000
0100
0000
0000
2000
,
0000
0000
3100
0000
0000
0001
0000
0000
1000
0000
0000
0200
0000
0000
0000
1300
0000
0000
0010
0M00
0010
0002
0000
0000
,
0103
00M0
0100
2000
0000
0000
3001
1000
0100
0010
0001
1000
0020
0000
0000
1030
0000
0100
0000
0000
0010
0000
0000
1000
,
0000
0000
0010
0000
0000
0100
0000
0000
1000
0000
0000
0002
0000
0000
0000
0103
0000
0001
1000
0100
1000
0000
0000
0001
,
0000
0000
0100
0000
0000
0020
0000
0000
1030
0001
0000
0000
0010
0000
0000
0010
0000
0000
0100
0000
0000
0100
0000
0000
,
1000
0000
0000
1000
0000
0000
0010
0000
0000
0010
0000
0100
0001
0000
0010
0100
0000
1000
0001
0000
0100
0010
0000
1000
,
0100
0010
0001
0010
0001
1000
0020
0000
0000
0000
0000
0000
,
0000
0000
0000
0000
,
0000
0000
0030
0000
;
