#TITLE:And Laugh;
#SUBTITLE:;
#ARTIST:SMLE;
#TITLETRANSLIT:;
#SUBTITLETRANSLIT:;
#ARTISTTRANSLIT:;
#GENRE:;
#CREDIT:;
#BANNER:And Laugh-bn.png;
#BACKGROUND:And Laugh-bg-wide.png;
#LYRICSPATH:;
#CDTITLE:;
#MUSIC:And Laugh.ogg;
#OFFSET:0.009000;
#SAMPLESTART:89.990990;
#SAMPLELENGTH:15.000000;
#SELECTABLE:YES;
#BPMS:0.000000=128.000000
;
#STOPS:
;
#BGCHANGES:;
#KEYSOUNDS:;
#ATTACKS:;

//---------------dance-single - XO BR 24ths 32nds----------------
#NOTES:
     dance-single:
     AND CRY:
     Edit:
     12:
     0.883399,1.118624,0.692394,0.485472,1.157969,777.000000,690.000000,87.000000,61.000000,0.000000,0.000000,0.883399,1.118624,0.692394,0.485472,1.157969,777.000000,690.000000,87.000000,61.000000,0.000000,0.000000:
0000
0000
0000
0000
,
0000
0000
0000
0000
,
0000
0000
0000
0000
,
0000
0000
0000
0000
,
0000
0000
0000
0000
,
0000
0000
0000
0000
,
0000
0000
0000
0000
,
0000
0000
0000
0000
,
2002
0000
3003
0000
1000
0000
0100
1000
0001
0000
0100
0000
0010
0000
1100
0000
,
0000
0000
0000
0000
0000
0000
1100
0000
0000
0000
0000
0000
0010
0000
0000
0000
0000
0000
1000
0000
0000
0010
0000
0000
0100
0000
0001
0000
1000
0000
0001
0000
0010
0000
0100
0000
1000
0000
0000
0001
0000
0000
1100
0000
0000
0000
0000
0000
,
0011
0000
0000
0000
1000
0000
0101
0010
0001
0000
1010
0001
0100
0000
0000
0000
,
0011
0000
0000
1000
0000
0000
0001
0000
0010
0000
0101
1000
0000
0000
0101
0000
,
1001
0000
0000
0000
0001
0000
0100
0001
1000
0000
0100
0000
0010
0000
0101
0000
,
0000
0000
0000
0000
0000
0000
0101
0000
0000
0000
0000
0000
1000
0000
0000
0000
0000
0000
0001
0000
0000
0010
0000
0000
0100
0000
1000
0000
0001
0000
0100
0000
0010
0000
1000
0000
0001
0000
0000
0010
0000
0000
0101
0000
0000
0000
0000
0000
,
1010
0000
0000
0000
0001
0000
1100
0001
1000
0000
0101
1000
0001
0000
0000
0000
,
1001
0000
0000
0001
0000
0000
1000
0000
0010
0000
0000
0100
0000
0000
0001
0000
,
1010
0100
1000
0001
0100
0010
0100
0001
1000
0100
1000
0010
0100
0010
1100
0001
,
1000
0010
1100
0001
0010
0001
1000
0100
1000
0001
0100
0010
1000
0001
1010
0000
,
0101
0010
0001
0100
0010
1000
0011
0100
0001
1000
0100
1000
0001
0100
0011
0000
,
1100
0010
1000
0001
0010
0100
1000
0001
0100
0010
1100
0001
1000
0001
1010
0000
,
0101
1000
0100
1000
0010
0100
0001
1000
0001
0010
0001
1000
0010
0100
0011
1000
,
0001
0100
0011
0100
0001
1000
0001
0010
0100
1000
0010
0100
0001
1000
0101
0000
,
1010
0100
1000
0010
0100
0001
1100
0001
1000
0100
0010
0001
1000
0010
1100
0000
,
0011
0000
0000
0000
1000
0000
0001
0000
0010
0100
1000
0001
1000
0010
0100
0001
1000
0100
1000
0001
1000
0010
0100
0001
2000
0000
0000
0000
0000
0000
3000
0000
,
2010
0000
0000
3100
0010
0001
0100
0101
,
0000
0000
0101
0000
0001
0010
0100
0000
1000
0000
0001
1000
0100
0000
0110
0000
,
0012
0000
0000
0000
1003
0000
1010
0000
0000
0000
0101
0000
0002
0000
0000
0003
,
2001
0000
0000
0000
0000
0000
0000
0000
3100
0010
0001
1000
0001
0000
0100
0000
1000
0000
0100
0000
0010
0000
1000
0000
0001
0000
0010
0000
0100
0000
1000
0000
,
2001
0000
0000
3010
0100
0001
0010
0011
,
0000
0000
0011
0000
0001
0100
0010
0000
1000
0000
0001
0100
0010
0000
0110
0000
,
0102
0000
0000
0000
1003
0000
1100
0000
0000
0000
0011
0000
0002
0000
0000
0003
,
1000
0000
0010
0000
0100
0000
0001
0000
1000
0100
1000
0001
1000
0010
0100
0001
1000
0001
0010
0100
1000
0001
1000
0010
0200
0000
0000
0000
0000
0000
0000
0000
,
0301
1000
0001
1000
0100
0000
0010
0100
2000
0000
3002
0000
0203
0000
0320
0000
,
1030
0100
0010
0001
1000
0000
0010
0100
0020
0000
0000
0000
0031
0010
1000
0000
,
0001
0010
0100
1000
0010
0000
0100
0001
1000
0000
0001
0010
0100
0000
0100
0000
,
2000
0000
0000
3020
0000
0000
0230
0000
0302
0000
0000
0023
0000
0000
0230
0000
,
1300
0001
0100
0010
1000
0000
0100
0010
0002
0000
2003
0000
3020
0000
0230
0000
,
0301
1000
0100
1000
0001
0000
0100
0010
0200
0000
0000
0000
1300
0100
0001
0000
,
1000
0100
0010
0001
1000
0000
0010
0100
0001
0000
1000
0100
0010
0000
0010
0000
,
0002
0000
0000
0203
0000
0000
0320
0000
2030
0000
0000
3200
0000
0000
0320
0000
,
0031
1000
0001
0100
0010
1000
0100
1000
0002
0000
0203
0000
0320
0000
2030
0000
,
3001
1000
0100
1000
0001
0000
0100
0010
0100
0001
1000
0100
0001
0100
0010
0000
,
0001
0010
0100
1000
0001
0000
0100
0010
1000
0000
0001
0010
0100
0000
0100
1000
,
0002
0000
0000
0203
0000
0000
0302
0000
0023
0000
0000
0230
0000
0000
2300
0000
,
3001
1000
0010
0100
0001
1000
0100
1000
0002
0000
0203
0000
0320
0000
2030
0000
,
3001
0010
0100
1000
0001
0000
0100
0010
0100
0001
1000
0100
0001
0100
0020
0000
,
0000
0000
0000
0000
0000
0000
0031
1000
0100
0000
0010
0001
2000
0000
0000
0000
,
3002
0000
0000
0203
0000
0000
0302
0000
0023
0000
0000
0230
0000
0000
1300
0000
,
0101
0010
0001
1000
0010
0100
0010
1000
0001
0010
0001
0100
0010
0100
0011
1000
,
0001
0100
0011
1000
0100
1000
0001
0010
0001
1000
0010
0100
0001
1000
0101
0000
,
1010
0001
1000
0010
0100
0010
1100
0001
1000
0001
0010
0001
1000
0010
1100
0000
,
0011
0100
0001
1000
0100
0010
0001
1000
0010
0100
0011
1000
0001
0010
0101
0000
,
1010
0001
0010
0001
0100
0010
0100
0001
1000
0100
1000
0010
0100
0010
1100
0001
,
1000
0010
1100
0001
0010
0001
1000
0100
1000
0001
0100
0010
1000
0001
1010
0000
,
0101
1000
0001
0100
0010
0100
0011
1000
0001
0010
0100
1000
0010
1000
0011
0000
,
1100
0000
0000
0000
0001
0000
1000
0000
0100
0010
0001
1000
0001
0100
0010
1000
0001
0010
0001
1000
0001
0100
0010
1000
0002
0000
0000
0000
0000
0000
0000
0003
,
1010
0100
1000
0001
0100
0010
0100
0001
1000
0100
1000
0010
0100
0010
1100
0001
,
1000
0010
1100
0001
0010
0001
1000
0100
1000
0001
0100
0010
1000
0001
1010
0000
,
0101
1000
0001
0100
0010
0100
0011
1000
0001
1000
0100
1000
0001
0100
0011
0000
,
1100
0010
1000
0001
0010
0100
1000
0001
0100
0010
1100
0001
1000
0001
1010
0000
,
0101
1000
0001
0100
0010
1000
0010
0100
0001
0010
0100
0010
0001
1000
0011
0100
,
0001
1000
0011
0100
0010
1000
0001
0010
0001
1000
0010
0100
0001
1000
0101
0000
,
1010
0001
1000
0010
0100
0010
1100
0001
1000
0100
0010
0001
0100
0001
1100
0000
,
0011
0000
1000
0001
0010
0100
1000
0010
0002
0000
0023
0000
0230
0000
0302
0000
,
1003
0000
0100
0000
0010
0000
0001
0000
0200
0000
0000
0000
0000
0000
0000
0000
0000
0000
0000
0000
0000
0000
0000
0000
0000
0000
0000
0000
0000
0000
0310
1000
,
0002
0000
0000
0003
0000
0000
0000
0000
;

//---------------dance-single - XO 24ths 32nds----------------
#NOTES:
     dance-single:
     Not a joke:
     Challenge:
     11:
     0.796992,0.884494,0.191005,0.485472,1.110218,701.000000,677.000000,24.000000,61.000000,0.000000,0.000000,0.796992,0.884494,0.191005,0.485472,1.110218,701.000000,677.000000,24.000000,61.000000,0.000000,0.000000:
// measure 0
0000
0000
0000
0000
,  // measure 1
0000
0000
0000
0000
,  // measure 2
0000
0000
0000
0000
,  // measure 3
0000
0000
0000
0000
,  // measure 4
0000
0000
0000
0000
,  // measure 5
0000
0000
0000
0000
,  // measure 6
0000
0000
0000
0000
,  // measure 7
0000
0000
0000
0000
,  // measure 8
2002
0000
3003
0000
1000
0000
0100
1000
0001
0000
0100
0000
0010
0000
1010
0000
,  // measure 9
0000
0000
0000
0000
0000
0000
1010
0000
0000
0000
0000
0000
1000
0000
0000
0000
0000
0000
0001
0000
0000
0010
0000
0000
0100
0000
1000
0000
0001
0000
1000
0000
0010
0000
0100
0000
0001
0000
0000
1000
0000
0000
0100
0000
0000
0000
0000
0000
,  // measure 10
0110
0000
0000
0000
0010
0000
0001
1000
0010
0000
0100
0001
1000
0000
0000
0000
,  // measure 11
1001
0000
0000
0001
0000
0000
1000
0000
0100
0000
0000
0010
0000
0000
0100
0000
,  // measure 12
1001
0000
0000
0000
0001
0000
0100
0001
1000
0000
0100
0000
0010
0000
0011
0000
,  // measure 13
0000
0000
0000
0000
0000
0000
0011
0000
0000
0000
0000
0000
0001
0000
0000
0000
0000
0000
1000
0000
0000
0010
0000
0000
0100
0000
0001
0000
1000
0000
0100
0000
0010
0000
0001
0000
1000
0000
0000
0010
0000
0000
0100
0000
0000
0000
0000
0000
,  // measure 14
0110
0000
0000
0000
0010
0000
0100
0001
1000
0000
0100
0010
0001
0000
0000
0000
,  // measure 15
1001
0000
0000
0001
0000
0000
1000
0000
0100
0000
0000
0010
0000
0000
0001
0000
,  // measure 16
1000
0100
1000
0001
0100
0010
0100
0001
1000
0100
1000
0001
0100
0010
1000
0001
,  // measure 17
1000
0010
0100
0001
1000
0100
0010
0001
1000
0010
0100
0001
0010
0100
1000
0000
,  // measure 18
0001
1000
0010
0100
0001
1000
0100
0010
0100
1000
0010
0100
0001
1000
0100
0000
,  // measure 19
1000
0001
0100
0010
0100
0001
0010
0100
0010
0001
1000
0010
0100
0001
1000
0000
,  // measure 20
0001
0100
0001
0010
0100
1000
0010
1000
0001
0100
0001
0010
0100
1000
0010
0100
,  // measure 21
0001
1000
0010
0100
0001
1000
0001
0010
0100
1000
0010
0100
0001
1000
0100
0000
,  // measure 22
1000
0001
0100
0010
1000
0001
0010
0100
0010
0001
1000
0010
0100
0001
1000
0000
,  // measure 23
0100
0000
0000
0000
0000
0000
0010
0000
0000
0001
0000
0000
0100
0000
0001
0000
1000
0000
0100
0000
1000
0000
0010
0000
0100
0000
0001
0000
1000
0000
0100
0000
0010
0000
0001
0000
2000
0000
0000
0000
0000
0000
0000
0000
0000
3000
0000
0000
,  // measure 24
2010
0000
0000
3100
0010
0001
0100
0101
,  // measure 25
0000
0000
0101
0000
0001
0010
0100
0000
1000
0000
0001
1000
0100
0000
0110
0000
,  // measure 26
0012
0000
0000
0000
1003
0000
1010
0000
0000
0000
0101
0000
0002
0000
0000
0003
,  // measure 27
2001
0000
0000
0000
0000
0000
0000
0000
3100
0010
0001
1000
0001
0000
0100
0000
1000
0000
0100
0000
0010
0000
1000
0000
0001
0000
0010
0000
0100
0000
1000
0000
,  // measure 28
0020
0000
0000
0130
0010
1000
0001
0011
,  // measure 29
0000
0000
0011
0000
0001
0100
0010
0000
1000
0000
0001
0100
0010
0000
0110
0000
,  // measure 30
0102
0000
0000
0000
1003
0000
1100
0000
0000
0000
0011
0000
0002
0000
0000
0003
,  // measure 31
1000
0000
0000
0010
0000
0000
0100
0000
0000
0001
0000
0000
1000
0000
0100
0000
1000
0000
0001
0000
0100
0000
0010
0000
1000
0000
0001
0000
0010
0000
0100
0000
1000
0000
0001
0000
0200
0000
0000
0000
0000
0000
0000
0000
0000
0000
0000
0000
,  // measure 32
0310
1000
0001
1000
0100
0000
0010
0100
2000
0000
3002
0000
0203
0000
0320
0000
,  // measure 33
1030
0001
0010
0100
1000
0000
0010
0100
0020
0000
0000
0000
0031
0010
1000
0000
,  // measure 34
0001
0010
0100
1000
0001
0000
0100
0010
1000
0000
0001
0010
0100
0000
0100
0000
,  // measure 35
2000
0000
0000
3020
0000
0000
0230
0000
0302
0000
0000
0023
0000
0000
0230
0000
,  // measure 36
0310
0001
1000
0001
0100
0000
0010
0100
0002
0000
2003
0000
3200
0000
0320
0000
,  // measure 37
0031
1000
0100
1000
0001
0000
0100
0010
0200
0000
0000
0000
1300
0100
0001
0000
,  // measure 38
1000
0100
0010
0001
1000
0000
0010
0100
0001
0000
1000
0100
0010
0000
0010
0000
,  // measure 39
0002
0000
0000
0203
0000
0000
0320
0000
2030
0000
0000
3200
0000
0000
0320
0000
,  // measure 40
0031
1000
0001
0100
0010
1000
0100
1000
0002
0000
0203
0000
0320
0000
2030
0000
,  // measure 41
3001
1000
0100
1000
0001
0000
0100
0010
0100
0001
1000
0100
0001
0100
0010
0000
,  // measure 42
0001
0010
0100
1000
0001
0000
0100
0010
1000
0000
0100
0010
0001
0000
0001
1000
,  // measure 43
0020
0000
0000
0230
0000
0000
0302
0000
2003
0000
0000
3200
0000
0000
2300
0000
,  // measure 44
3001
1000
0010
0100
0001
1000
0100
1000
0002
0000
0203
0000
0320
0000
2030
0000
,  // measure 45
3001
0010
0100
1000
0001
0000
0100
0010
0100
0001
1000
0100
0001
0100
0020
0000
,  // measure 46
0000
0000
0000
0000
0000
0000
0031
1000
0100
0000
0010
0001
2000
0000
0000
0000
,  // measure 47
3002
0000
0000
0203
0000
0000
0302
0000
0023
0000
0000
0230
0000
0000
1300
0000
,  // measure 48
0001
0010
0001
1000
0010
0100
0010
1000
0001
0010
0100
1000
0001
0100
0010
1000
,  // measure 49
0001
0100
0010
1000
0100
0010
0100
1000
0001
0100
0010
0100
0001
1000
0100
0000
,  // measure 50
1000
0001
0100
0010
1000
0001
0010
0100
0010
0001
0100
0010
1000
0001
0010
0000
,  // measure 51
0100
0010
0001
1000
0010
0100
0001
0010
0100
1000
0001
0100
0010
1000
0001
0000
,  // measure 52
1000
0010
1000
0100
0010
0001
0100
0001
1000
0010
1000
0100
0010
0001
0100
0010
,  // measure 53
1000
0001
0100
0010
1000
0001
0010
0100
0010
0001
0100
0010
1000
0001
0010
0000
,  // measure 54
0100
1000
0010
0100
0001
1000
0100
0010
0100
1000
0001
0100
0010
1000
0001
0000
,  // measure 55
0010
0000
0000
0000
0000
0000
0001
0000
0000
1000
0000
0000
0010
0000
1000
0000
0001
0000
0010
0000
0001
0000
0100
0000
0010
0000
1000
0000
0001
0000
0010
0000
0100
0000
1000
0000
0002
0000
0000
0000
0000
0000
0000
0000
0000
0000
0000
0000
,  // measure 56
1003
0100
1000
0001
0100
0010
0100
0001
1000
0100
1000
0001
0100
0010
1000
0001
,  // measure 57
1000
0010
0100
0001
1000
0100
0010
0001
1000
0010
0100
0001
0010
0100
1000
0000
,  // measure 58
0001
1000
0010
0100
0001
1000
0100
0010
0100
1000
0010
0100
0001
1000
0100
0000
,  // measure 59
1000
0001
0100
0010
0100
0001
0010
0100
0010
0001
1000
0010
0100
0001
1000
0000
,  // measure 60
0001
0100
0001
0010
0100
1000
0010
1000
0001
0100
0001
0010
0100
1000
0010
0100
,  // measure 61
0001
1000
0010
0100
0001
1000
0100
0010
0100
1000
0010
0100
0001
1000
0100
0000
,  // measure 62
1000
0001
0100
0010
1000
0001
0010
0100
0010
0001
1000
0010
0100
0001
1000
0000
,  // measure 63
0100
0000
1000
0001
0010
0001
1000
0010
0002
0000
0023
0000
0230
0000
0302
0000
,  // measure 64
1003
0000
0100
0000
0010
0000
0001
0000
0200
0000
0000
0000
0000
0000
0000
0000
0000
0000
0000
0000
0000
0000
0000
0000
0000
0000
0000
0000
0000
0000
0310
1000
,  // measure 65
0002
0000
0000
0003
0000
0000
0000
0000
;

//---------------dance-single - 8th note BR----------------
#NOTES:
     dance-single:
     MUAHAHA:
     Hard:
     9:
     0.576427,0.598334,0.421803,0.676477,0.270591,507.000000,454.000000,53.000000,85.000000,0.000000,0.000000,0.576427,0.598334,0.421803,0.676477,0.270591,507.000000,454.000000,53.000000,85.000000,0.000000,0.000000:
0000
0000
0000
0000
,
0000
0000
0000
0000
,
0000
0000
0000
0000
,
0000
0000
0000
0000
,
0000
0000
0000
0000
,
0000
0000
0000
0000
,
0000
0000
0000
0000
,
0000
0000
0000
0000
,
1001
0000
0000
0000
1000
0000
0100
1000
0001
0000
0100
0000
0010
0000
1010
0000
,
0000
0000
1010
0000
0000
0000
0001
0010
0400
0000
0000
0000
1300
0001
0100
0000
,
0110
0000
0000
0000
0010
0000
1000
0001
0010
0000
0100
1000
0001
0000
0000
0000
,
0100
0000
0000
0010
0000
0000
1000
0000
0100
0000
0000
0010
0000
0000
0100
0000
,
1100
0000
0000
0000
1000
0000
0001
0100
0010
0000
0100
0000
0001
0000
1001
0000
,
0000
0000
1001
0000
0000
0000
1000
0100
0040
0000
0000
0000
0031
1000
0010
0000
,
0110
0000
0000
0000
0100
0000
0001
1000
0100
0000
0010
0100
1000
0000
0000
0000
,
0001
0000
0000
0100
0000
0000
0010
0000
1000
0000
0000
0100
0000
0000
0010
0000
,
0001
1000
0010
0100
0001
0010
0001
1010
,
0100
0000
0000
0000
1010
0000
0000
0000
0001
0000
0000
0000
1000
0000
0000
0000
0010
0000
0000
0000
0200
0000
0000
0000
0302
0000
0000
0003
2100
0000
0000
3000
,
0011
1000
0001
1100
0001
0020
0130
1010
,
0101
1000
0001
0200
0320
2030
3200
0320
,
0031
1000
0010
0100
0001
1000
0100
1010
,
0001
0000
0000
0000
1010
0000
0000
0000
0001
0000
0000
0000
1000
0000
0000
0000
0010
0000
0000
0000
0200
0000
0000
0000
0302
0000
0000
0003
2100
0000
0000
3000
,
0011
1000
0001
1100
0001
0020
0130
1000
,
0001
0000
1000
0001
0400
0000
0000
0000
0340
0000
0000
0000
2030
0000
0000
3000
,
2001
0000
0000
3100
0010
0001
0100
0101
,
0000
0000
0101
0000
0001
1000
0100
0000
1000
0000
0001
0100
0010
0000
1000
0000
,
1002
0000
1003
0200
0000
0310
0002
0000
,
2003
0000
0000
0000
3040
0000
0130
0001
1000
0100
1000
0001
0100
0000
0001
0000
,
1002
0000
0000
0013
0100
1000
0001
0101
,
0000
0000
0101
0000
1000
0001
0010
0000
0100
0000
1000
0001
0100
0000
0001
0000
,
0102
0000
1003
1200
0000
0310
0002
0000
,
1003
0010
0100
0000
0004
0000
0000
0000
0043
0000
0000
0000
0230
0000
0000
0000
,
1300
0001
1000
0000
0010
0000
0100
0001
1000
0000
0100
0000
0010
0000
0100
0000
,
1000
0001
1000
0000
0010
0000
0100
0001
0200
0000
0000
0000
0310
1000
0001
0000
,
0010
0100
0010
0000
0001
0000
1000
0010
0100
0000
0010
1000
0001
0000
0001
0000
,
2000
0000
0000
3020
0000
0000
0230
0000
0302
0000
0000
0023
0000
0000
0230
0000
,
1300
0001
1000
0000
0010
0000
0100
0001
1000
0000
0100
0000
0010
0000
0100
0000
,
1000
0001
1000
0000
0010
0000
0100
0001
0200
0000
0000
0000
0310
1000
0001
0000
,
0010
0100
0010
0000
0001
0000
1000
0001
0100
0000
0010
0100
0001
0000
0001
0000
,
2000
0000
0000
3200
0000
0000
0320
0000
0032
0000
0000
0203
0000
0000
0320
0000
,
1030
0001
1000
0000
0010
0000
0100
0001
2000
0000
3200
0000
0320
0000
0032
0000
,
1003
0001
1000
0000
0010
0000
0100
0001
2000
0000
0000
0000
3100
0010
0100
0000
,
1000
0001
0100
0000
0010
0000
0100
0001
1000
0000
0100
0010
0001
0000
0001
0000
,
2000
0000
0000
3020
0000
0000
0230
0000
0302
0000
0000
0023
0000
0000
0230
0000
,
1300
0001
1000
0000
0100
0000
0010
0001
2000
0000
3020
0000
0230
0000
0302
0000
,
1003
0001
1000
0000
0100
0000
0010
0001
2000
0000
0000
0000
3010
0100
0002
0000
,
0000
0000
0000
0000
0000
0000
1003
0100
1000
0000
0010
0100
0002
0000
0000
0000
,
1003
0000
0000
0100
0000
0000
1000
0000
0010
0000
0000
0100
0000
0000
0001
0000
,
0010
0001
0100
0010
1000
0001
0010
0101
,
0010
0000
0000
0000
0101
0000
0000
0000
1000
0000
0000
0000
0010
0000
0000
0000
0100
0000
0000
0000
0020
0000
0000
0000
2030
0000
0000
3000
0012
0000
0000
0003
,
1100
0001
1000
0011
1000
0200
0310
0101
,
1010
0001
1000
0020
0230
0302
0023
0230
,
1300
0001
0100
0010
0100
0001
1000
0101
,
1000
0000
0000
0000
0101
0000
0000
0000
1000
0000
0000
0000
0001
0000
0000
0000
0100
0000
0000
0000
0020
0000
0000
0000
2030
0000
0000
3000
0012
0000
0000
0003
,
1100
0001
0100
0011
1000
0200
0310
0001
,
1000
0000
0001
0100
0040
0000
0000
0000
0430
0000
0000
0000
0302
0000
0000
0000
,
0103
0010
1000
0001
1000
0100
0010
0101
,
0010
0000
0000
0000
0101
0000
0000
0000
1000
0000
0000
0000
0001
0000
0000
0000
0100
0000
0000
0000
0020
0000
0000
0000
2030
0000
0000
3000
0201
0000
0000
0300
,
1010
0001
0010
0101
1000
0020
0130
0011
,
1100
0001
0100
0020
0230
0302
2003
3200
,
0310
0001
1000
0010
0100
0001
1000
0101
,
1000
0000
0000
0000
0101
0000
0000
0000
1000
0000
0000
0000
0001
0000
0000
0000
0100
0000
0000
0000
0020
0000
0000
0000
2030
0000
0000
3000
0012
0000
0000
0003
,
1100
0001
0100
0011
1000
0200
0310
0001
,
1000
0000
0010
0000
0100
0001
1000
0001
0010
0000
0100
0000
1000
0000
0001
0000
,
0100
0010
1000
0100
0020
0000
0000
0000
0000
0000
0000
0000
0000
0000
0000
0031
,
2000
0000
0000
3000
0000
0000
0000
0000
;

//---------------dance-single - Laughable----------------
#NOTES:
     dance-single:
     :
     Beginner:
     1:
     0.078449,0.127337,0.023876,0.000000,0.000000,69.000000,66.000000,3.000000,0.000000,0.000000,0.000000,0.078449,0.127337,0.023876,0.000000,0.000000,69.000000,66.000000,3.000000,0.000000,0.000000,0.000000:
0000
0000
0000
0000
,
0000
0000
0000
0000
,
0000
0000
0000
0000
,
0000
0000
0000
0000
,
0000
0000
0000
0000
,
0000
0000
0000
0000
,
0000
0000
0000
0000
,
0000
0000
0000
0000
,
0001
0000
0000
0000
0000
0000
0000
1000
,
0000
1000
0000
0000
0000
0000
0000
0000
,
0100
0000
0000
0000
,
0010
0000
0000
0000
,
0001
0000
0000
0000
0000
0000
0000
1000
,
0000
1000
0000
0000
0000
0000
0000
0000
,
0010
0000
0000
0000
,
0100
0000
0000
0000
,
1001
0000
0000
0000
0000
0000
0000
0001
,
0000
0001
0000
0000
0000
0000
0000
0000
,
0100
0000
0000
0000
,
0010
0000
0000
0000
,
1000
0000
0000
0000
0000
0000
0000
0001
,
0000
0001
0000
0000
0000
0000
0000
0000
,
0010
0000
0000
0000
,
0100
0000
0000
0000
,
1000
0000
0000
0000
0000
0000
0000
0010
,
0000
0010
0000
0000
0000
0000
0000
0000
,
0100
0000
0000
0000
,
0001
0000
0000
0000
,
1000
0000
0000
0000
0000
0000
0000
0100
,
0000
0100
0000
0000
0000
0000
0000
0000
,
0010
0000
0000
0000
,
0001
0000
0000
0000
,
1000
0000
0000
0000
,
0100
0000
0000
0000
,
1000
0000
0000
0000
,
0001
0000
0000
0000
,
0100
0000
0000
0000
,
0010
0000
0000
0000
,
0100
0000
0000
0000
,
0001
0000
0000
0000
,
1000
0000
0000
0000
,
0010
0000
0000
0000
,
1000
0000
0000
0000
,
0001
0000
0000
0000
,
0010
0000
0000
0000
,
0100
0000
0000
0000
,
1000
0000
0000
0000
,
0000
0000
0000
0000
,
1001
0000
0000
0000
0000
0000
0000
1000
,
0000
1000
0000
0000
0000
0000
0000
0000
,
0010
0000
0000
0000
,
0100
0000
0000
0000
,
0001
0000
0000
0000
0000
0000
0000
1000
,
0000
1000
0000
0000
0000
0000
0000
0000
,
0100
0000
0000
0000
,
0010
0000
0000
0000
,
1001
0000
0000
0000
0000
0000
0000
0001
,
0000
0001
0000
0000
0000
0000
0000
0000
,
0010
0000
0000
0000
,
0100
0000
0000
0000
,
1000
0000
0000
0000
0000
0000
0000
0001
,
0000
0001
0000
0000
0000
0000
0000
0000
,
0100
0000
0000
0000
,
0001
0000
0000
0000
,
0010
0000
0000
0000
;

//---------------dance-single - Or Not----------------
#NOTES:
     dance-single:
     :
     Medium:
     6:
     0.392243,0.439710,0.111420,0.222839,0.039793,345.000000,331.000000,14.000000,28.000000,0.000000,0.000000,0.392243,0.439710,0.111420,0.222839,0.039793,345.000000,331.000000,14.000000,28.000000,0.000000,0.000000:
0000
0000
0000
0000
,
0000
0000
0000
0000
,
0000
0000
0000
0000
,
0000
0000
0000
0000
,
0000
0000
0000
0000
,
0000
0000
0000
0000
,
0000
0000
0000
0000
,
0000
0000
0000
0000
,
1001
0000
0000
1000
0100
1000
0001
0100
,
0000
0100
0000
0010
2000
0000
3001
1000
,
0100
0000
0010
0001
1000
0010
0100
0000
,
0001
0000
1000
0001
0010
0000
0100
1000
,
0010
0000
0000
0100
0001
1000
0100
0010
,
0000
0010
0000
0001
0200
0000
0310
0100
,
0001
0000
1000
0100
0010
0100
1000
0000
,
0001
0000
0100
0001
0010
0000
0100
1000
,
0001
0000
1001
0000
0000
1000
0010
0100
,
0000
0100
0001
0000
0000
0010
0100
1000
,
0001
0000
0010
0001
0000
0100
0010
1000
,
0001
0000
1001
1000
0100
1000
0010
0100
,
0001
0000
0101
0000
0000
1000
0001
0100
,
0000
0100
0010
0000
0000
1000
0100
1000
,
0001
0000
0100
0001
0000
0010
0100
1000
,
0002
0000
0000
0000
0000
0000
0000
0000
0103
0000
0010
0000
2000
0000
0000
3000
,
2100
0000
0000
3010
0100
0001
1000
0100
,
0000
0100
0010
0001
1000
0010
1000
0001
,
0020
0000
0130
2000
0000
3010
0200
0000
,
0302
0000
0013
0100
1000
0001
0100
0010
,
2010
0000
0000
3001
0010
0100
1000
0010
,
0000
0010
0100
0001
1000
0100
1000
0001
,
0200
0000
0310
2000
0000
3100
0020
0000
,
0032
0000
0000
0000
1003
0010
0200
0000
,
0302
0000
1003
0100
1000
0001
0100
0010
,
2000
0000
3001
0010
0200
0000
0310
0001
,
2000
0000
3010
0100
0001
1000
0200
0000
,
0310
0000
0000
0001
0000
0000
1000
0000
0010
0000
0000
0100
0000
0000
0001
0000
,
2000
0000
3001
0010
0001
1000
0010
0100
,
0002
0000
1003
0100
0020
0000
0130
1000
,
0002
0000
0103
0010
1000
0001
2000
0000
,
3100
0000
0000
1000
0000
0000
0001
0000
0100
0000
0000
0010
0000
0000
1000
0000
,
0001
1000
0010
0100
0001
1000
0100
0010
,
0100
0000
1000
0000
0001
0000
0100
0000
0001
0000
0000
0001
1000
0000
0100
0000
,
0010
0001
0100
0010
0100
0001
1000
1000
,
0100
0000
0000
0010
0000
0000
0100
0000
1000
0000
0000
0010
0000
0000
0100
0000
,
0001
1000
0100
0010
0001
1000
0010
0100
,
0010
0000
1000
0000
0001
0000
0010
0000
0001
0000
0000
0001
1000
0000
0010
0000
,
0000
0000
0000
0100
0001
1000
0100
0000
,
0010
0000
0000
0100
0000
0000
0010
0000
0001
0000
0000
1000
0000
0000
0010
0000
,
0110
0000
1001
0000
0000
0001
0100
0010
,
0000
0010
1000
0000
0000
0100
0010
0001
,
1000
0000
0100
1000
0000
0010
0100
0001
,
1000
0000
1001
0001
0010
0001
0100
0010
,
1000
0000
1010
0000
0000
0001
1000
0100
,
0000
0100
0010
0000
0000
0001
0010
0001
,
1000
0000
0010
1000
0000
0100
0010
0001
,
2000
0000
0000
0000
0000
0000
0000
0000
3010
0000
0100
0000
0002
0000
0000
0003
,
0011
0000
1001
0000
0000
1000
0010
0100
,
0000
0100
0001
0000
0000
0010
0100
1000
,
0001
0000
0010
0001
0000
0100
0010
1000
,
0001
0000
1001
1000
0100
1000
0010
0100
,
0001
0000
0101
0000
0000
1000
0001
0010
,
0000
0010
0100
0000
0000
1000
0010
1000
,
0001
0000
0100
0001
0000
0010
0100
1000
,
0001
0000
0000
0000
0100
0010
1000
0001
,
0020
0000
0000
0000
,
0130
0000
0000
0000
;

//---------------dance-single - Say cheese!----------------
#NOTES:
     dance-single:
     :
     Easy:
     4:
     0.237620,0.280141,0.023876,0.023876,0.000000,209.000000,206.000000,3.000000,3.000000,0.000000,0.000000,0.237620,0.280141,0.023876,0.023876,0.000000,209.000000,206.000000,3.000000,3.000000,0.000000,0.000000:
0000
0000
0000
0000
,
0000
0000
0000
0000
,
0000
0000
0000
0000
,
0000
0000
0000
0000
,
0000
0000
0000
0000
,
0000
0000
0000
0000
,
0000
0000
0000
0000
,
0000
0000
0000
0000
,
0001
0000
1000
0000
0000
0000
1000
0010
,
0000
0010
0000
0000
0200
0000
0000
0000
,
0301
1000
0000
1000
,
0100
0010
0001
0100
,
0001
0000
1000
0000
0000
0000
1000
0100
,
0000
0100
0000
0000
0020
0000
0000
0000
,
0031
1000
0000
1000
,
0010
0100
0001
0010
,
0100
0000
1000
0000
0001
0000
1000
0010
,
0000
0010
0100
0000
0001
0000
1000
0000
,
0100
0000
1000
0001
0000
0010
0000
0001
,
1000
0010
0100
0001
,
1000
0000
0001
0000
0100
0000
0010
1000
,
0000
1000
0001
0000
0010
0000
0100
0000
,
1000
0000
0001
0100
0000
0010
0000
1000
,
0001
0000
0000
0000
,
1001
0000
0000
0000
1000
0000
0000
0100
,
0000
0100
0000
0000
0010
0000
0000
0001
,
1000
0000
0100
0000
,
0010
0000
0001
1000
,
1001
0000
0000
0000
0001
0000
0000
0100
,
0000
0100
0000
0000
0010
0000
0000
1000
,
0001
0000
0010
0000
,
0200
0000
0000
0300
,
1000
0001
0100
0010
,
1000
0001
0010
0001
,
0100
0010
1000
0001
,
1000
0100
0010
0100
,
1000
0001
0100
0010
,
1000
0001
0010
0100
,
0010
0001
1000
0010
,
0100
0001
1000
0100
,
1000
0001
0100
0010
,
1000
0001
0010
0001
,
0100
0010
1000
0001
,
1000
0100
0010
0100
,
1000
0001
0100
0010
,
1000
0001
0010
0100
,
0000
0000
1000
0001
,
0010
0000
0001
0000
,
1000
0000
0100
0000
1000
0000
0001
0100
,
0000
0100
0010
0000
1000
0000
0001
0000
,
0010
0000
0001
1000
0000
0010
0000
0100
,
0001
0010
0100
1000
,
0001
0000
1000
0000
0010
0000
0100
0001
,
0000
0001
1000
0000
0100
0000
0010
0000
,
0001
0000
1000
0010
0000
0100
0000
0001
,
1000
0000
0000
0000
,
1001
0000
0001
0000
1000
0000
0001
0010
,
0000
0010
0100
0000
1000
0000
0001
0000
,
0100
0000
0001
1000
0000
0100
0000
1000
,
0001
0100
0010
1000
,
0001
0000
0010
0000
0100
0000
0010
0001
,
0000
0001
1000
0000
0001
0000
0100
0000
,
0010
0000
1000
0010
0000
0100
0000
0001
,
1000
0000
0000
0000
,
0010
0000
0000
0000
;
