#VERSION:0.83;
#TITLE:And Drugs;
#SUBTITLE:;
#ARTIST:Lapix;
#TITLETRANSLIT:;
#SUBTITLETRANSLIT:;
#ARTISTTRANSLIT:;
#GENRE:;
#ORIGIN:;
#CREDIT:;
#BANNER:anddrugs-bn.png;
#BACKGROUND:anddrugs-bg.png;
#PREVIEWVID:;
#JACKET:anddrugs-jacket.png;
#CDIMAGE:;
#DISCIMAGE:;
#LYRICSPATH:;
#CDTITLE:;
#MUSIC:And Drugs.ogg;
#OFFSET:0.009000;
#SAMPLESTART:38.402992;
#SAMPLELENGTH:15.360000;
#SELECTABLE:YES;
#BPMS:0.000=125.000;
#STOPS:;
#DELAYS:;
#WARPS:;
#TIMESIGNATURES:0.000=4=4;
#TICKCOUNTS:0.000=4;
#COMBOS:0.000=1;
#SPEEDS:0.000=1.000=0.000=0;
#SCROLLS:0.000=1.000;
#FAKES:;
#LABELS:0.000=Song Start;
#BGCHANGES:;
#KEYSOUNDS:;
#ATTACKS:
;

//---------------dance-single - ----------------
#NOTEDATA:;
#CHARTNAME:;
#STEPSTYPE:dance-single;
#DESCRIPTION:;
#CHARTSTYLE:;
#DIFFICULTY:Challenge;
#METER:12;
#RADARVALUES:0.881767,0.956244,0.204483,0.196910,1.367010,815.000000,785.000000,27.000000,26.000000,15.000000,5.000000,13.000000,0.000000,0.000000,0.881767,0.956244,0.204483,0.196910,1.367010,815.000000,785.000000,27.000000,26.000000,15.000000,5.000000,13.000000,0.000000,0.000000;
#CREDIT:Maxx;
#NOTES:
// measure 0
0000
0000
0000
0000
,  // measure 1
0000
0000
0000
0000
,  // measure 2
0000
0000
0000
0000
,  // measure 3
0000
0000
0000
0000
,  // measure 4
0001
1000
0001
0010
0100
0100
0100
0100
0001
1000
0001
0000
0100
0000
0001
1000
,  // measure 5
0010
1000
0001
0010
0100
0100
0100
0100
0001
1000
0001
0000
0100
0000
0001
1000
,  // measure 6
0001
0100
0010
1000
0100
0100
0100
0100
0001
1000
0001
0000
0100
0000
0001
1000
,  // measure 7
0010
0000
0000
1000
0000
0000
0001
0000
0000
0010
0000
0000
0100
0000
0000
0100
0000
0000
0100
0000
0000
0100
0000
0000
0001
0000
0000
1000
0000
0000
0001
0000
0000
0000
0000
0000
0100
0000
0000
0000
0000
0000
0001
0000
1000
0000
0001
0000
,  // measure 8
0100
0010
1000
0001
0100
0100
0100
0100
1000
0001
0010
0001
0100
0100
0100
0100
,  // measure 9
1000
0010
1000
0001
0100
0100
0100
0100
1000
0001
0010
0001
0100
0100
0100
0100
,  // measure 10
1000
0001
0100
0100
1000
0001
0010
0010
1000
0001
0100
0100
1000
0001
0010
0010
,  // measure 11
1000
0001
0000
0100
0000
0001
1000
0000
0100
0000
0010
0000
0001
0000
1000
0000
,  // measure 12
2002
0000
0000
3003
0000
0000
1000
0000
0001
0100
0000
0000
0040
0000
0000
0000
0000
0000
1030
0000
0001
0010
0000
0000
,  // measure 13
0400
0000
0000
0000
0000
0000
0000
0000
0000
0000
0000
0000
0000
0000
0000
0000
0000
0000
0000
0000
0000
0000
0000
0000
0000
0000
0000
0000
0000
0000
0000
0000
0000
0000
0000
0000
0000
0000
0000
0000
0000
0000
0000
0000
0000
0000
0000
0000
1300
0000
0000
0000
0000
0000
0000
0000
0000
0000
0000
0000
0000
0000
0000
0000
0001
0000
0000
0000
0000
0000
0000
0000
0100
0000
0000
0000
0000
0000
0000
0000
0000
0000
0000
0000
0000
0000
0000
0000
0000
0000
0000
0000
0000
0000
0000
0000
0010
0000
0000
0000
0000
0000
0000
0000
0000
0000
0000
0000
0000
0000
0000
0000
0000
0000
0000
0000
0000
0000
0000
0000
1000
0000
0000
0000
0000
0000
0000
0000
0000
0000
0000
0000
0001
0000
0000
0000
0000
0000
0000
0000
0000
0000
0000
0000
0010
0000
0000
0000
0000
0000
000M
0000
0000
0000
0000
0000
0010
0000
0000
0000
0000
0000
0000
0000
0000
0000
0000
0000
0100
0000
0000
0000
0000
0000
M000
0000
0000
0000
0000
0000
0100
0000
0000
0000
0000
0000
0000
0000
0000
0000
0000
0000
,  // measure 14
1000
0001
0100
0010
0001
0010
0100
0001
2000
0100
3001
0010
0100
0001
0100
0010
,  // measure 15
0002
0100
0000
1003
0010
0100
0001
1000
0100
0010
0001
1000
0010
0000
0100
0000
,  // measure 16
2002
0000
0000
3003
0000
0000
0001
0000
1000
0100
0000
0000
0040
0000
0000
0000
0000
0000
0031
0000
1000
0010
0000
0000
,  // measure 17
0400
0000
0000
0000
0000
0000
0000
0000
0000
0000
0000
0000
0301
0000
0000
0000
1000
0000
0100
0000
0000
0000
0000
0000
0M01
0000
0000
0000
1000
0000
0100
0000
0000
0000
0000
0000
1000
0000
0000
0001
0000
0000
1000
0000
0000
0010
0000
0000
,  // measure 18
0200
0000
0301
0100
00M0
0100
1000
0001
0010
0000
0001
0100
00M0
0100
1000
0001
,  // measure 19
0100
0010
0000
1000
0000
0001
0010
0000
0100
0000
1000
0000
0001
0100
0010
0000
,  // measure 20
2002
0000
0000
3003
0000
0000
1000
0000
0001
0100
0000
0000
0040
0000
0000
0000
0000
0000
1030
0000
0001
0010
0000
0000
,  // measure 21
0400
0000
0000
0000
0000
0000
0000
0000
0000
0000
0000
0000
1300
0000
0000
0000
0001
0000
0100
0000
0000
0000
0000
0000
1M00
0000
0000
0000
0001
0000
0100
0000
0000
0000
0000
0000
0000
0000
0000
0001
0000
0000
1000
0000
0000
0001
0000
0000
,  // measure 22
1100
0010
1000
0100
0100
0001
0010
0100
1010
0100
1000
0010
0010
0001
0100
0010
,  // measure 23
1100
0001
1000
0100
0100
0001
0010
0100
0001
0100
0010
0001
1000
0000
0001
0000
,  // measure 24
2002
0000
0000
3003
0000
0000
0001
0000
1000
0100
0000
0000
0040
0000
0000
0000
0000
0000
0031
0000
1000
0010
0000
0000
,  // measure 25
0400
0000
0000
0000
0000
0000
0000
0000
0000
0000
0000
0000
0301
0000
0000
0000
1000
0000
0100
0000
0000
0000
0000
0000
0M01
0000
0000
0000
1000
0000
0100
0000
0000
0000
0000
0000
1000
0000
0000
0001
0000
0000
1000
0000
0000
0010
0000
0000
,  // measure 26
0200
0000
0301
0100
00M0
0100
1000
0001
0010
0000
0001
0100
00M0
0100
1000
0001
,  // measure 27
0100
0010
0000
1000
0000
0001
0010
0000
0100
0000
1000
0000
0004
0000
0000
0003
,  // measure 28
1001
0000
0000
0001
0000
0000
0100
0000
0000
0001
0000
0000
1000
0000
0000
0100
0000
0000
0010
0000
0000
0001
0000
0000
1000
0000
0000
0010
0000
0000
0100
0000
0000
0001
0000
0000
1000
0000
0000
0100
0000
0000
0010
0000
0001
0000
1000
0000
,  // measure 29
0010
0000
0000
0100
0000
0000
0001
0000
0000
1000
0000
0000
0100
0000
0000
0010
0000
0000
0100
0000
0000
1000
0000
0000
0001
0000
0000
0100
0000
0000
0010
0000
0000
1000
0000
0000
0001
0000
0010
0000
0001
0000
1000
0000
0010
0000
0100
0000
,  // measure 30
0001
0000
0000
1000
0000
0000
0100
0000
0000
1000
0000
0000
0001
0000
0000
0100
0000
0000
0010
0000
0000
1000
0000
0000
0001
0000
0000
0010
0000
0000
0100
0000
0000
1000
0000
0000
0010
0000
0000
0100
0000
0000
0001
0000
1000
0000
0001
0000
,  // measure 31
0010
0000
0000
0100
0000
0000
1000
0000
0000
0001
0000
0000
0100
0000
0000
0010
0000
0000
1000
0000
0000
0001
0000
0000
0010
0000
0000
0100
0000
0000
0010
0000
0000
0001
0000
0000
1000
0000
0010
0000
1000
0000
0001
0000
0010
0000
0100
0000
,  // measure 32
1000
0001
0100
0010
1000
0001
0010
0100
,  // measure 33
1000
0010
0100
0010
1000
0100
0010
0001
,  // measure 34
1000
0001
0010
0001
1000
0010
0100
0001
1000
0100
0010
0001
1000
0010
1000
0001
0010
0100
1000
0001
0100
0010
1000
0001
,  // measure 35
0010
0100
0000
1000
0000
0001
0100
0000
0010
0000
1000
0000
0001
0000
0010
0000
,  // measure 36
2101
0000
0000
0000
0000
0000
0000
0000
3001
0000
0000
0000
1100
0000
0000
0000
0001
0000
0100
00M0
0100
0000
1000
0000
0010
0M00
0010
0000
0002
0000
0000
0000
,  // measure 37
1103
0000
0001
0000
0100
0000
0010
0M00
0010
0000
0001
0000
1000
0000
0010
0000
0100
0000
0001
0000
0000
0000
1000
0000
0000
0000
0100
0000
0100
0000
0000
0000
,  // measure 38
1102
0000
0000
0000
1003
0010
0001
0000
0010
0000
1000
1000
0000
0001
0001
0000
,  // measure 39
0010
0000
0100
0000
0001
0100
1000
0000
0010
0000
0100
0100
0000
0001
1000
0000
,  // measure 40
1102
0000
0000
0000
0000
0000
0000
0000
0013
0000
0000
0000
0101
0000
0000
0000
1000
0000
0100
00M0
0100
0000
0001
0000
0010
0M00
0010
0000
2000
0000
0000
0000
,  // measure 41
3011
0000
1000
0000
0100
0000
0010
0M00
0010
0000
1000
0000
0001
0000
0010
0000
0100
0000
1000
0000
0000
0000
0001
0000
0000
0000
0100
0000
0100
0000
0000
0000
,  // measure 42
0010
0000
1000
0000
0001
0010
0100
0001
0100
0010
0001
0100
0000
0010
1000
0000
,  // measure 43
0001
0100
0100
0100
0010
0100
0100
0100
0001
0100
0100
0100
0010
0100
0100
0100
,  // measure 44
0002
0003
0000
0000
1000
0001
0000
0010
0000
0001
1000
0000
0010
0100
0000
0010
,  // measure 45
1000
0000
0001
0010
0001
1000
0000
0010
0100
0010
1000
0001
0000
0000
0000
0000
,  // measure 46
0000
0000
0000
0000
1000
0001
0000
0010
0000
0001
1000
0000
0010
0100
0000
0010
,  // measure 47
1000
0000
0001
0010
0001
1000
0000
0100
0010
0000
0100
0010
0000
0100
0000
0100
,  // measure 48
0000
1000
0001
0001
0100
0010
0000
1000
0000
0001
0010
0000
0001
1000
0000
0010
,  // measure 49
0100
0000
0001
1000
0001
0010
0000
0100
1000
0100
0010
0001
0000
0000
0000
0000
,  // measure 50
0000
0000
0000
0000
1000
0001
0000
0100
0000
0001
1000
0000
0001
0010
0000
0100
,  // measure 51
1000
0000
0010
0100
0010
1000
0000
0001
0010
0000
0001
0010
0000
0100
0000
0010
,  // measure 52
0001
1000
0001
0010
0100
0100
0100
0100
0001
1000
0001
0000
0100
0000
0001
1000
,  // measure 53
0010
1000
0001
0010
0100
0100
0100
0100
0001
1000
0001
0000
0100
0000
0001
1000
,  // measure 54
0001
0100
0010
1000
0100
0100
0100
0100
0001
1000
0001
0000
0100
0000
0001
1000
,  // measure 55
0010
0000
0000
1000
0000
0000
0001
0000
0000
0010
0000
0000
0100
0000
0000
0100
0000
0000
0100
0000
0000
0100
0000
0000
0001
0000
0000
1000
0000
0000
0001
0000
0000
0000
0000
0000
0100
0000
0000
0000
0000
0000
0001
0000
1000
0000
0001
0000
,  // measure 56
0100
0010
1000
0001
0100
0100
0100
0100
1000
0001
0010
0001
0100
0100
0100
0100
,  // measure 57
1000
0010
1000
0001
0100
0100
0100
0100
1000
0001
0010
0001
0100
0100
0100
0100
,  // measure 58
1000
0001
0100
0100
1000
0001
0010
0010
1000
0001
0100
0100
1000
0001
0010
0010
,  // measure 59
1000
0001
0000
0100
0000
0010
1000
0000
0001
0000
0010
0000
0100
0000
1000
0000
,  // measure 60
2002
0000
0000
3003
0000
0000
0001
0000
1000
0100
0000
0000
0140
0000
0000
0000
0000
0000
0031
0000
1000
0010
0000
0000
,  // measure 61
0400
0000
0000
0000
0000
0000
0000
0000
0000
0000
0000
0000
0301
0000
0000
0000
1000
0000
0100
0000
0000
0000
0000
0000
1010
0000
0000
0001
0000
0000
1000
0000
0000
0010
0000
0000
0100
0000
0000
0100
0000
0000
0100
0000
0000
0100
0000
0000
,  // measure 62
1000
0001
0100
0010
1100
0001
0010
0100
0000
1000
0100
0100
0011
1000
0100
0010
,  // measure 63
0000
0001
1000
0000
0101
1000
0010
0100
0001
0010
0000
0100
0000
1000
0001
0000
,  // measure 64
2002
0000
0000
3003
0000
0000
1000
0000
0001
0100
0000
0000
0140
0000
0000
0000
0000
0000
1030
0000
0001
0010
0000
0000
,  // measure 65
0400
0000
0000
0000
0000
0000
0000
0000
0000
0000
0000
0000
1300
0000
0000
0000
0001
0000
0100
0000
0000
0000
0000
0000
0011
0000
0000
1000
0000
0000
0001
0000
0000
0010
0000
0000
0100
0000
0000
0100
0000
0000
0100
0000
0000
0100
0000
0000
,  // measure 66
0002
0000
1003
0001
1010
0001
1000
0020
0100
0030
1000
0001
1100
0001
1000
0100
,  // measure 67
0010
0001
0000
1000
0000
0010
0100
0000
0001
0000
1000
0000
0100
0010
0001
0000
,  // measure 68
2002
3003
0000
0000
;

//---------------dance-single - ----------------
#NOTEDATA:;
#CHARTNAME:;
#STEPSTYPE:dance-single;
#DESCRIPTION:;
#CHARTSTYLE:;
#DIFFICULTY:Beginner;
#METER:1;
#RADARVALUES:0.134158,0.128749,0.000000,0.000000,0.000000,124.000000,124.000000,0.000000,0.000000,0.000000,0.000000,0.000000,0.000000,0.000000,0.134158,0.128749,0.000000,0.000000,0.000000,124.000000,124.000000,0.000000,0.000000,0.000000,0.000000,0.000000,0.000000,0.000000;
#CREDIT:Maxx;
#NOTES:
0000
0000
0000
0000
,
0000
0000
0000
0000
,
0000
0000
0000
0000
,
0000
0000
0000
0000
,
0001
0000
0001
0000
,
1000
0000
1000
0000
,
0001
0000
0001
0000
,
1000
0000
1000
0000
,
0010
0000
0010
0000
,
0010
0000
0010
0000
,
1000
0000
1000
0000
,
0001
0000
0000
0000
,
1000
0000
0001
0000
,
1000
0000
0001
0000
,
0010
0000
0100
0000
,
0010
0000
0100
0000
,
1000
0000
0001
0000
,
1000
0000
0001
0000
,
0100
0000
0010
0000
,
0100
0000
0010
0000
,
1000
0000
0001
0000
,
1000
0000
0001
0000
,
0010
0000
0100
0000
,
0010
0000
0100
0000
,
1000
0000
0001
0000
,
1000
0000
0001
0000
,
0100
0000
0010
0000
,
0100
0000
0010
0000
,
1000
0000
0001
0000
,
1000
0000
0001
0000
,
0010
0000
0100
0000
,
0010
0000
0100
0000
,
1000
0000
0001
0000
,
1000
0000
0001
0000
,
0100
0000
0010
0000
,
1000
0000
0000
0000
,
0001
0000
0001
0000
,
1000
0000
1000
0000
,
0100
0000
0010
0000
,
0100
0000
0010
0000
,
0001
0000
0001
0000
,
1000
0000
1000
0000
,
0010
0000
0100
0000
,
0010
0000
0100
0000
,
0001
0000
1000
0000
,
0001
0000
1000
0000
,
0000
0000
0001
0000
,
1000
0000
0001
0000
,
1000
0000
0100
0000
,
0010
0000
0100
0000
,
0000
0000
1000
0000
,
0001
0000
1000
0000
,
0010
0000
0010
0000
,
0100
0000
0100
0000
,
0010
0000
0010
0000
,
0100
0000
0100
0000
,
0001
0000
1000
0000
,
0001
0000
1000
0000
,
0100
0000
0010
0000
,
0001
0000
0000
0000
,
1000
0000
0001
0000
,
1000
0000
0001
0000
,
0100
0000
0010
0000
,
0100
0000
0010
0000
,
1000
0000
0001
0000
,
1000
0000
0001
0000
,
0010
0000
0100
0000
,
0010
0000
0100
0000
,
1000
0000
0000
0000
;

//---------------dance-single - ----------------
#NOTEDATA:;
#CHARTNAME:;
#STEPSTYPE:dance-single;
#DESCRIPTION:;
#CHARTSTYLE:;
#DIFFICULTY:Easy;
#METER:4;
#RADARVALUES:0.260744,0.283248,0.068161,0.022720,0.000000,241.000000,232.000000,9.000000,3.000000,0.000000,0.000000,0.000000,0.000000,0.000000,0.260744,0.283248,0.068161,0.022720,0.000000,241.000000,232.000000,9.000000,3.000000,0.000000,0.000000,0.000000,0.000000,0.000000;
#CREDIT:Maxx;
#NOTES:
0000
0000
0000
0000
,
0000
0000
0000
0000
,
0000
0000
0000
0000
,
0000
0000
0000
0000
,
0001
1000
0100
1000
,
0001
1000
0100
1000
,
0001
1000
0010
1000
,
0001
1000
0010
1000
,
0001
0001
1000
1000
,
0001
0001
1000
1000
,
0100
0010
0001
1000
,
0010
0000
0100
0000
,
1001
0001
1000
0001
,
1000
0001
1000
0001
,
0010
0100
1000
0001
,
0100
0010
1000
0001
,
1001
1000
0001
1000
,
0001
1000
0001
1000
,
0001
0010
0100
1000
,
0001
0100
0010
1000
,
1001
1000
0001
1000
,
0001
1000
0001
1000
,
0100
0010
0001
1000
,
0010
0100
0001
1000
,
1001
0001
1000
0001
,
1000
0001
1000
0001
,
0010
0100
1000
0001
,
0100
0010
1000
0001
,
1000
0100
1000
0100
,
0010
0001
0010
0001
,
1000
0010
1000
0010
,
0100
0001
0100
0001
,
1000
0000
0001
0000
,
0010
0000
0100
0000
,
2000
0000
0000
0000
,
3001
0000
1000
0000
,
1001
0001
0100
0001
,
1001
1000
0100
1000
,
0020
0000
0100
0000
,
1000
0000
0100
0000
,
1030
0001
1000
0001
,
0010
0100
0010
0100
,
2000
0000
0001
0000
,
0010
0000
0001
0000
,
3100
0010
0100
0010
,
0001
1000
0001
1000
,
0000
0000
0001
1000
,
0001
1000
0010
0100
,
0010
0100
0001
1000
,
0001
1000
0100
0010
,
0000
0000
0001
1000
,
0001
1000
0010
0100
,
0001
0001
1000
1000
,
0001
0001
1000
1000
,
0100
0100
0010
0010
,
0100
0100
0010
0010
,
0001
1000
0010
0100
,
0001
1000
0100
0010
,
0001
1000
0010
0100
,
0010
0000
1000
0000
,
1001
1000
0001
1000
,
0001
0010
0100
1000
,
0001
0100
0001
1000
,
0001
0100
0001
1000
,
1001
1000
0001
1000
,
0001
1000
0100
0010
,
0001
1000
0010
1000
,
0001
0010
0100
1000
,
1001
0000
0000
0000
;

//---------------dance-single - ----------------
#NOTEDATA:;
#CHARTNAME:;
#STEPSTYPE:dance-single;
#DESCRIPTION:;
#CHARTSTYLE:;
#DIFFICULTY:Medium;
#METER:6;
#RADARVALUES:0.345134,0.360497,0.083308,0.075735,0.000000,319.000000,308.000000,11.000000,10.000000,0.000000,0.000000,0.000000,0.000000,0.000000,0.345134,0.360497,0.083308,0.075735,0.000000,319.000000,308.000000,11.000000,10.000000,0.000000,0.000000,0.000000,0.000000,0.000000;
#CREDIT:Maxx;
#NOTES:
0000
0000
0000
0000
,
0000
0000
0000
0000
,
0000
0000
0000
0000
,
0000
0000
0000
0000
,
0001
0000
1000
0000
0100
0010
0100
0000
,
1000
0000
0001
0000
0100
0010
0100
0000
,
0001
0000
1000
0000
0100
0010
0100
0000
,
1000
0000
0001
0000
0100
0010
0100
0000
,
0001
0000
1000
0000
0100
0010
0001
0000
,
1000
0000
0010
0000
0100
0001
1000
0000
,
0001
0000
0010
0000
0100
1000
0001
0000
,
0100
0010
1000
0001
,
1001
0000
0001
1000
0100
0000
0001
1000
,
0100
0000
0001
1000
0000
0001
0000
0000
,
1000
0000
0001
0000
1000
0001
1000
0000
,
0010
0000
0100
0000
0001
1000
0001
0000
,
1001
0000
1000
0001
0100
0000
1000
0001
,
0100
0000
1000
0001
0100
0001
1000
0000
,
0100
0000
0010
0000
0100
1000
0001
0000
,
0100
0010
1000
0001
,
1001
0000
1000
0001
0010
0000
1000
0001
,
0010
0000
1000
0001
0010
0001
1000
0000
,
0100
0000
0010
0000
0001
1000
0010
0000
,
0100
0000
0001
0000
1000
0001
1000
0000
,
1001
0000
0001
1000
0010
0000
0001
1000
,
0010
0000
0001
1000
0010
1000
0001
0000
,
0010
0000
0100
0000
1000
0001
0100
0000
,
0010
0000
1000
0000
0001
1000
0100
0000
,
1000
0100
1000
0100
,
0010
0000
0001
0000
0010
0000
0001
1000
,
0010
1000
0010
1000
,
0001
0000
0100
0000
0001
0000
0100
0010
,
2000
0001
3002
0010
,
0023
0100
0230
1000
,
2300
0001
3002
0100
,
0103
0010
1000
0001
,
1001
0000
0001
0000
0100
0001
1000
0000
,
1001
0000
1000
0000
0100
1000
0001
0000
,
2000
0001
0010
3001
,
0002
1000
0010
1003
,
1001
0000
0001
0000
0100
0010
1000
0000
,
1001
0000
0001
0000
1000
0001
0010
0000
,
0002
1000
0100
1003
,
2000
0010
0001
3010
,
0100
0001
1000
0100
,
0010
0001
1000
0001
,
0000
1000
0010
0100
,
0010
0000
1000
0000
0001
1000
0001
1000
,
0001
0100
0010
1000
,
0001
0010
0100
1000
,
0000
0001
1000
0010
,
0100
0000
0010
0000
1000
0001
1000
0001
,
1000
0000
0001
0000
0010
0100
1000
0000
,
0001
0000
0100
0000
0010
1000
0001
0000
,
0010
0000
0100
0000
1000
0001
0100
0000
,
0010
0000
1000
0000
0001
1000
0100
0000
,
0010
0001
1000
0010
,
0100
0001
1000
0100
,
0010
0001
1000
0000
0010
1000
0001
0000
,
0010
0100
1000
0001
,
1001
0000
1000
0001
0100
0000
1000
0001
,
0100
0000
1000
0001
0000
1000
0000
0000
,
0001
0000
1000
0000
0100
0010
0001
0000
,
1000
0000
0001
0000
0100
0010
1000
0000
,
1001
0000
1000
0001
0010
0000
1000
0001
,
0010
0000
1000
0001
0010
0001
1000
0000
,
0010
0000
0100
0000
0001
1000
0100
0000
,
0010
0001
0100
0010
,
1001
0000
0000
0000
;

//---------------dance-single - ----------------
#NOTEDATA:;
#CHARTNAME:;
#STEPSTYPE:dance-single;
#DESCRIPTION:;
#CHARTSTYLE:;
#DIFFICULTY:Hard;
#METER:9;
#RADARVALUES:0.601549,0.594422,0.068161,0.272645,0.450621,556.000000,547.000000,9.000000,36.000000,10.000000,0.000000,1.000000,0.000000,0.000000,0.601549,0.594422,0.068161,0.272645,0.450621,556.000000,547.000000,9.000000,36.000000,10.000000,0.000000,1.000000,0.000000,0.000000;
#CREDIT:Maxx;
#NOTES:
0000
0000
0000
0000
,
0000
0000
0000
0000
,
0000
0000
0000
0000
,
0000
0000
0000
0000
,
0001
1000
0100
0010
0001
1000
0001
1000
,
0010
0100
0001
1000
0100
0010
0100
0010
,
0001
1000
0010
0100
0001
1000
0001
1000
,
0100
0010
0001
1000
0010
0100
0010
0100
,
0001
1000
0100
1000
0001
0100
0001
1000
,
0100
0010
0100
1000
0001
0100
0010
0100
,
0001
1000
0100
1000
0001
0100
0010
1000
,
0001
1000
0000
0100
0000
0010
0001
0000
1000
0000
0010
0000
0100
0000
0001
0000
,
2002
0000
0000
3003
0000
0000
0001
0000
1000
0100
0000
0000
0020
0000
0000
0000
0000
0000
0031
0000
1000
0010
0000
0000
,
0200
0000
0000
0000
0000
0000
0000
0000
0000
0000
0000
0000
0301
0000
0000
0000
1000
0000
0100
0000
0000
0000
0000
0000
0000
0000
0000
0000
0000
0000
1000
0000
0000
0000
0000
0000
0001
0000
0000
1000
0000
0000
0001
0000
0000
0000
0000
0000
,
0100
0010
1000
0001
0010
0100
0010
0001
,
1000
0010
0100
0010
1000
0100
0010
0001
,
2002
0000
0000
3003
0000
0000
1000
0000
0001
0100
0000
0000
0020
0000
0000
0000
0000
0000
1030
0000
0001
0010
0000
0000
,
0200
0000
0000
0000
0000
0000
1300
0000
0001
0100
0000
0000
1M00
0000
0001
0100
0000
0000
0010
0000
0000
1000
0000
0000
,
0001
0010
0100
0010
0001
1000
0010
0100
,
0010
1000
0000
0001
0000
0010
0100
0000
1000
0000
0001
0000
1000
0001
1000
0000
,
2002
0000
0000
3003
0000
0000
0001
0000
1000
0100
0000
0000
0020
0000
0000
0000
0000
0000
0031
0000
1000
0010
0000
0000
,
0200
0000
0000
0000
0000
0000
0000
0000
0000
0000
0000
0000
0301
0000
0000
0000
1000
0000
0100
0000
0000
0000
0000
0000
0M01
0000
0000
0000
1000
0000
0100
0000
0000
0000
0000
0000
1000
0000
0000
0001
0000
0000
1000
0000
0000
0000
0000
0000
,
0001
0100
0010
1000
0100
0010
0001
1000
,
0010
0100
0001
1000
0001
0010
0100
1000
,
2002
0000
0000
3003
0000
0000
1000
0000
0001
0100
0000
0000
0020
0000
0000
0000
0000
0000
1030
0000
0001
0010
0000
0000
,
0200
0000
0000
0000
0000
0000
0000
0000
0000
0000
0000
0000
1300
0000
0000
0000
0001
0000
0100
0000
0000
0000
0000
0000
1M00
0000
0000
0000
0001
0000
0100
0000
0000
0000
0000
0000
0001
0000
0000
1000
0000
0000
0001
0000
0000
0000
0000
0000
,
1000
0100
0010
0001
1000
0010
0100
0010
,
1000
0001
0000
0010
0000
0001
1000
0000
0010
0000
0100
0000
0004
0000
0000
0000
,
1003
0000
0100
0000
0010
0000
0001
0000
1000
0000
0010
0000
0100
0000
0010
0100
,
0010
0000
1000
0000
0001
0000
0010
0000
0100
0000
1000
0000
0001
0000
1000
0001
,
1000
0000
0001
0000
0100
0000
0010
0000
1000
0000
0001
0000
0010
0000
0100
0010
,
0100
0000
1000
0000
0001
0000
0100
0000
0010
0000
1000
0000
0001
0000
1000
0001
,
1000
0001
0100
0010
0000
1000
0001
0010
,
0100
2000
3002
0203
,
0301
1000
0100
0010
0001
1000
0010
0100
,
0001
1000
0000
0100
0000
1000
0001
0000
0100
0000
0010
0000
1000
0000
0001
0000
,
2002
0000
3003
0000
1000
0000
0001
0000
0100
00M0
0100
0000
1000
0000
0001
0000
,
0010
0M00
0010
0000
1000
0000
0001
0000
0100
00M0
0100
0000
1000
0000
0001
0000
,
0200
0000
0300
0000
0010
1000
0010
0000
1000
0000
0001
1000
0000
0001
1000
0000
,
0001
0000
1000
0000
0001
0010
0001
0000
1000
0000
0001
1000
0000
0001
1000
0000
,
2002
0000
3003
0000
0001
0000
1000
0000
0100
00M0
0100
0000
0001
0000
1000
0000
,
0010
0M00
0010
0000
0001
0000
1000
0000
0100
00M0
0100
0000
0001
0000
1000
0000
,
0200
0000
0300
0000
0010
0001
0010
0000
0001
0000
1000
0001
0000
1000
0001
0000
,
1000
0010
0100
0010
0000
1000
0100
1000
0000
0001
0100
0001
0000
1000
0100
1000
,
0002
0000
0003
0000
1000
0100
0000
1000
0000
0001
1000
0000
0001
0100
0000
0001
,
1000
0000
0001
0000
1000
0010
0000
1000
0001
0000
0010
0100
0000
0000
0000
0000
,
0000
0000
0000
0000
1000
0001
0000
0100
0000
0001
1000
0000
0010
1000
0000
0001
,
0010
0000
0100
0000
1000
0001
0000
1000
0010
0000
1000
0001
0000
1000
0000
1000
,
0000
0001
1000
0001
0100
0001
0000
1000
0000
0001
1000
0000
0001
0010
0000
0001
,
1000
0000
0100
0000
1000
0001
0000
1000
0010
0000
1000
0001
0000
0000
0000
0000
,
0000
0000
0000
0000
1000
0001
0000
1000
0000
0001
0100
0000
0001
1000
0000
0100
,
0010
0000
0001
0000
1000
0100
0000
1000
0001
0000
1000
0010
0000
0010
0000
1000
,
0001
0100
0010
1000
0001
0010
0100
0010
,
0001
1000
0010
0100
0001
1000
0100
1000
,
0001
0100
0010
1000
0001
0010
0100
0010
,
0001
1000
0010
0100
0001
1000
0100
0010
,
0001
0000
1000
0000
0100
0010
0100
0000
1000
0000
0001
0000
0100
0010
0100
0000
,
0001
0000
1000
0000
0001
0100
0001
0000
1000
0000
0001
0000
1000
0100
1000
0000
,
0001
0100
0010
1000
0001
0010
0100
1000
,
0001
0100
0000
0010
0000
1000
0001
0000
1000
0000
0100
0000
0010
0000
0001
0000
,
2002
0000
0000
3003
0000
0000
1000
0000
0001
0100
0000
0000
0020
0000
0000
0000
0000
0000
1030
0000
0001
0010
0000
0000
,
0200
0000
0000
0000
0000
0000
0000
0000
0000
0000
0000
0000
1300
0000
0000
0000
0001
0000
0100
0000
0000
0000
0000
0000
0010
0000
0000
0000
0000
0000
1000
0000
0000
0000
0000
0000
0001
0000
0000
1000
0000
0000
0001
0000
0000
0000
0000
0000
,
0010
0100
0010
0001
1000
0010
0100
0010
,
1000
0000
0001
0000
1000
0000
0100
0000
0010
0001
0000
0100
0000
0010
1000
0000
,
2002
0000
0000
3003
0000
0000
1000
0000
0001
0010
0000
0000
0200
0000
0000
0000
0000
0000
1300
0000
0001
0100
0000
0000
,
0020
0000
0000
0000
0000
0000
0000
0000
0000
0000
0000
0000
1030
0000
0000
0000
0001
0000
0010
0000
0000
0000
0000
0000
10M0
0000
0000
0000
0001
0000
0010
0000
0000
0000
0000
0000
0001
0000
0000
1000
0000
0000
0001
0000
0000
0000
0000
0000
,
1000
0010
0100
0001
1000
0100
0010
0001
,
1000
0001
0000
0100
0000
0001
1000
0000
0100
0000
0010
0000
0001
1000
0001
0000
,
2002
3003
0000
0000
;
