#TITLE:Abberate;
#SUBTITLE:;
#ARTIST:Shadient;
#TITLETRANSLIT:;
#SUBTITLETRANSLIT:;
#ARTISTTRANSLIT:;
#GENRE:Halftime;
#CREDIT:Feraligatr;
#BANNER:;
#BACKGROUND:Abberate-bg.png;
#LYRICSPATH:;
#CDTITLE:;
#MUSIC:Shadient - Abberate.ogg;
#OFFSET:0.009000;
#SAMPLESTART:44.151001;
#SAMPLELENGTH:17.280001;
#SELECTABLE:YES;
#DISPLAYBPM:125.000000;
#BPMS:0.000000=124.999992
,104.000000=249.999985
,105.000000=124.999992
,120.000000=249.999985
,121.000000=124.999992
,136.000000=249.999985
,137.000000=124.999992
,152.000000=249.999985
,153.000000=124.999992
,200.000000=249.999985
,201.000000=124.999992
,216.000000=249.999985
,217.000000=124.999992
,232.000000=249.999985
,233.000000=124.999992
,239.000000=187.500000
,240.000000=124.999992
,248.000000=249.999985
,249.000000=124.999992
;
#STOPS:104.000000=0.120000,
104.500000=0.120000,
120.000000=0.120000,
120.500000=0.120000,
136.000000=0.120000,
136.500000=0.120000,
152.000000=0.120000,
152.500000=0.120000,
200.000000=0.120000,
200.500000=0.120000,
216.000000=0.120000,
216.500000=0.120000,
232.000000=0.120000,
232.500000=0.120000,
239.000000=0.050000,
239.312500=0.070000,
239.750000=0.040000,
248.000000=0.120000,
248.500000=0.120000
;
#BGCHANGES:;
#KEYSOUNDS:;
#ATTACKS:;

//---------------dance-single - Feraligatr----------------
#NOTES:
     dance-single:
     Feraligatr:
     Challenge:
     9:
     0.619048,0.769886,0.477273,0.098485,0.651515,572.000000,485.000000,63.000000,13.000000,11.000000,24.000000,0.619048,0.769886,0.477273,0.098485,0.651515,572.000000,485.000000,63.000000,13.000000,11.000000,24.000000:
0000
0000
0000
0000
,
0000
0000
0000
0000
,
0000
0000
0000
0000
,
0000
0000
0000
0000
,
0000
0000
0000
0000
,
0000
0000
0000
0000
,
0000
0000
0000
0000
,
0000
0000
0000
0000
0000
0000
0000
0000
0000
0000
0000
0000
0000
0000
0000
0001
1000
0001
0100
0000
0000
0010
0000
0000
,
1000
0100
0000
1000
0100
0000
1000
0001
0000
1000
0001
0000
1000
0001
0000
1000
,
0001
0100
0000
0001
0100
0000
0001
0010
0000
0001
0010
0000
0001
0010
0000
0001
,
1000
0100
0000
1000
0100
0000
1000
0001
0000
1000
0001
0000
1000
0001
0000
1000
,
0001
0100
0000
0001
0100
0000
0001
0010
0000
0001
0010
0000
0001
0010
0000
0001
,
1000
0010
0000
1000
0010
0000
0100
0001
0000
0100
0001
0000
0100
0001
0000
1000
,
0001
0010
0000
0001
0010
0000
0100
1000
0000
0100
1000
0000
0100
1000
0000
0001
,
0100
0010
0000
0100
0010
0000
1000
0001
0000
1000
0001
0000
1000
0001
0000
1000
,
0100
0000
0000
0010
0000
0000
0000
0000
0000
0100
0000
0000
0010
0000
0000
0000
0000
0000
0001
0000
0000
1000
0000
0000
0000
0000
0000
0001
0000
0000
1000
0000
0010
0000
1000
0000
0001
0000
0000
0000
0000
0000
0010
0000
0000
0000
0000
0000
,
0110
0000
0000
0000
0100
1000
0010
0000
0100
0000
0000
0000
0001
0000
0001
1000
,
0001
0000
0000
0010
0000
0000
0100
0100
,
0100
0000
0000
0000
0010
0001
0100
0000
0010
0000
0000
0000
1000
0000
1000
0001
,
1000
0000
0000
0100
0000
0000
0010
0010
,
0010
0000
0000
0000
0001
0000
1000
0000
0000
0000
0010
0000
0100
0000
0001
1000
,
0100
0000
0010
0001
0000
1000
0001
0100
,
0010
0000
1000
0000
0000
0000
0010
0000
0100
0000
0000
0000
0001
0000
0010
0000
0100
0000
1000
0000
0000
0001
0000
0000
0100
0000
0000
0000
0010
0000
0000
0000
,
2010
0000
0000
0000
0000
0000
0000
0000
0000
3100
0100
0100
,
0120
0000
0000
0000
0031
1000
0010
0000
1110
0000
0000
0000
0000
0000
0001
0000
,
1000
0010
0100
0000
0001
0000
0010
0000
0111
0000
0000
0000
0000
0000
0100
0000
,
1100
0000
1100
0000
1000
0001
0100
0000
0111
0000
0000
0000
0000
0000
1000
0000
,
0001
0100
0010
0000
1000
0001
0010
0000
0111
0000
4000
0000
0000
0000
0000
3000
,
1002
0000
0000
0000
1003
0100
0010
0000
0111
0000
0000
0000
0000
0000
1000
0000
,
0001
0010
0100
0000
1000
0000
0010
0000
1110
0000
0000
0000
0000
0000
0100
0000
,
0101
0000
0101
0000
0001
1000
0100
0000
1110
0000
0000
0000
0000
0000
0001
0000
,
1000
0010
0100
0000
0001
1000
0100
0000
1110
0000
0001
0000
0002
0000
0000
0003
,
2001
0000
0000
0000
3010
0100
0001
0000
111M
0000
0000
0000
0000
0000
0001
0000
,
1000
0100
0010
0000
0001
0000
0100
0000
1M11
0000
0000
0000
0000
0000
0001
0000
,
0101
0000
0101
0000
1000
0001
0010
0000
0111
0000
0000
1000
0100
0000
1000
0000
,
0001
0100
0010
0000
1000
0001
0010
0000
11M1
0000
4000
0000
0000
0000
0000
3000
,
1002
0000
0000
0000
0103
0010
1000
0000
1011
0000
0000
0000
0000
0000
1000
0000
,
0001
0010
0100
0000
1000
0000
0010
0000
1110
0000
0000
0000
0000
0000
0001
0000
,
0101
0000
0101
0000
1000
0001
0010
0000
0111
0000
0000
0000
0000
0000
1000
0000
,
0001
0100
0001
0100
0001
0100
0001
0000
1101
0000
0000
0000
0000
0000
0000
0000
,
1000
0100
0000
1000
0100
0000
0010
0001
0000
0010
0001
0000
0010
0001
0000
1000
,
0001
0100
0000
0001
0100
0000
0010
1000
0000
0010
1000
0000
0010
1000
0000
0001
,
0010
0100
0000
0010
0100
0000
1000
0001
0000
1000
0001
0000
1000
0001
0000
1000
,
0010
0000
0000
0100
0000
0000
0000
0000
0000
0010
0000
0000
0100
0000
0000
0000
0000
0000
0001
0000
0000
1000
0000
0000
0000
0000
0000
0001
0000
0000
1000
0000
0100
0000
1000
0000
0001
0000
0000
0000
0000
0000
0100
0000
0000
0000
0000
0000
,
0010
0000
0000
0000
0100
0001
0010
0000
0100
0000
0000
0000
1000
0000
0000
0000
,
0001
0000
0000
0100
0000
0000
0001
0000
,
1000
0000
0000
0010
0000
0000
0100
0000
0000
0001
0000
0000
1000
0000
0000
0100
,
0020
0000
0000
0000
0000
0000
0000
0000
0000
0000
0000
0000
0034
0000
0000
0003
,
2001
0000
0000
0000
0000
0000
0000
0000
0000
0000
0000
0000
3040
0000
0000
0030
0000
0000
0000
0000
0000
0000
0000
0000
1110
0000
0000
0000
0000
0000
0000
0000
0000
0000
0000
0000
0000
0000
0000
0000
0000
0000
1000
0000
0001
0000
1000
0000
,
0100
0000
0000
0010
0000
0000
0001
0000
1000
0000
0001
0000
0100
0000
0000
0010
0000
0000
1000
0000
0000
0100
0000
0000
1010
0000
0000
0000
0000
0000
0000
0000
0000
0000
0000
0000
0000
0000
0000
0000
0000
0000
0004
0000
0000
0003
0000
0000
,
1001
0000
0000
1001
0000
0000
0101
0000
0000
0000
0000
0000
0111
0000
0000
0000
0000
0000
0000
0000
0000
0001
1000
0001
,
0010
0000
0000
0100
0000
0000
1000
0000
0001
0000
1000
0000
0010
0000
0000
0100
0000
0000
0001
0000
0000
0010
0000
0000
0101
0000
0000
0000
0000
0000
0000
0000
0000
0000
0000
0000
2000
0000
0000
0000
0000
0000
0000
0000
0000
3000
0000
0000
,
1002
0000
0000
0000
0000
0000
0000
0000
0000
0000
0000
0000
0403
0000
0000
0300
0000
0000
0000
0000
0000
0000
0000
0000
0111
0000
0000
0000
0000
0000
0000
0000
0000
0000
0000
0000
0000
0000
0000
0000
0000
0000
0001
0000
1000
0000
0001
0000
,
0100
0000
0000
0010
0000
0000
1000
0000
0001
0000
1000
0000
0100
0000
0000
0010
0000
0000
0001
0000
0000
0100
0000
0000
0011
0000
0000
0000
0000
0000
0000
0000
0000
0000
0000
0000
0000
0000
0000
0000
0000
0000
4000
0000
0000
3000
0000
0000
,
1001
0000
0000
1001
0000
0000
1100
0000
0000
0000
0000
0000
1110
0000
0000
0000
0000
0000
0000
0000
0000
1000
0001
1000
,
0010
0000
0000
0100
0000
0000
0001
0000
1000
0000
0001
0000
0010
0000
0000
0100
0000
0000
1000
0000
0000
0010
0000
0000
1100
0000
0000
0000
0000
0000
0000
0000
0000
0000
0000
0000
0000
0000
0000
0000
0000
0000
0004
0000
0000
0003
0000
0000
,
2001
0000
0000
0000
0000
0000
0000
0000
0000
0000
0000
0000
3040
0000
0000
0030
0000
0000
0000
0000
0000
0000
0000
0000
11M1
0000
0000
0000
0000
0000
0000
0000
0000
0000
0000
0000
0000
0000
0000
0000
0000
0000
0001
0000
0100
0000
0010
0000
,
1000
0000
0000
0001
0000
0000
1000
0000
0100
0000
0010
0000
0001
0000
0000
1000
0000
0000
0010
0000
0000
0100
0000
0000
M011
0000
0000
0000
0000
0000
0000
0000
0000
0000
0000
0000
0000
0000
0000
0000
0000
0000
0100
0000
0000
0000
0000
0000
,
0110
0000
0000
0110
0000
0000
1010
0000
0000
0000
0000
0000
M111
0000
0000
0000
0000
0000
0000
0000
0000
1000
0100
0010
,
0001
0000
0000
0000
0000
0000
0000
0000
0000
0000
0000
0000
1000
0000
0000
0000
0000
0000
0000
0000
0000
0000
0000
0000
0001
0000
0000
0000
0000
0000
0000
0000
0100
0000
0000
0000
0000
0000
0000
0000
0010
0000
0000
0000
0000
0000
0000
0000
1000
0000
0000
0000
0000
0000
0000
0000
0000
0000
0000
0000
0001
0000
0000
0000
0000
0000
0000
0000
0000
0000
0000
0000
0010
0000
0000
0000
0000
0000
0000
0000
0000
0000
0000
0000
0100
0000
0000
0000
0000
0000
0000
0000
0000
0000
0000
0000
101M
0000
0000
0000
0000
0000
0000
0000
0000
0000
0000
0000
0000
0000
0000
0000
0000
0000
0000
0000
0000
0000
0000
0000
0000
0000
0000
0000
0000
0000
0000
0000
0000
0000
0000
0000
0000
0000
0000
0000
0000
0000
0000
0000
0000
0000
0000
0000
0001
0000
0000
0000
0000
0000
0000
0000
0000
0000
0000
0000
0000
0000
0000
0100
0000
0000
0000
0000
0000
0000
0000
0000
0000
0000
0000
0000
0000
0000
0000
0000
0000
0000
0000
0000
0010
0000
0000
0000
0000
0000
0000
0000
0000
0000
0000
0000
,
1020
0000
0000
0000
0000
0000
0000
0000
0000
0000
0000
0000
0430
0000
0000
0300
0000
0000
0000
0000
0000
0000
0000
0000
1M11
0000
0000
0000
0000
0000
0000
0000
0000
0000
0000
0000
0000
0000
0000
0000
0000
0000
1000
0000
0100
0000
0010
0000
,
0001
0000
0000
1000
0000
0000
0001
0000
0100
0000
0010
0000
1000
0000
0000
0001
0000
0000
0010
0000
0000
0100
0000
0000
101M
0000
0000
0000
0000
0000
0000
0000
0000
0000
0000
0000
0000
0000
0000
0000
0000
0000
0100
0000
0000
0000
0000
0000
,
0110
0000
0000
0110
0000
0000
0011
0000
0000
0000
0000
0000
111M
0000
0000
0000
0000
0000
0000
0000
0000
0001
0100
0010
,
1000
0000
0000
0001
0000
0000
1000
0000
0100
0000
0010
0000
0001
0000
0000
1000
0000
0000
0010
0000
0000
0100
0000
0000
M011
0000
0000
0000
0000
0000
1000
0000
0100
0000
1000
0000
0001
0000
0000
0000
0000
0000
0100
0000
0000
0000
0000
0000
,
0120
0100
0100
0100
,
0100
0100
0100
0100
,
0100
0100
0100
0100
,
0100
0100
0100
0130
;

//---------------dance-single - Feraligatr----------------
#NOTES:
     dance-single:
     Feraligatr SH:
     Hard:
     8:
     0.485931,0.590246,0.250000,0.098485,0.488636,449.000000,416.000000,33.000000,13.000000,3.000000,0.000000,0.485931,0.590246,0.250000,0.098485,0.488636,449.000000,416.000000,33.000000,13.000000,3.000000,0.000000:
0000
0000
0000
0000
,
0000
0000
0000
0000
,
0000
0000
0000
0000
,
0000
0000
0000
0000
,
0000
0000
0000
0000
,
0000
0000
0000
0000
,
0000
0000
0000
0000
,
0000
0000
0000
0000
,
1000
0100
0000
1000
0100
0000
1000
0001
0000
1000
0001
0000
1000
0001
0000
0100
,
0010
1000
0000
0010
1000
0000
0001
0010
0000
0001
0010
0000
0001
0010
0000
0100
,
1000
0001
0000
1000
0001
0000
0100
0001
0000
0100
0001
0000
0100
0001
0000
0100
,
0010
1000
0000
0010
1000
0000
0001
0010
0000
0001
0010
0000
0001
0010
0000
0001
,
1000
0010
0000
1000
0010
0000
0100
0001
0000
0100
0001
0000
0100
0001
0000
0100
,
0001
1000
0000
0001
1000
0000
0100
0010
0000
0100
0010
0000
0100
0010
0000
0001
,
1000
0010
0000
1000
0010
0000
1000
0001
0000
1000
0001
0000
1000
0001
0000
1000
,
0100
0010
0000
0100
0010
0000
0001
1000
0000
0001
1000
0000
0001
1000
0000
0010
,
0100
0000
0000
0000
0001
1000
0001
0000
0010
0000
0000
0000
0100
0000
1000
0001
,
1000
0000
0000
0010
0000
0000
0100
0001
,
0100
0000
0000
0000
0010
1000
0010
0000
0100
0000
0000
0000
0001
0000
1000
0100
,
1000
0000
0000
0001
0000
0000
0100
0010
,
0100
0000
0000
0000
0001
0000
1000
0000
0000
0000
1000
0000
0100
0000
0010
0001
,
0010
0000
0100
1000
0000
1000
0001
0100
,
0010
0000
0000
1000
0000
0000
0001
0010
0001
0010
0000
0000
0100
0000
1000
0000
,
0002
0000
0000
0000
0000
0000
0000
0000
0000
0000
0000
0000
0403
0000
0000
0300
,
0102
0000
0000
0000
1003
0100
1000
0000
0101
0000
0000
0000
0000
0000
0000
0000
,
1000
0010
1000
0000
0100
0000
0010
0000
0101
0000
0000
0000
0000
0000
0000
0000
,
1000
0000
1000
0000
0001
0100
0001
0000
1100
0000
0000
0000
0000
0000
0000
0000
,
0001
0010
0001
0000
0100
0000
0010
0000
1100
0000
0004
0000
0000
0000
0000
0003
,
0201
0000
0000
0000
0310
1000
0010
0000
1100
0000
0000
0000
0000
0000
0000
0000
,
0001
0010
0001
0000
0100
0000
0010
0000
1100
0000
0000
0000
0000
0000
0000
0000
,
0001
0000
0001
0000
1000
0100
1000
0000
0101
0000
0000
0000
0000
0000
0000
0000
,
1000
0010
1000
0000
0100
0000
0010
0000
0101
0000
1000
0000
2000
0000
0000
3000
,
1002
0000
0000
0000
0013
0100
1000
0000
0011
0000
0000
0000
0000
0000
0000
0000
,
1000
0001
0010
0000
0100
0000
1000
0000
0011
0000
0000
0000
0000
0000
0000
0000
,
1000
0000
1000
0000
0001
0100
0001
0000
1100
0000
0000
0001
0100
0000
0000
0000
,
0001
1000
0100
0000
0010
0000
0001
0000
1100
0000
0002
0000
0000
0000
0000
0003
,
2001
0000
0000
0000
3001
0010
0001
0000
1010
0000
0000
0000
0000
0000
0000
0000
,
0001
0100
0001
0000
0010
0000
0100
0000
1010
0000
0000
0000
0000
0000
0000
0000
,
0001
0000
0001
0000
1000
0010
1000
0000
0011
0000
0000
0000
0000
0000
0000
0000
,
1000
0100
1000
0100
1000
0100
1000
0000
0101
0000
0000
0000
0000
0000
0000
0000
,
1000
0100
0000
1000
0100
0000
0010
0001
0000
0010
0001
0000
0010
0001
0000
0010
,
0001
1000
0000
0001
1000
0000
0010
0100
0000
0010
0100
0000
0010
0100
0000
0001
,
1000
0100
0000
1000
0100
0000
1000
0001
0000
1000
0001
0000
1000
0001
0000
1000
,
0010
0100
0000
0010
0100
0000
0001
1000
0000
0001
1000
0000
0001
1000
0000
0100
,
0010
0000
0000
0000
0001
1000
0001
0000
0100
0000
0000
0000
0010
0000
0000
0000
,
1000
0000
0000
0001
0000
0000
0010
0000
,
0100
0000
0000
1000
0000
0000
0001
0000
0000
0100
0000
0000
0010
0000
0000
1000
,
0200
0000
0000
0000
0000
0000
0000
0000
0000
0000
0000
0000
0340
0000
0000
0030
,
0210
0000
1300
0000
0101
0000
0000
4000
,
3001
0010
0400
0000
1300
0001
1000
0001
0100
0000
0000
0000
0000
0000
0000
0000
,
0010
0010
1000
0000
0011
0000
0000
4000
,
3001
0100
0040
0000
1030
0001
1000
0001
0010
0000
0000
0000
0002
0000
0000
0003
,
2001
0000
3100
0000
1010
0000
0000
0004
,
1003
0010
0400
0000
0301
1000
0001
1000
0100
0000
0000
0000
0000
0000
0000
0000
,
0010
0010
0001
0000
1010
0000
0000
0004
,
1003
0100
0040
0000
0031
1000
0001
1000
0010
0000
0000
0000
0000
0000
0400
0300
,
0102
0000
1003
0000
0101
0000
0000
4000
,
3100
0010
0004
0000
1003
0010
1000
0010
0100
0000
0000
0000
0000
0000
0000
0000
,
0010
0010
1000
0000
0101
0000
0000
4000
,
3010
0000
0000
0000
0100
0000
0000
0000
0004
0000
0000
0000
0000
0000
0000
0000
1003
0000
0000
0000
0100
0000
0000
0000
1000
0000
0000
0000
0100
0000
0000
0000
0010
0000
0000
0000
0000
0000
0000
0000
0000
0000
0000
0000
0000
0000
0000
0000
M000
0000
0000
0000
0000
000M
0000
0000
0000
0000
0000
0000
M000
0000
0000
0000
,
2010
0000
3001
0000
1010
0000
0000
0004
,
0013
0100
4000
0000
3001
0100
0001
0100
0010
0000
0000
0000
0000
0000
0000
0000
,
0100
0100
0001
0000
1010
0000
0000
0004
,
0103
0010
4000
0000
3001
0010
0001
0010
0100
0000
0000
0000
0010
0000
0001
0000
,
1001
1000
0001
1000
,
0001
1000
0001
1000
,
0001
1000
0001
1000
,
0001
1000
0001
1000
;

//---------------dance-single - Feraligatr----------------
#NOTES:
     dance-single:
     Feraligatr SM:
     Medium:
     6:
     0.296537,0.359280,0.189394,0.090909,0.022727,274.000000,249.000000,25.000000,12.000000,0.000000,0.000000,0.296537,0.359280,0.189394,0.090909,0.022727,274.000000,249.000000,25.000000,12.000000,0.000000,0.000000:
0000
0000
0000
0000
,
0000
0000
0000
0000
,
0000
0000
0000
0000
,
0000
0000
0000
0000
,
0000
0000
0000
0000
,
0000
0000
0000
0000
,
0000
0000
0000
0000
,
0000
0000
0000
0000
,
1000
0000
0001
0000
0010
0000
0100
1000
,
0001
0000
0100
0000
0010
0000
1000
0001
,
0010
0000
0100
0000
1000
0000
0001
0100
,
0010
0000
1000
0000
0001
0000
0010
0100
,
1000
0000
0001
0000
0100
0000
0001
1000
,
0100
0000
0010
0000
0100
0000
1000
0001
,
0100
0000
0010
0000
1000
0000
0001
0010
,
0100
0000
0010
0000
0001
0000
1000
0010
,
0100
0000
0010
1000
0100
0000
0010
0001
,
1000
0000
0000
0001
0000
0000
0100
0001
,
1000
0000
0100
1000
0010
0000
0100
0001
,
1000
0000
0000
0100
0000
0000
0010
0001
,
1000
0000
0010
1000
0000
0001
0010
0001
,
0010
0000
0100
1000
0000
0001
0100
0010
,
1000
0000
0000
0000
0000
0000
0001
0000
0000
0000
0000
0000
4000
0000
0000
0000
0000
0000
0000
0000
0000
3000
0000
0000
0100
0000
0000
0000
1000
0000
0000
0000
,
0020
0000
0000
0000
0000
0000
0000
0000
0000
0000
0000
0000
0230
0000
0000
0300
,
0102
0000
1003
0100
0010
0000
0000
0000
,
0001
0100
0010
0001
0010
0000
0000
0000
,
1000
1000
0100
0010
0001
0000
0000
0000
,
1000
0010
0100
1000
0100
0000
0000
0000
,
0201
0000
0301
1000
0100
0000
0000
0000
,
1000
0010
0100
1000
0100
0000
0000
0000
,
0001
0001
0010
0100
1000
0000
0000
0000
,
0001
0100
0010
0001
0010
0100
0100
0000
,
2010
0000
3001
0010
1000
0000
0000
0000
,
0010
0100
1000
0010
0001
0000
0000
0000
,
1000
1000
0100
0010
0001
0000
0000
0000
,
0100
0001
1000
0100
0001
0000
0000
0000
,
0210
0000
1300
0010
0100
0000
0000
0000
,
0001
0010
0100
0001
0100
0000
0000
0000
,
1000
1000
0010
0100
0001
0000
0000
0000
,
4000
0000
3100
0000
,
1000
0000
0100
1000
0010
0000
0100
0001
,
1000
0000
0100
0000
0010
0000
0001
1000
,
0010
0000
0100
0001
0010
0000
0100
1000
,
0001
0000
0100
0000
0010
0000
1000
0001
,
0010
0000
0000
0100
0000
0000
1000
0000
,
0001
0000
0000
0100
0000
0000
0001
0000
,
1000
0000
0000
0100
0000
0000
1000
0000
0000
0001
0000
0000
1000
0000
0000
0010
,
0200
0000
0000
0000
0000
0000
0000
0000
0000
0000
0000
0000
0302
0000
0000
0003
,
2001
0000
3100
0000
0011
0000
0000
4000
,
0000
0000
3001
0000
0400
0000
0000
0300
1010
0000
0000
0000
0000
0000
0000
0000
,
0001
0001
0010
0000
1100
0000
0000
0004
,
0000
0000
4003
0000
0000
3400
0000
0300
0011
0000
0000
0000
0000
0000
0000
0000
,
2001
0000
3010
0000
0101
0000
0000
4000
,
0000
0000
3001
0000
0040
0000
0000
0030
1100
0000
0000
0000
0000
0000
0000
0000
,
0001
0001
0100
0000
1010
0000
0000
0004
,
0000
0000
0043
0000
0000
0000
0000
0030
1100
0000
0000
0000
0000
0000
0000
0000
,
0120
0000
0031
0000
1010
0000
0000
0004
,
0000
0000
0013
0000
0400
0000
0000
0300
0011
0000
0000
0000
0000
0000
0000
0000
,
1000
1000
0010
0000
0101
0000
0000
4000
,
0000
0000
3004
0000
0000
0043
0000
0030
1100
0000
0000
0000
0000
0000
0000
0000
,
0210
0000
1300
0000
0101
0000
0000
4000
,
0000
0000
3001
0000
0040
0000
0000
0030
1100
0000
0000
0000
0000
0000
0000
0000
,
0001
0001
0100
0000
1010
0000
0000
0004
,
0000
0000
0043
0000
0000
0000
0000
0030
1100
0000
0000
0000
0000
0000
0000
0000
,
1004
0000
0000
0000
,
0000
0000
0000
0000
,
0000
0000
0000
0000
,
0000
0000
0000
0003
;

//---------------dance-single - Feraligatr----------------
#NOTES:
     dance-single:
     Feraligatr SE:
     Easy:
     5:
     0.238095,0.307955,0.318182,0.068182,0.007576,220.000000,178.000000,42.000000,9.000000,0.000000,0.000000,0.238095,0.307955,0.318182,0.068182,0.007576,220.000000,178.000000,42.000000,9.000000,0.000000,0.000000:
// measure 0
0000
0000
0000
0000
,  // measure 1
0000
0000
0000
0000
,  // measure 2
0000
0000
0000
0000
,  // measure 3
0000
0000
0000
0000
,  // measure 4
0000
0000
0000
0000
,  // measure 5
0000
0000
0000
0000
,  // measure 6
0000
0000
0000
0000
,  // measure 7
0000
0000
0000
0000
,  // measure 8
1000
0000
0001
0000
,  // measure 9
0100
0000
0001
0000
,  // measure 10
1000
0000
0100
0000
,  // measure 11
0010
0000
0100
0000
,  // measure 12
1000
0000
0001
0000
,  // measure 13
0100
0000
0010
0000
,  // measure 14
0100
0000
0001
0000
,  // measure 15
1000
0000
0100
0010
,  // measure 16
0001
1000
1000
0010
,  // measure 17
0100
0000
0000
0001
0000
0000
1000
0001
,  // measure 18
1000
0100
0100
0010
,  // measure 19
0001
0000
0000
1000
0000
0000
0001
1000
,  // measure 20
0001
0100
0100
0000
,  // measure 21
0010
1000
1000
0000
,  // measure 22
0001
0010
0010
0100
,  // measure 23
2100
0000
0000
0000
0000
0000
0000
0000
0000
0000
0000
0000
3020
0000
0000
0030
,  // measure 24
0110
0001
1001
0000
,  // measure 25
1000
0100
0110
0000
,  // measure 26
0001
0001
0100
0000
0110
0000
0000
0000
,  // measure 27
0001
1000
1100
0000
,  // measure 28
1001
0001
0101
0000
,  // measure 29
1000
0100
0110
0000
,  // measure 30
1000
1000
0001
0000
0101
0000
0000
0000
,  // measure 31
1000
0010
0110
0000
,  // measure 32
1001
0010
1100
0000
,  // measure 33
0001
0100
1010
0000
,  // measure 34
0001
0001
0010
0000
0110
0000
0000
0000
,  // measure 35
1000
0010
0101
0000
,  // measure 36
1001
1000
1100
0000
,  // measure 37
0001
0010
0110
0000
,  // measure 38
0001
0001
0100
0000
0110
0000
0000
0000
,  // measure 39
1000
1000
1001
0000
,  // measure 40
0001
0010
0010
0000
,  // measure 41
0100
0000
1000
0000
,  // measure 42
0001
0100
0100
0000
,  // measure 43
0010
0000
1000
0000
,  // measure 44
0001
0010
0010
0100
,  // measure 45
1000
0000
0001
0000
,  // measure 46
0100
0010
0010
1000
,  // measure 47
0200
0000
0000
0000
0000
0000
0000
0000
0000
0000
0000
0000
0320
0000
0000
0030
,  // measure 48
0011
0000
1000
0000
1001
0000
0000
0001
,  // measure 49
0000
0100
0001
0000
1001
0000
0000
0000
,  // measure 50
1000
1000
0100
0000
0110
0000
0000
0001
,  // measure 51
0000
0000
1000
0000
0000
0010
0000
0000
0110
0000
0000
0000
0000
0000
0000
0000
,  // measure 52
1001
0000
0001
0000
0011
0000
0000
1000
,  // measure 53
0000
0010
1000
0000
1001
0000
0000
0000
,  // measure 54
0001
0001
0010
0000
0110
0000
0000
2000
,  // measure 55
0000
0000
0002
0000
0000
0000
0000
3003
1001
0000
0000
0000
0000
0000
0000
0000
,  // measure 56
0101
0000
0100
0000
1010
0000
0000
1000
,  // measure 57
0000
0100
1000
0000
0011
0000
0000
0000
,  // measure 58
1000
1000
0010
0000
0101
0000
0000
1000
,  // measure 59
0000
0000
0001
0000
0000
0010
0000
0000
0110
0000
0000
0000
0000
0000
0000
0000
,  // measure 60
1100
0000
0100
0000
0011
0000
0000
1000
,  // measure 61
0000
0010
1000
0000
0101
0000
0000
0000
,  // measure 62
1000
1000
0100
0000
0011
0000
0000
2000
,  // measure 63
0000
0000
0002
0000
0000
0000
0000
3003
1001
0000
0000
0000
0000
0000
0000
0000
,  // measure 64
0120
0000
0000
0000
,  // measure 65
0000
0000
0000
0000
,  // measure 66
0000
0000
0000
0000
,  // measure 67
0000
0000
0000
0030
;

//---------------dance-single - Feraligatr----------------
#NOTES:
     dance-single:
     Feraligatr SN:
     Beginner:
     2:
     0.123377,0.179640,0.128788,0.022727,0.000000,114.000000,97.000000,17.000000,3.000000,0.000000,0.000000,0.123377,0.179640,0.128788,0.022727,0.000000,114.000000,97.000000,17.000000,3.000000,0.000000,0.000000:
// measure 0
0000
0000
0000
0000
,  // measure 1
0000
0000
0000
0000
,  // measure 2
0000
0000
0000
0000
,  // measure 3
0000
0000
0000
0000
,  // measure 4
0000
0000
0000
0000
,  // measure 5
0000
0000
0000
0000
,  // measure 6
0000
0000
0000
0000
,  // measure 7
0000
0000
0000
0000
,  // measure 8
1000
0000
0000
0000
,  // measure 9
0001
0000
0000
0000
,  // measure 10
0100
0000
0000
0000
,  // measure 11
0010
0000
0000
0000
,  // measure 12
1000
0000
0000
0000
,  // measure 13
0001
0000
0000
0000
,  // measure 14
0010
0000
0000
0000
,  // measure 15
0100
0000
0000
0000
,  // measure 16
1000
0001
0001
0000
,  // measure 17
0100
0000
0000
0000
,  // measure 18
0010
1000
1000
0000
,  // measure 19
0001
0000
0000
0000
,  // measure 20
0010
0100
0100
0000
,  // measure 21
1000
0001
0001
0000
,  // measure 22
0100
0010
0010
0000
,  // measure 23
2000
0000
0000
3000
,  // measure 24
1001
0000
1000
0000
,  // measure 25
0001
0000
0010
0000
,  // measure 26
0100
0000
1000
0000
,  // measure 27
0001
0000
0100
0000
,  // measure 28
0110
0000
1000
0000
,  // measure 29
0001
0000
0010
0000
,  // measure 30
0100
0000
1000
0000
,  // measure 31
0001
0000
0100
0000
,  // measure 32
0110
0000
1000
0000
,  // measure 33
0001
0000
1000
0000
,  // measure 34
0100
0000
0010
0000
,  // measure 35
0001
0000
1000
0000
,  // measure 36
1001
0000
0001
0000
,  // measure 37
0100
0000
0010
0000
,  // measure 38
1000
0000
0001
0000
,  // measure 39
0010
0000
0100
0000
,  // measure 40
1000
0000
0000
0000
,  // measure 41
0001
0000
0000
0000
,  // measure 42
0100
0000
0000
0000
,  // measure 43
0010
0000
0000
0000
,  // measure 44
1000
0100
0100
0000
,  // measure 45
0010
0001
0001
0000
,  // measure 46
1000
0001
0001
0000
,  // measure 47
0200
0000
0000
0300
,  // measure 48
0110
0000
1000
0000
,  // measure 49
0000
0000
1001
0000
,  // measure 50
0001
0000
0010
0000
,  // measure 51
0000
0000
0110
0000
,  // measure 52
1001
0000
0001
0000
,  // measure 53
0000
0000
0110
0000
,  // measure 54
1000
0000
0001
0000
,  // measure 55
0000
0000
1001
0000
,  // measure 56
0110
0000
0001
0000
,  // measure 57
0000
0000
1001
0000
,  // measure 58
1000
0000
0010
0000
,  // measure 59
0000
0000
0110
0000
,  // measure 60
1001
0000
1000
0000
,  // measure 61
0000
0000
1001
0000
,  // measure 62
0001
0000
0010
0000
,  // measure 63
0000
0000
0110
0000
,  // measure 64
2001
0000
0000
0000
,  // measure 65
0000
0000
0000
0000
,  // measure 66
0000
0000
0000
0000
,  // measure 67
0000
0000
0000
3000
;
