#VERSION:0.83;
#TITLE:ALONE;
#SUBTITLE:[In The Dark];
#ARTIST:DXFZ & FZCPHRXX;
#TITLETRANSLIT:;
#SUBTITLETRANSLIT:;
#ARTISTTRANSLIT:;
#GENRE:;
#ORIGIN:;
#CREDIT:;
#BANNER:alone-bn.png;
#BACKGROUND:alone-bg.png;
#PREVIEWVID:;
#JACKET:;
#CDIMAGE:;
#DISCIMAGE:;
#LYRICSPATH:;
#CDTITLE:;
#MUSIC:ALONE.ogg;
#OFFSET:1.608000;
#SAMPLESTART:89.570000;
#SAMPLELENGTH:12.800000;
#SELECTABLE:YES;
#DISPLAYBPM:150.000000;
#BPMS:0.000=150.016;
#STOPS:;
#DELAYS:;
#WARPS:;
#TIMESIGNATURES:0.000=4=4;
#TICKCOUNTS:0.000=4;
#COMBOS:0.000=1;
#SPEEDS:0.000=1.000=0.000=0;
#SCROLLS:0.000=1.000;
#FAKES:;
#LABELS:0.000=Song Start;
#BGCHANGES:;
#KEYSOUNDS:;
#ATTACKS:
;

//---------------dance-single - Maxx----------------
#NOTEDATA:;
#CHARTNAME:Maxx;
#STEPSTYPE:dance-single;
#DESCRIPTION:Maxx;
#CHARTSTYLE:;
#DIFFICULTY:Challenge;
#METER:12;
#RADARVALUES:0.862492,0.972739,0.617950,0.063926,1.029917,850.000000,755.000000,87.000000,9.000000,40.000000,9.000000,0.000000,0.000000,0.000000,0.862492,0.972739,0.617950,0.063926,1.029917,850.000000,755.000000,87.000000,9.000000,40.000000,9.000000,0.000000,0.000000,0.000000;
#CREDIT:Maxx;
#DISPLAYBPM:150.000000;
#NOTES:
// measure 0
0000
0000
0000
0000
,  // measure 1
0000
0000
0000
0000
,  // measure 2
0000
0000
0000
0000
,  // measure 3
0000
0000
0000
0000
,  // measure 4
0000
0000
0000
0000
,  // measure 5
0000
0000
0000
0000
,  // measure 6
0000
0000
0000
0000
,  // measure 7
0000
0000
0000
0000
,  // measure 8
0000
0000
0000
0000
,  // measure 9
0001
1000
0001
0100
0010
1000
0001
0010
0000
001M
1000
0001
0010
0100
0100
0100
,  // measure 10
1000
0001
1000
0100
0010
0001
1000
0010
0000
M010
0001
1000
0010
0100
0100
0100
,  // measure 11
0001
0010
0001
0010
0100
1000
0100
1000
0001
0100
0001
0100
010M
1000
0100
1000
,  // measure 12
0001
0100
0001
0100
010M
1000
0100
1000
0001
0010
0001
0010
001M
1000
0010
1000
,  // measure 13
0001
0100
0010
1000
0001
1000
0100
0010
0000
001M
1000
0001
0010
0100
0100
0100
,  // measure 14
1000
0001
1000
0100
0010
0001
1000
0010
0000
M010
0001
1000
0010
0100
0100
0100
,  // measure 15
0001
0010
0001
0010
001M
1000
0010
1000
0001
0100
0001
0100
010M
1000
0100
1000
,  // measure 16
0001
0000
1100
0000
0001
0000
1100
0000
0010
0000
0000
0010
0000
0000
0010
0000
,  // measure 17
1000
0100
1000
0100
0010
0001
0010
0001
1000
0010
1000
0010
M010
0001
0010
0001
,  // measure 18
1000
0100
1000
0100
0010
0001
0010
0001
1000
0010
1000
0010
M010
0001
0010
0001
,  // measure 19
1000
0010
1000
0010
0100
0001
0100
0001
1000
0100
1000
0100
M100
0001
0100
0001
,  // measure 20
1000
0010
1000
0010
0100
0001
0100
0001
1000
0100
1000
0100
M100
0001
0100
0001
,  // measure 21
0010
0100
0010
0100
1000
0001
1000
0001
1000
0010
1000
0010
M010
0001
0010
0001
,  // measure 22
0010
0100
0010
0100
1000
0001
1000
0001
1000
0010
1000
0010
M010
0001
0010
0001
,  // measure 23
1000
0010
1000
0010
0100
0001
0100
0001
1000
0100
1000
0100
M100
0001
0100
0001
,  // measure 24
1000
0000
0000
0000
0001
0100
0001
0100
0010
0000
1000
0001
0010
0000
0001
1000
,  // measure 25
0101
0000
1000
0000
1000
0000
1000
0000
0001
0000
0010
0M00
0010
0000
1100
0000
,  // measure 26
0011
0000
1000
0000
1000
0101
1010
0000
0001
0000
0100
00M0
0100
0000
1010
0000
,  // measure 27
0101
0000
1000
0000
1000
0000
0011
0000
1000
0000
0010
0M00
0010
0000
0101
0000
,  // measure 28
1010
0000
0001
0000
0100
0000
0010
0000
1000
0000
1000
0001
0100
0000
0001
0000
,  // measure 29
1010
0000
0001
0000
0001
0000
0001
0000
1000
0000
0010
0M00
0010
0000
0101
0000
,  // measure 30
1010
0000
0001
0000
1000
0011
1100
0000
0001
0000
0100
00M0
0100
0000
1010
0000
,  // measure 31
0101
1000
1000
0011
0100
0001
0001
1010
,  // measure 32
0101
0000
1000
0000
0001
0000
0100
0000
0010
0000
0010
1000
0010
1000
0001
0000
,  // measure 33
1010
0000
0001
0000
0001
0000
1100
0000
0010
0000
0100
0001
0100
0001
1100
0000
,  // measure 34
0011
0000
1000
0000
1000
0000
0101
0000
0010
0000
0001
1000
0001
1000
0101
0000
,  // measure 35
1010
0000
0001
0000
0001
0000
1100
0000
0010
0000
1000
0001
1000
0001
1100
0000
,  // measure 36
0011
0000
1000
0000
1000
0000
0101
0000
0010
0000
0001
1000
0001
1000
0101
0000
,  // measure 37
1010
0000
0001
0000
0001
0000
1100
0000
0001
0000
1000
0010
1000
0010
1100
0000
,  // measure 38
0011
0000
1000
0000
1000
0000
0101
0000
1000
0000
0001
0010
0001
0010
0101
0000
,  // measure 39
1010
0000
0001
0000
0001
0000
1100
0000
0001
0000
1000
0010
1000
0010
1100
0000
,  // measure 40
0011
0000
1000
0000
1000
0000
0101
0000
1000
0000
0001
0010
0001
0010
0101
0000
,  // measure 41
2000
0000
0000
0000
,  // measure 42
0000
0000
0000
0000
,  // measure 43
0000
0000
0000
0000
,  // measure 44
0000
0000
0000
0000
0000
0000
0000
0000
0000
0000
0000
0000
3001
0000
1000
0001
,  // measure 45
1000
0001
1000
0100
,  // measure 46
0010
0000
0000
0000
0001
0000
0000
0000
1000
0000
0000
0010
0000
0000
1000
0000
,  // measure 47
0001
0010
0100
1000
,  // measure 48
0001
0000
0100
0000
0010
0000
1000
0001
0010
0000
0001
0000
1000
0001
1000
0001
,  // measure 49
1100
0000
0000
1000
0011
0000
0000
0000
1011
0000
0000
0000
1010
0000
0000
0000
,  // measure 50
0001
0000
0000
0001
0020
0000
0000
0000
0130
0000
0100
0000
1010
0000
1010
0000
,  // measure 51
0001
0000
0000
0001
1100
0000
0000
0000
1101
0000
0000
0000
0101
0000
0001
0000
,  // measure 52
1000
0000
0000
1000
0200
0000
0000
0000
0310
0000
0010
0000
0101
0000
0101
0000
,  // measure 53
1000
0000
0000
1000
0011
0000
0000
0000
1011
0000
0000
0000
1010
0000
0000
0000
,  // measure 54
0001
0000
0000
0001
0020
0000
0000
0000
0130
0000
0100
0000
1010
0000
0000
0000
,  // measure 55
0001
0000
0000
0001
1100
0000
0000
0000
1101
0000
0000
0000
0101
0000
0001
0000
,  // measure 56
1000
0000
0000
1000
0200
0000
0000
0000
0300
0010
0001
1000
0000
0001
1000
0010
,  // measure 57
1100
0000
0000
1000
0011
0000
0000
0000
1011
0000
0000
0000
1010
0000
0000
0000
,  // measure 58
1000
0000
0000
1000
0002
0000
0000
0000
1013
0000
0101
0000
1010
0000
0101
0000
,  // measure 59
1000
0000
0000
1000
0011
0000
0000
0000
1011
0000
0000
0000
1010
0000
1000
0000
,  // measure 60
0001
0000
0000
0001
0200
0000
0000
0000
0310
0000
0010
0000
1100
0000
1100
0000
,  // measure 61
0001
0000
0000
0001
1010
0000
0000
0000
1011
0000
0000
0000
0011
0000
0000
0000
,  // measure 62
0001
0000
0000
0001
2000
0000
0000
0000
3100
0000
0100
0000
1010
0000
0000
0000
,  // measure 63
0001
0000
0000
0001
1100
0000
0000
0000
1101
0000
0000
0000
0101
0000
0001
0000
,  // measure 64
1010
0000
0000
0001
1000
0000
0001
1000
0010
1000
0010
1000
0001
0010
0001
0010
,  // measure 65
0001
1000
0001
0100
0010
1000
0001
0010
0000
001M
1000
0001
0010
0100
0100
0100
,  // measure 66
1000
0001
1000
0100
0010
0001
1000
0010
0000
M010
0001
1000
0010
0100
0100
0100
,  // measure 67
0001
0010
0001
0010
0100
1000
0100
1000
0001
0100
0001
0100
010M
1000
0100
1000
,  // measure 68
0001
0100
0001
0100
010M
1000
0100
1000
0001
0010
0001
0010
001M
1000
0000
1000
,  // measure 69
0001
0100
0010
1000
0001
1000
0100
0010
0000
001M
1000
0001
0010
0100
0100
0100
,  // measure 70
1000
0001
1000
0100
0010
0001
1000
0010
0000
M010
0001
0100
0010
1000
0000
1000
,  // measure 71
0001
0010
0001
0010
001M
1000
0010
1000
0001
0100
0001
0100
010M
1000
0100
1000
,  // measure 72
0001
0000
1100
0000
0001
0000
1100
0000
0010
0000
0000
0010
0000
0000
0010
0000
,  // measure 73
1000
0001
1000
0001
0100
0010
0100
0010
1000
0100
1000
0100
M100
0001
0100
0001
,  // measure 74
1000
0100
1000
0100
1000
0001
0010
001M
1000
0001
0010
001M
1000
0001
0100
0001
,  // measure 75
1000
0100
1000
0100
0010
0001
0010
0001
1000
0010
1000
0010
M010
0001
0010
0001
,  // measure 76
1000
0010
1000
0010
1000
0001
0100
010M
1000
0001
0100
010M
1000
0001
0000
0001
,  // measure 77
1000
0100
1000
0100
0010
0001
0010
0001
1000
0010
1000
0010
M010
0001
0010
0001
,  // measure 78
1000
0010
1000
0010
1000
0001
0100
010M
1000
0001
0100
010M
1000
0001
0000
0001
,  // measure 79
1000
0010
1000
0010
0100
0001
0100
0001
1000
0100
1000
0100
M100
0001
0000
0001
,  // measure 80
1000
0000
0000
0000
0001
0100
0001
0100
0010
0000
1000
0001
0010
0000
0001
1000
,  // measure 81
0200
0000
0000
0000
,  // measure 82
0000
0000
0000
0000
,  // measure 83
0300
0000
0000
0000
;

//---------------dance-single - ----------------
#NOTEDATA:;
#CHARTNAME:;
#STEPSTYPE:dance-single;
#DESCRIPTION:;
#CHARTSTYLE:;
#DIFFICULTY:Beginner;
#METER:1;
#RADARVALUES:0.112631,0.143833,0.000000,0.007103,0.000000,111.000000,111.000000,0.000000,1.000000,0.000000,0.000000,0.000000,0.000000,0.000000,0.112631,0.143833,0.000000,0.007103,0.000000,111.000000,111.000000,0.000000,1.000000,0.000000,0.000000,0.000000,0.000000,0.000000;
#CREDIT:Maxx;
#DISPLAYBPM:150.000000;
#NOTES:
0000
0000
0000
0000
,
0000
0000
0000
0000
,
0000
0000
0000
0000
,
0000
0000
0000
0000
,
0000
0000
0000
0000
,
0000
0000
0000
0000
,
0000
0000
0000
0000
,
0000
0000
0000
0000
,
0000
0000
0000
0000
,
1000
0000
1000
0000
,
0001
0000
0001
0000
,
0100
0000
0100
0000
,
0010
0000
0010
0000
,
1000
0000
1000
0000
,
0001
0000
0001
0000
,
0010
0000
0010
0000
,
0100
0000
0100
0000
,
1000
0000
0001
0000
,
1000
0000
0001
0000
,
0100
0000
0010
0000
,
0100
0000
0010
0000
,
1000
0000
0001
0000
,
1000
0000
0001
0000
,
0010
0000
0100
0000
,
0010
0000
0100
0000
,
1000
0000
0000
0000
,
0001
0000
0000
0000
,
1000
0000
0000
0000
,
0001
0000
0000
0000
,
1000
0000
0000
0000
,
0001
0000
0000
0000
,
0100
0000
0000
0000
,
0010
0000
0000
0000
,
1000
0000
1000
0000
,
0001
0000
0001
0000
,
0010
0000
0010
0000
,
0100
0000
0100
0000
,
1000
0000
1000
0000
,
0001
0000
0001
0000
,
0100
0000
0100
0000
,
0010
0000
0010
0000
,
2000
0000
0000
0000
,
0000
0000
0000
0000
,
0000
0000
0000
0000
,
0000
0000
0000
0000
,
3001
0000
1000
0000
,
0001
0000
0000
0000
,
1000
0000
0001
0000
,
1000
0000
0000
0000
,
0010
0000
0000
0000
,
0010
0000
0000
0000
,
0100
0000
0000
0000
,
0100
0000
0000
0000
,
0001
0000
0000
0000
,
0001
0000
0000
0000
,
1000
0000
0000
0000
,
1000
0000
0000
0000
,
0001
0000
0000
0000
,
0010
0000
0000
0000
,
0001
0000
0000
0000
,
1000
0000
0000
0000
,
0001
0000
0000
0000
,
1000
0000
0000
0000
,
0001
0000
0000
0000
,
0100
0000
0000
0000
,
0010
0000
0010
0000
,
0100
0000
0100
0000
,
0010
0000
0010
0000
,
0100
0000
0100
0000
,
0001
0000
0001
0000
,
1000
0000
1000
0000
,
0100
0000
0100
0000
,
0010
0000
0010
0000
,
0001
0000
0001
0000
,
1000
0000
1000
0000
,
0001
0000
0001
0000
,
1000
0000
1000
0000
,
0001
0000
0001
0000
,
1000
0000
1000
0000
,
0010
0000
0010
0000
,
0100
0000
0000
0000
,
0001
0000
0000
0000
;

//---------------dance-single - ----------------
#NOTEDATA:;
#CHARTNAME:;
#STEPSTYPE:dance-single;
#DESCRIPTION:;
#CHARTSTYLE:;
#DIFFICULTY:Easy;
#METER:4;
#RADARVALUES:0.205983,0.345200,0.113646,0.007103,0.000000,203.000000,187.000000,16.000000,1.000000,0.000000,0.000000,0.000000,0.000000,0.000000,0.205983,0.345200,0.113646,0.007103,0.000000,203.000000,187.000000,16.000000,1.000000,0.000000,0.000000,0.000000,0.000000,0.000000;
#CREDIT:Maxx;
#DISPLAYBPM:150.000000;
#NOTES:
0000
0000
0000
0000
,
0000
0000
0000
0000
,
0000
0000
0000
0000
,
0000
0000
0000
0000
,
0000
0000
0000
0000
,
0000
0000
0000
0000
,
0000
0000
0000
0000
,
0000
0000
0000
0000
,
0000
0000
0000
0000
,
1000
0001
1000
0001
,
0100
0010
0100
0010
,
1000
0000
0001
0000
,
1000
0000
0001
0000
,
1000
0001
1000
0001
,
0010
0100
0010
0100
,
1000
0000
0001
0000
,
1000
0000
0000
0000
,
0001
0100
0001
0100
,
0001
0100
0001
0100
,
0010
1000
0010
1000
,
0010
1000
0010
1000
,
0001
0010
0001
0010
,
0001
0010
0001
0010
,
0100
1000
0100
1000
,
0001
0000
0000
0000
,
1000
0000
1000
0000
,
0001
0000
0001
0000
,
0100
0000
0100
0000
,
0010
0000
0010
0000
,
1000
0000
1000
0000
,
0001
0000
0001
0000
,
0010
0000
0010
0000
,
0100
0000
0100
0000
,
1000
0000
1000
0000
,
0001
0000
0001
0000
,
0100
0000
0100
0000
,
0010
0000
0010
0000
,
1000
0000
1000
0000
,
0001
0000
0001
0000
,
0010
0000
0010
0000
,
0100
0000
0100
0000
,
2000
0000
0000
0000
,
0000
0000
0000
0000
,
0000
0000
0000
0000
,
0000
0000
0000
0000
,
3001
1000
0001
1000
,
0010
0100
0010
0100
,
0001
1000
0001
1000
,
0100
0000
0000
0000
,
1001
0100
1001
0000
,
1001
0010
1001
0000
,
1001
0100
1001
0000
,
1001
0010
1001
0000
,
0001
0000
1000
0000
,
0001
0000
1000
0000
,
0100
0000
0010
0000
,
0001
0000
1000
0000
,
1001
0100
1001
0000
,
1001
0010
1001
0000
,
1001
0100
1001
0000
,
1001
0010
1001
0000
,
1000
0000
0001
0000
,
0100
0000
0010
0000
,
1000
0000
0001
0000
,
1000
0000
0000
0000
,
0001
1000
0001
1000
,
0100
0010
0100
0010
,
0001
1000
0001
1000
,
0010
0100
0010
0100
,
0001
1000
0001
1000
,
0100
0010
0100
0010
,
0001
1000
0001
1000
,
0010
0100
0010
0100
,
0001
0000
0001
0000
,
1000
0000
1000
0000
,
0100
0000
0100
0000
,
0010
0000
0010
0000
,
0001
0000
0001
0000
,
1000
0000
1000
0000
,
0010
0000
0010
0000
,
0100
0000
0001
1000
,
0001
0000
0000
0000
;

//---------------dance-single - ----------------
#NOTEDATA:;
#CHARTNAME:;
#STEPSTYPE:dance-single;
#DESCRIPTION:;
#CHARTSTYLE:;
#DIFFICULTY:Medium;
#METER:8;
#RADARVALUES:0.436320,0.501108,0.000000,0.127852,0.014206,430.000000,430.000000,0.000000,18.000000,0.000000,0.000000,0.000000,0.000000,0.000000,0.436320,0.501108,0.000000,0.127852,0.014206,430.000000,430.000000,0.000000,18.000000,0.000000,0.000000,0.000000,0.000000,0.000000;
#CREDIT:Maxx;
#DISPLAYBPM:150.000000;
#NOTES:
0000
0000
0000
0000
,
0000
0000
0000
0000
,
0000
0000
0000
0000
,
0000
0000
0000
0000
,
0000
0000
0000
0000
,
0000
0000
0000
0000
,
0000
0000
0000
0000
,
0000
0000
0000
0000
,
0000
0000
0000
0000
,
1000
0001
1000
0010
0100
0001
1000
0000
,
0001
1000
0001
0010
0100
1000
0001
0000
,
1000
0010
1000
0010
0100
0001
0100
0001
,
1000
0100
1000
0100
0010
0001
0010
0001
,
1000
0010
0100
0001
1000
0000
0001
0000
,
1000
0100
0010
0001
1000
0000
0001
0000
,
1000
0010
1000
0010
0100
0001
0100
0001
,
1000
0000
0100
0000
1000
0000
0100
0000
0010
0000
0000
0010
0000
0000
0010
0000
,
0001
0100
0001
0100
0010
1000
0010
1000
,
0001
0010
0001
0010
0100
1000
0100
1000
,
0001
0100
0001
0100
0010
1000
0010
1000
,
0001
0010
0001
0010
0100
1000
0100
1000
,
0010
0100
0010
0100
0001
1000
0001
1000
,
0100
0010
0100
0010
0001
1000
0001
1000
,
0010
0100
0001
1000
0100
0010
0001
1000
,
0010
0000
0100
0000
,
0001
1000
0001
1000
0001
1000
0100
0000
,
1000
0001
1000
0001
1000
0001
0100
0000
,
0020
2030
3002
0023
,
0230
2300
3002
0203
,
0310
1000
0010
1000
0010
1000
0001
0000
,
0010
0001
0010
0001
0010
0001
1000
0000
,
0002
0203
0320
2030
,
3002
0023
0230
2300
,
3001
0100
0001
0000
1000
0100
1000
0000
,
0001
0001
1000
1000
,
0010
1000
0010
0000
0100
0001
0100
0000
,
0001
0001
1000
1000
,
0001
0010
0001
0000
1000
0100
1000
0000
,
0001
0001
1000
1000
,
0010
0100
0010
0000
1000
0001
1000
0000
,
0001
0001
0010
0100
,
2000
0000
0000
0000
,
0000
0000
0000
0000
,
0000
0000
0000
0000
,
0000
0000
0000
0000
,
3001
0100
0010
1000
,
0001
0000
0000
0000
0010
0000
0000
0000
0100
0000
0000
1000
0000
0000
0001
0000
,
0100
0010
1000
0001
,
0010
0000
0100
0000
0010
0000
0001
1000
0001
0000
1000
0000
0010
0000
0100
0000
,
0001
1000
0100
0000
0010
0000
0001
0000
,
1000
0010
0100
0000
0001
0001
1000
0000
,
0001
0010
0100
0000
1000
0000
0001
0000
,
1000
0001
0100
0000
0010
0010
1000
0000
,
0001
0010
0100
0000
1000
0000
0001
0000
,
0100
0010
1000
0000
0001
0001
1000
0000
,
0100
0010
0001
0000
1000
0000
0001
0001
,
1000
0010
0100
0000
0000
0000
0000
0000
,
0001
1000
0100
0000
0010
0000
0001
0000
,
1000
0010
0100
0000
0001
1000
0001
1000
,
0100
0010
0001
1000
,
0010
0100
0001
0000
1000
0100
1000
0100
,
0010
0001
1000
0010
,
0100
0001
1000
0000
0001
0010
0100
0000
,
1000
0001
0100
0000
0010
0000
1000
0001
,
0001
1000
0000
0000
,
0001
0100
0001
0100
0010
1000
0010
1000
,
0001
0100
0001
0100
0010
1000
0010
1000
,
0001
0010
0100
1000
0001
0010
0100
1000
,
0001
0100
0010
1000
0001
0100
0010
1000
,
0001
0010
0001
0010
0100
1000
0100
1000
,
0001
0010
0001
0010
0100
1000
0100
1000
,
0001
0100
0010
1000
0001
0010
0100
1000
,
0001
0000
0100
0000
0010
0000
0100
0000
0001
0000
0000
0001
0000
0000
0001
0000
,
1000
0100
1000
0100
0010
0001
0010
0001
,
1000
0010
0100
0010
1000
0010
0100
0010
,
1000
0100
1000
0100
0010
0001
0010
0001
,
1000
0010
0100
0010
1000
0100
0010
0100
,
1000
0001
1000
0001
0100
0010
0100
0010
,
1000
0001
1000
0100
1000
0001
1000
0100
,
0010
0001
0010
0001
1000
0010
1000
0010
,
0100
0000
0001
1000
0100
0000
0010
0000
,
0002
0000
0000
0000
,
0000
0000
0000
0000
,
0003
0000
0000
0000
;

//---------------dance-single - Maxx----------------
#NOTEDATA:;
#CHARTNAME:;
#STEPSTYPE:dance-single;
#DESCRIPTION:Maxx;
#CHARTSTYLE:;
#DIFFICULTY:Hard;
#METER:11;
#RADARVALUES:0.777258,0.972739,0.525613,0.106543,0.784868,766.000000,684.000000,74.000000,15.000000,4.000000,9.000000,0.000000,0.000000,0.000000,0.777258,0.972739,0.525613,0.106543,0.784868,766.000000,684.000000,74.000000,15.000000,4.000000,9.000000,0.000000,0.000000,0.000000;
#CREDIT:;
#DISPLAYBPM:150.000000;
#NOTES:
0000
0000
0000
0000
,
0000
0000
0000
0000
,
0000
0000
0000
0000
,
0000
0000
0000
0000
,
0000
0000
0000
0000
,
0000
0000
0000
0000
,
0000
0000
0000
0000
,
0000
0000
0000
0000
,
0000
0000
0000
0000
,
0001
1000
0001
0100
0010
1000
0001
0010
0000
0010
0100
0000
1000
0000
0001
0000
,
1000
0001
1000
0100
0010
0001
1000
0010
0000
0010
0100
0000
0001
0000
1000
0000
,
0001
0010
0001
0010
0100
1000
0100
1000
0001
0100
0001
0100
0010
1000
0010
1000
,
0001
0100
0001
0100
0010
1000
0010
1000
0001
0010
0001
0010
0100
1000
0100
1000
,
0001
0100
0010
1000
0001
1000
0100
0010
0000
0010
0100
0000
1000
0000
0001
0000
,
1000
0001
1000
0100
0010
0001
1000
0010
0000
0010
0100
0000
0001
0000
1000
0000
,
0001
0010
0001
0010
0100
1000
0100
1000
0001
0100
0001
0100
0010
1000
0010
1000
,
0001
0000
1100
0000
0001
0000
1100
0000
0010
0000
0000
0010
0000
0000
0010
0000
,
1000
0100
1000
0100
0010
0001
0010
0001
1000
0010
1000
0010
0100
0001
0100
0001
,
1000
0100
1000
0100
0010
0001
0010
0001
1000
0010
1000
0010
0100
0001
0100
0001
,
1000
0001
0010
0100
1000
0001
0100
0010
,
1000
0100
0010
0001
1000
0010
0100
0001
,
1000
0100
1000
0100
0010
0001
0010
0001
1000
0010
1000
0010
0100
0001
0100
0001
,
1000
0100
1000
0100
0010
0001
0010
0001
1000
0010
1000
0010
0100
0001
0100
0001
,
1000
0100
1000
0100
0010
0001
0010
0001
1000
0010
1000
0010
0100
0001
0100
0001
,
1000
0000
0000
0000
0001
0100
0001
0100
0010
0000
1000
0001
0010
0000
0001
1000
,
0101
0000
1000
0000
1000
0000
1000
0000
0001
0000
0010
0M00
0010
0000
1100
0000
,
0011
0000
1000
0000
0001
1000
0100
0000
0010
0000
0001
0000
0001
0000
1010
0000
,
0101
0000
1000
0000
1000
0000
0011
0000
1000
0000
0010
0M00
0010
0000
0101
0000
,
1010
0000
0001
0000
0100
0000
0010
0000
1000
0000
1000
0001
0100
0000
0001
0000
,
1010
0000
0001
0000
0001
0000
0001
0000
1000
0000
0010
0M00
0010
0000
0101
0000
,
1010
0000
0001
0000
1000
0010
0100
0000
0001
0000
0100
00M0
0100
0000
1010
0000
,
0101
1000
1000
0011
0100
0001
0001
1010
,
0101
0000
1000
0000
0001
0000
0100
0000
0010
0000
0010
1000
0010
1000
0001
0000
,
1010
0000
0001
0000
0001
0000
1100
0000
0010
0000
0100
0001
0100
0001
1100
0000
,
0011
0000
1000
0000
1000
0000
0101
0000
0010
0000
0001
1000
0001
1000
0101
0000
,
1010
0000
0001
0000
0001
0000
1100
0000
0010
0000
1000
0001
1000
0001
1100
0000
,
0011
0000
1000
0000
1000
0000
0101
0000
0010
0000
0001
1000
0001
1000
0101
0000
,
1010
0000
0001
0000
0001
0000
1100
0000
0001
0000
1000
0010
1000
0010
1100
0000
,
0011
0000
1000
0000
1000
0000
0101
0000
1000
0000
0001
0010
0001
0010
0101
0000
,
1010
0000
0001
0000
0001
0000
1100
0000
0001
0000
1000
0010
1000
0010
1100
0000
,
0011
0000
1000
0000
1000
0000
0101
0000
1000
0000
0001
0010
0001
0010
0101
0000
,
2000
0000
0000
0000
,
0000
0000
0000
0000
,
0000
0000
0000
0000
,
0000
0000
0000
0000
0000
0000
0000
0000
0000
0000
0000
0000
3001
0000
1000
0001
,
1000
0001
1000
0100
,
0010
0000
0000
0000
0001
0000
0000
0000
1000
0000
0000
0010
0000
0000
1000
0000
,
0001
0010
0100
1000
,
0001
0000
0100
0000
0010
0000
1000
0001
0010
0000
0001
0000
1000
0001
1000
0001
,
0100
0000
0000
0100
0011
0000
0000
0000
1011
0000
0000
0000
1010
0000
0000
0000
,
0001
0000
0000
0001
0020
0000
0000
0000
0130
0000
0100
0000
1010
0000
1010
0000
,
0001
0000
0000
0001
0100
0000
0000
0000
1101
0000
0000
0000
0101
0000
0001
0000
,
1000
0000
0000
1000
0200
0000
0000
0000
0310
0000
0010
0000
0101
0000
0101
0000
,
1000
0000
0000
1000
0010
0000
0000
0000
1011
0000
0000
0000
1010
0000
0000
0000
,
0001
0000
0000
0001
0020
0000
0000
0000
0130
0000
0100
0000
1010
0000
0000
0000
,
0001
0000
0000
0001
0100
0000
0000
0000
1101
0000
0000
0000
0101
0000
0001
0000
,
1000
0000
0000
1000
0200
0000
0000
0000
0300
1000
0001
1000
0000
0001
1000
0001
,
1100
0000
0000
1000
0010
0000
0000
0000
1011
0000
0000
0000
1010
0000
0000
0000
,
1000
0000
0000
1000
0002
0000
0000
0000
1013
0000
0101
0000
1010
0000
0101
0000
,
1000
0000
0000
1000
0010
0000
0000
0000
1011
0000
0000
0000
1010
0000
1000
0000
,
0001
0000
0000
0001
0200
0000
0000
0000
0310
0000
0010
0000
1100
0000
1100
0000
,
0001
0000
0000
0001
0010
0000
0000
0000
1011
0000
0000
0000
0011
0000
0000
0000
,
0001
0000
0000
0001
2000
0000
0000
0000
3100
0000
0100
0000
1010
0000
0000
0000
,
0001
0000
0000
0001
0100
0000
0000
0000
1101
0000
0000
0000
0101
0000
0001
0000
,
1000
0000
0000
0001
1000
0000
0001
1000
0100
0000
0010
0000
0001
0000
1000
0000
,
0001
1000
0001
0100
0010
1000
0001
0010
0000
0010
0100
0000
1000
0000
0001
0000
,
1000
0001
1000
0100
0010
0001
1000
0010
0000
0010
0100
0000
0001
0000
1000
0000
,
0001
0010
0001
0010
0100
1000
0100
1000
0001
0100
0001
0100
0010
1000
0010
1000
,
0001
0100
0001
0100
0010
1000
0010
1000
0001
0010
0001
0010
0100
1000
0000
1000
,
0001
0100
0010
1000
0001
1000
0100
0010
0000
0010
0100
0000
1000
0000
0001
0000
,
1000
0001
1000
0100
0010
0001
1000
0010
0000
0010
0100
0000
0001
0000
1000
0000
,
0001
0010
0001
0010
0100
1000
0100
1000
0001
0100
0001
0100
0010
1000
0010
1000
,
0001
0000
1100
0000
0001
0000
1100
0000
0010
0000
0000
0010
0000
0000
0010
0000
,
1000
0001
1000
0001
0100
0010
0100
0010
1000
0100
1000
0100
0010
0001
0010
0001
,
2000
0000
3001
0100
0010
1000
0002
0000
,
1003
0100
1000
0100
0010
0001
0010
0001
1000
0010
1000
0010
0100
0001
0100
0001
,
2000
0000
3001
0010
0100
1000
0002
0000
,
1003
0010
1000
0010
0100
0001
0100
0001
1000
0100
1000
0100
0010
0001
0010
0001
,
2000
0000
3001
0100
0010
1000
0002
0000
,
1003
0100
1000
0100
0010
0001
0010
0001
1000
0010
1000
0010
0100
0001
0000
0001
,
1000
0000
0000
0000
0001
0100
0001
0100
0010
0000
1000
0001
0010
0000
0001
1000
,
0200
0000
0000
0000
,
0000
0000
0000
0000
,
0300
0000
0000
0000
;
