#TITLE:A Drop;
#SUBTITLE:;
#ARTIST:arthur x medic;
#TITLETRANSLIT:;
#SUBTITLETRANSLIT:;
#ARTISTTRANSLIT:;
#GENRE:;
#CREDIT:;
#BANNER:A_Drop-bn.png;
#BACKGROUND:A_Drop-bg.png;
#LYRICSPATH:;
#CDTITLE:cd-title-Benpai.png;
#MUSIC:A Drop.ogg;
#OFFSET:0.009000;
#SAMPLESTART:12.809000;
#SAMPLELENGTH:12.800000;
#SELECTABLE:YES;
#DISPLAYBPM:150.000000;
#BPMS:0.000000=150.000000
,170.000000=75.000000
,175.000000=150.000000
,285.000000=249.999985
,286.000000=150.000000
;
#STOPS:162.000000=-3.200000,
277.000000=-3.200000,
285.000000=0.160000,
295.000000=-3.200000
;
#BGCHANGES:;
#KEYSOUNDS:;
#ATTACKS:;

//---------------dance-single - XO FS DS warps XMOD----------------
#NOTES:
     dance-single:
     There are two drops.:
     Challenge:
     10:
     0.653279,0.842340,0.532565,0.276934,0.433152,644.000000,569.000000,75.000000,39.000000,77.000000,0.000000,0.653279,0.842340,0.532565,0.276934,0.433152,644.000000,569.000000,75.000000,39.000000,77.000000,0.000000:
// measure 0
0000
0000
0000
0000
,  // measure 1
0000
0000
0000
0000
,  // measure 2
0000
0000
0000
0000
,  // measure 3
0000
0000
0000
0000
,  // measure 4
0101
0100
0010
1000
1000
0001
0010
0001
,  // measure 5
0100
0100
0010
1000
0001
0000
0100
0010
,  // measure 6
1000
1000
0100
0100
0010
0010
0001
0001
,  // measure 7
0100
0010
1000
0001
0010
0100
1000
0010
0100
0000
0002
0000
4003
0000
0000
3000
,  // measure 8
1001
0000
001M
0100
0101
0000
1M00
0100
,  // measure 9
0110
0000
0010
0000
1000
0000
0010
0000
0001
0100
0010
0000
4000
0000
3000
0000
,  // measure 10
0404
0303
0001
0010
0200
0300
0M01
1000
,  // measure 11
1001
0000
0001
0000
0100
0000
0010
0000
0001
0000
0010
0000
0100
0001
1000
0100
,  // measure 12
0010
0000
0000
0000
10M0
0100
1000
0000
1001
0000
0001
0010
M00M
0010
0100
0000
,  // measure 13
0102
0000
0013
0100
0002
0000
0103
1000
,  // measure 14
1100
0000
0M02
0003
0201
0000
0310
0100
,  // measure 15
1000
1000
1000
0100
1001
0000
0M00
00M0
,  // measure 16
1100
0000
0000
0000
0100
0000
0000
0000
0M00
0000
0000
0000
0000
0000
0000
0000
0001
0000
0100
00M0
0100
0000
1000
0000
0010
0000
0000
0000
0010
0000
0000
0000
,  // measure 17
1000
0000
0100
00M0
0100
0000
0001
0000
0010
0000
0000
0000
0010
0000
0000
0000
0110
0000
0000
0000
0100
00M0
0100
0000
0000
0000
0001
0000
0100
0000
0000
0000
,  // measure 18
2010
0000
0000
0000
0000
0000
0000
0000
3100
0000
0000
0000
0010
0000
0000
0000
0001
0000
0100
00M0
0100
0000
0010
0000
0001
0000
0100
00M0
0100
0000
0000
0000
,  // measure 19
1000
0000
0001
0100
00M0
0100
1000
0000
0010
0100
0001
1000
0100
0010
0100
1000
,  // measure 20
0010
0400
0300
0001
0011
2000
3020
0130
,  // measure 21
0001
0000
0000
0002
0000
0000
0003
0000
0000
1000
0000
0000
1100
0000
0000
0001
0000
0000
0100
0001
0100
0010
0000
0000
,  // measure 22
1000
0001
1000
0001
0010
0100
1000
0000
1001
0000
0001
0000
0100
0000
0100
0000
,  // measure 23
0110
0000
0010
0000
1000
0000
1000
0000
1200
0000
0000
0000
0000
M000
0000
0300
,  // measure 24
0202
0303
0001
0010
0110
0100
0010
0001
,  // measure 25
0101
0000
1000
0000
0010
0000
0010
0000
0110
0000
0100
0000
0001
0000
1000
0100
,  // measure 26
0040
0000
0000
0000
0031
0001
0001
1000
,  // measure 27
0020
0000
0000
0130
0000
0000
2000
0000
0000
3100
0000
0000
0110
0000
0000
0001
1000
0100
0010
0000
0001
0000
1000
0000
,  // measure 28
4010
3000
0000
0010
0000
0100
2000
0000
0000
3100
0001
0010
,  // measure 29
2000
0000
0000
0000
3000
0000
0000
0000
0000
M000
0000
0000
0100
0000
0000
0000
0010
0000
0000
0000
0001
0000
0000
0000
1001
0000
0000
0000
1000
0000
0000
0000
0000
0000
0000
0000
0010
0000
0000
0000
0000
0000
0000
0000
0100
0000
0000
0000
,  // measure 30
0004
0000
0000
0000
0000
0000
0000
0000
0000
0000
0003
0000
1001
0000
0000
1000
0000
0000
0010
0000
0000
0100
0000
0000
,  // measure 31
0101
0001
0011
0010
0220
0000
0330
0000
,  // measure 32
1100
0000
0000
0000
1000
0000
0001
1000
0001
0000
0100
0000
0010
0000
1000
0000
0002
0000
0000
0000
0003
0000
0000
0000
0010
0000
0000
0000
0100
0000
0000
0000
,  // measure 33
1100
1000
0001
0001
0101
0000
4000
3000
,  // measure 34
0044
0033
0010
0010
0110
0000
0M01
0001
,  // measure 35
1000
0000
1000
0000
0010
0000
0010
0000
0110
0000
0100
0000
0001
1000
0100
0000
,  // measure 36
0020
0000
0030
0100
00M0
0100
0001
0000
0011
0000
0000
0000
1000
0001
0100
0000
,  // measure 37
0101
0000
0001
0000
1000
0100
0010
0000
0011
0000
0000
0000
2000
0000
3010
0100
,  // measure 38
0002
1003
0100
0010
0011
0001
1000
0100
,  // measure 39
1100
0000
0000
0000
0000
0000
1000
0000
0000
0000
0000
0000
0001
0000
0000
0000
0000
0000
0100
0000
0000
0000
0000
0000
0110
0000
0000
0000
0000
0000
0010
0000
0000
0000
1000
0000
0001
0000
0000
0000
0000
0000
0001
0000
0000
0010
0000
0000
,  // measure 40
0100
0100
1000
0010
000F
0001
1000
0F00
,  // measure 41
0000
0000
0000
0000
,  // measure 42
0000
0000
0000
0000
000M
000M
M000
0M00
,  // measure 43
0000
0000
0000
0000
00M0
0000
0000
0000
0000
0000
0000
0000
0000
0000
0000
0000
000M
M000
0000
00M0
0000
0000
0000
0000
M001
0000
0000
0000
0001
0000
0000
0000
,  // measure 44
0010
0000
0000
0100
1000
0001
0100
0000
0000
0010
0000
0000
0010
0000
0000
0100
0000
0000
0100
0000
0000
0001
0000
0000
,  // measure 45
0010
0000
0100
0000
1000
0010
1000
0010
0100
0000
0001
0000
1001
0000
1000
0000
,  // measure 46
0100
0100
0020
0000
0031
0001
0100
0010
,  // measure 47
0010
0000
1000
0001
0010
0000
0001
0100
0000
0000
0010
0000
1010
0000
1000
0000
,  // measure 48
0001
0000
0001
0000
0010
0100
0010
0100
1000
0000
1000
0000
0001
0000
0100
0000
,  // measure 49
0100
0000
0010
0000
1000
0001
1000
0001
0010
0000
0100
0000
0110
0000
0010
0000
,  // measure 50
10M0
0000
1000
0000
0001
0100
0001
0100
0010
0000
0010
0000
1000
0000
0001
0000
,  // measure 51
0010
0000
0000
0000
0000
0000
0100
0000
0000
0000
0000
0000
1100
0000
0000
0000
0000
0000
1000
0000
0001
0000
1000
0000
0010
0000
0000
0100
0000
0000
0001
0000
0000
1000
0000
0000
0200
0000
0000
0000
0000
0000
0000
0000
0000
0000
0000
0000
,  // measure 52
0000
0000
0000
0000
,  // measure 53
0000
0000
0000
0000
,  // measure 54
0000
0000
0000
0000
,  // measure 55
0000
0000
0000
0000
M300
000M
1001
0000
,  // measure 56
0001
0100
0001
0000
1000
0010
0100
0100
,  // measure 57
0001
0100
0010
0000
1000
0001
0010
0010
,  // measure 58
0100
0000
0100
0000
1000
0000
1000
0000
0010
0000
0010
0000
0100
0001
1000
0100
,  // measure 59
0010
0100
1000
0010
0100
0000
0002
0000
2003
0000
3000
0000
1100
0000
0000
0000
,  // measure 60
0M01
0100
0110
0000
1M00
0001
0011
0010
,  // measure 61
1000
0000
0010
0000
0001
0100
0010
0000
4000
0000
3000
0000
0044
0000
0033
0000
,  // measure 62
1000
0010
0200
0300
1M00
0001
1001
1000
,  // measure 63
0100
0000
0010
0000
1000
0000
0010
0000
0100
1000
0001
0100
0010
0000
0000
0000
,  // measure 64
00M1
0100
0001
0000
1001
0000
1000
0100
M00M
0100
0010
0000
0102
0000
0000
0000
,  // measure 65
0013
0100
0002
0000
0103
0010
0011
0000
,  // measure 66
20M0
0000
0000
3000
1002
0000
0000
0000
0103
0000
0010
0000
0001
0000
0001
0000
,  // measure 67
0001
0010
1001
0000
0M00
00M0
1010
1000
,  // measure 68
0001
1000
1100
0100
0010
0001
1001
1000
,  // measure 69
0001
0100
0110
0000
M00F
0F0M
0000
0000
,  // measure 70
0000
0000
0000
0000
,  // measure 71
0000
0000
0000
0000
100M
0M10
0110
0100
,  // measure 72
0001
1000
1100
0100
1000
0001
0101
0100
,  // measure 73
0010
0000
1000
0000
0100
0010
0001
0100
0010
1000
0001
0010
M100
0000
F000
0000
,  // measure 74
000F
0F00
00F0
F000
000F
0000
0000
0000
,  // measure 75
0000
0000
0000
0000
0000
0000
M000
M000
,  // measure 76
000M
00M0
0M00
0000
000M
M000
0M00
M000
,  // measure 77
00M0
0000
0M00
0000
000M
0000
0000
0000
0000
M000
0000
00M0
0M00
0000
0000
000M
,  // measure 78
M000
0000
0000
0000
0000
0000
0000
0000
0000
0000
0000
0000
0000
0000
0000
0000
0000
0000
0000
0000
0000
0000
0000
0000
0M00
0000
0000
0000
0000
0000
0000
0000
0000
0000
0000
0000
00M0
0000
0000
0000
0000
0000
0000
0000
0000
0000
0000
0000
0000
0000
0000
0000
0000
0000
0000
0000
0000
0000
0000
0000
0000
0000
0000
0000
0000
0000
0000
0000
0000
0000
0000
0000
0000
0000
0000
0000
0000
0000
0000
0000
0000
0000
0000
0000
0000
0000
0000
0000
0000
0000
0000
0000
0000
0000
0000
0000
0000
0000
0000
0000
0000
0000
0000
0000
0000
0000
0001
0000
0000
0000
0000
0000
0000
0000
0000
0000
0000
0000
0000
0000
0000
0000
0000
0100
0000
0000
0000
0000
0000
0000
0000
0000
0000
0000
0000
0000
0000
0000
0000
0000
0000
1000
0000
0000
0000
0000
0000
0000
0000
0000
0000
0000
0000
0000
0000
0000
0000
0000
0100
0000
0000
0000
0000
0000
0000
0000
0000
0000
0000
0000
0000
0000
0000
0000
0000
0020
0000
0000
0000
0000
0000
0000
0000
0000
0000
0000
0000
0000
0000
0000
0000
0000
,  // measure 79
0000
0000
0000
0000
0000
0000
0000
0000
0000
0000
0000
0000
0000
0000
0000
0000
0000
1030
0000
0000
0000
0000
0000
0000
0000
0000
0000
0000
0000
0000
0000
0000
0000
0000
0002
0000
0000
0000
0000
0000
0000
0000
0000
0000
0000
0000
0000
0000
0000
0000
0000
0000
0000
0000
0000
0000
0000
0000
0000
0000
0000
0000
0000
0000
0000
0000
0000
0000
0000
0000
0000
0000
0000
0000
0000
0000
0000
0000
0000
0000
0000
0000
0000
0000
0000
0000
0000
0000
0000
0000
0000
0000
0000
0000
0000
0000
0003
0000
0000
0000
0000
0000
0000
0000
0000
0000
0000
0000
0000
0000
0000
0000
0000
0000
0000
0000
0000
0000
0000
0000
0000
0000
0000
0000
0000
0000
0000
0000
0000
0000
0000
0000
0000
0000
0000
0000
0000
0000
0000
0000
0000
0000
0000
0000
0000
0000
0000
0000
0000
0000
0000
0000
0000
0000
0000
0000
0000
0000
0000
0000
0000
0000
0000
0000
0000
0000
0000
0000
0000
0000
0000
0000
0000
0000
0000
0000
0000
0000
0000
0000
0000
0000
0000
0000
0000
0000
0000
0000
0000
0000
0000
0000
,  // measure 80
00M0
0000
0000
0000
0000
0M00
0000
0000
0000
0000
0000
0000
MM00
0000
00MM
0000
,  // measure 81
0MM0
0000
0000
0000
000M
0000
M000
00M0
0M00
00M0
M000
0000
1001
0000
0000
0000
,  // measure 82
1000
0100
0110
0010
0100
1000
1010
0001
,  // measure 83
0100
0000
0100
0000
0110
0000
0010
0000
1000
0000
0001
0010
0400
0000
0000
0000
,  // measure 84
0000
0000
1300
1000
1000
0001
0200
0310
,  // measure 85
0002
0000
0000
0013
0000
0000
0110
0000
0000
1000
0001
0010
0100
0000
1000
0000
0001
0000
0104
0000
0003
0000
0000
0000
,  // measure 86
0100
0000
0000
0000
0000
0000
0000
0000
0010
0000
0000
0000
0002
0000
0000
0000
0000
0000
0000
0000
0000
0000
0000
0000
0013
0000
0000
0000
1000
0000
0000
0000
0100
0000
0000
0000
0002
0000
0000
0000
0003
0000
0000
0000
0000
000M
0000
0000
,  // measure 87
0010
0100
1000
1001
0001
0000
0100
0000
0010
4000
0000
0000
,  // measure 88
0000
0000
0000
0000
3000
0000
1001
0000
0000
0001
0000
0000
0100
0000
0000
0010
0000
0000
1010
0000
0000
1000
0000
0000
,  // measure 89
0100
0010
0011
0001
1000
0010
0110
0100
,  // measure 90
0001
0000
0000
0000
0000
0000
0000
0000
1000
0000
0000
0000
0000
0000
0000
0000
1100
0000
0000
0000
0000
0000
0000
0000
0100
0000
0000
0000
0000
0010
0000
0000
0001
0000
0000
0000
1000
0000
0000
0000
0010
0000
0000
0000
0000
0000
0000
0000
0200
0000
0000
0000
0000
0000
0000
0000
0000
0000
0000
0000
0000
0000
0000
0000
,  // measure 91
0000
0300
0000
0000
;

//---------------dance-single - XO- FS BR XMOD warps----------------
#NOTES:
     dance-single:
     Your faucet's leaking:
     Hard:
     9:
     0.551838,0.680351,0.355043,0.248530,0.216576,544.000000,494.000000,50.000000,35.000000,51.000000,0.000000,0.551838,0.680351,0.355043,0.248530,0.216576,544.000000,494.000000,50.000000,35.000000,51.000000,0.000000:
// measure 0
0000
0000
0000
0000
,  // measure 1
0000
0000
0000
0000
,  // measure 2
0000
0000
0000
0000
,  // measure 3
0000
0000
0000
0000
,  // measure 4
1001
0000
1000
0100
0100
0000
1000
0001
,  // measure 5
0100
0100
0000
0010
1000
0000
0001
0010
,  // measure 6
0100
1000
0100
1000
0001
0100
0001
0100
,  // measure 7
0040
0000
4030
0000
3400
0000
0340
0000
0031
0000
1000
0000
0020
0000
0000
0030
,  // measure 8
1100
0000
0001
1000
0011
0000
1000
0001
,  // measure 9
0100
00M0
0100
0000
0010
0000
0001
0000
1000
0000
1000
0000
0020
0000
0030
0000
,  // measure 10
0210
0000
0301
1000
0200
0000
0310
0001
,  // measure 11
1000
0000
1000
0000
0010
0000
0100
0000
1000
0000
0100
0000
0040
0000
0000
0030
,  // measure 12
1100
0000
0000
0000
0001
0000
1000
0000
0011
0000
0100
0001
0000
0001
1000
0000
,  // measure 13
2001
0000
3100
0010
0002
0000
0103
0010
,  // measure 14
1000
0000
0M02
0000
0203
0000
0310
1000
,  // measure 15
0100
0010
0100
1000
0101
0000
0000
0000
,  // measure 16
0010
0000
0010
0000
0000
0000
0000
0000
0001
1000
0001
0000
0100
00M0
0100
0000
,  // measure 17
1000
0001
1000
0000
0100
00M0
0100
0000
0001
0000
0100
0010
0000
1000
0001
0000
,  // measure 18
1002
0000
0013
0100
1000
0001
0100
0100
,  // measure 19
0010
0000
1000
0001
0000
0100
0010
0000
1000
0000
0010
0000
0100
0000
0001
0000
,  // measure 20
0010
0400
0300
1000
1000
0002
0203
0310
,  // measure 21
1000
2000
3000
0001
0010
0100
0040
0031
,  // measure 22
4000
0000
0000
0000
3001
0100
0010
0000
1000
0000
1000
0000
0001
0000
0010
0000
,  // measure 23
0101
0010
0001
1000
0012
0000
0M03
0000
,  // measure 24
2010
0000
3100
0010
0101
1000
0010
1000
,  // measure 25
0101
0000
0010
0000
0100
00M0
0100
0000
0011
0000
1000
0000
0001
0000
0010
0000
,  // measure 26
0200
0000
0000
0000
1300
0100
1000
0001
,  // measure 27
0101
0000
0000
0000
0000
0000
0110
0000
0000
0000
0000
0000
1010
0000
0000
4000
0000
0000
3100
0000
0010
0000
0001
0000
,  // measure 28
0400
0000
0000
0300
0000
0000
0010
0000
0000
0000
1000
0000
0200
0000
0000
0000
0000
0000
0310
0000
0100
0000
1000
0000
,  // measure 29
0010
0000
0000
0100
0010
1000
0011
0100
0000
0010
0000
0100
,  // measure 30
0002
0000
0000
0000
1003
1000
0100
1000
,  // measure 31
0001
0100
0001
1000
2002
0000
3003
0000
,  // measure 32
0001
0000
0100
0100
0001
0000
0010
0100
,  // measure 33
1000
1000
0001
0001
1100
0000
0010
0000
,  // measure 34
0110
0000
0100
0100
0001
0000
1000
0001
,  // measure 35
0010
0000
0010
0000
0100
0000
0100
0000
1000
0000
0001
0000
0001
0100
0010
0000
,  // measure 36
1100
0000
0000
0001
0000
1000
0100
0000
1010
0000
0000
0000
0001
0000
0010
0000
,  // measure 37
0100
0100
1000
1000
0011
0000
0100
0010
,  // measure 38
1000
0000
0100
0000
0110
0010
0000
0100
,  // measure 39
1000
0010
0000
0100
0001
0010
0100
0000
,  // measure 40
1000
1000
0001
0100
000M
0001
1000
0000
,  // measure 41
0000
0000
0000
0000
,  // measure 42
0000
0000
0000
0000
000M
000M
M000
0M00
,  // measure 43
0000
0000
0000
0000
00M0
0000
0000
0000
0000
0000
0000
0000
0000
0000
0000
0000
000M
M000
0000
00M0
0000
0000
0000
0000
M001
0000
0000
0000
0001
0000
0000
0000
,  // measure 44
1000
0000
0100
0010
0100
0000
1000
0000
0001
0000
1000
0000
0010
0000
0100
0000
,  // measure 45
0001
0000
0010
0000
0100
0000
0100
0010
0001
0000
1000
0000
0010
0000
0010
0000
,  // measure 46
0100
0100
0002
0000
1003
0001
1000
0100
,  // measure 47
0010
0000
0001
0000
0100
0000
0010
1000
0000
0000
0001
0000
1000
0000
1000
0000
,  // measure 48
0100
0010
0001
1000
0010
0100
0010
0100
,  // measure 49
0001
0000
1000
0000
0100
0000
0010
0100
0010
0000
0001
0000
1000
0000
1000
0000
,  // measure 50
0010
0000
0100
0000
0001
0000
1000
0001
0010
0000
0010
0000
0100
0000
1000
0000
,  // measure 51
0001
0000
0100
0000
0010
0000
4000
0000
3100
0000
0010
0001
2000
0000
0000
0000
,  // measure 52
0000
0000
0000
0000
,  // measure 53
0000
0000
0000
0000
,  // measure 54
0000
0000
0000
0000
,  // measure 55
0000
0000
0000
0000
30M0
00M0
1001
0000
,  // measure 56
0001
0100
0001
0000
1000
0100
0010
0010
,  // measure 57
0001
1000
0010
0000
1000
0001
0100
0100
,  // measure 58
0010
0010
1000
1000
0100
0100
0040
0034
,  // measure 59
0403
0340
1030
0001
0010
0000
0101
0000
,  // measure 60
1000
0000
0001
0000
1010
0000
0000
0000
0001
0000
1000
0000
0100
00M0
0100
0000
,  // measure 61
0010
1000
0001
0001
0020
0030
0210
0000
,  // measure 62
1300
0001
0200
0000
0310
1000
0001
0001
,  // measure 63
0010
0000
0100
0000
0001
0000
0100
0000
0040
0000
0000
0030
0101
0000
0000
0000
,  // measure 64
1000
0000
0001
0000
1010
0000
0100
1000
0000
1000
0001
0000
1002
0000
0000
0000
,  // measure 65
0103
0010
2000
0000
3100
0010
0001
0000
,  // measure 66
2M00
0000
3200
0000
0310
0001
0100
0010
,  // measure 67
0100
0001
1100
0000
0000
0000
0010
0010
,  // measure 68
1000
0001
1100
0001
0010
0010
0101
1000
,  // measure 69
0001
0001
0010
0000
0M00
M000
00MM
0000
,  // measure 70
0000
0000
0000
0000
,  // measure 71
0000
0000
0000
0000
0100
1000
0011
0100
,  // measure 72
0001
0001
1100
0001
1000
1000
0101
0010
,  // measure 73
0001
0001
0400
0000
0310
1000
000F
0000
,  // measure 74
M000
0M00
00M0
0000
M000
000M
00M0
000M
,  // measure 75
0000
0000
0000
0001
,  // measure 76
M000
0M00
00M0
0000
M000
000M
00M0
000M
,  // measure 77
0M00
0000
00M0
0000
M000
0000
0000
0000
0000
000M
0000
0M00
00M0
0000
0000
M000
,  // measure 78
000M
0000
0000
0000
0000
0000
0000
0000
0000
0000
0000
0000
0000
0000
0000
0000
0000
0000
0000
0000
0000
0000
0000
0000
00M0
0000
0000
0000
0000
0000
0000
0000
0000
0000
0000
0000
0M00
0000
0000
0000
0000
0000
0000
0000
0000
0000
0000
0000
0000
0000
0000
0000
0000
0000
0000
0000
0000
0000
0000
0000
0000
0000
0000
0000
0000
0000
0000
0000
0000
0000
0000
0000
0000
0000
0000
0000
0000
0000
0000
0000
0000
0000
0000
0000
0000
0000
0000
0000
0000
0000
0000
0000
0000
0000
0000
0000
0000
0000
0000
0000
0000
0000
0000
0000
0000
0000
1000
0000
0000
0000
0000
0000
0000
0000
0000
0000
0000
0000
0000
0000
0000
0000
0000
0010
0000
0000
0000
0000
0000
0000
0000
0000
0000
0000
0000
0000
0000
0000
0000
0000
0000
0100
0000
0000
0000
0000
0000
0000
0000
0000
0000
0000
0000
0000
0000
0000
0000
0000
0001
0000
0000
0000
0000
0000
0000
0000
0000
0000
0000
0000
0000
0000
0000
0000
0000
2000
0000
0000
0000
0000
0000
0000
0000
0000
0000
0000
0000
0000
0000
0000
0000
0000
,  // measure 79
0000
0000
0000
0000
0000
0000
0000
0000
0000
0000
0000
0000
0000
0000
0000
0000
0000
3001
0000
0000
0000
0000
0000
0000
0000
0000
0000
0000
0000
0000
0000
0000
0000
0000
0020
0000
0000
0000
0000
0000
0000
0000
0000
0000
0000
0000
0000
0000
0000
0000
0000
0000
0000
0000
0000
0000
0000
0000
0000
0000
0000
0000
0000
0000
0000
0000
0000
0000
0000
0000
0000
0000
0000
0000
0000
0000
0000
0000
0000
0000
0000
0000
0000
0000
0000
0000
0000
0000
0000
0000
0000
0000
0000
0000
0000
0000
0030
0000
0000
0000
0000
0000
0000
0000
0000
0000
0000
0000
0000
0000
0000
0000
0000
0000
0000
0000
0000
0000
0000
0000
0000
0000
0000
0000
0000
0000
0000
0000
0000
0000
0000
0000
0000
0000
0000
0000
0000
0000
0000
0000
0000
0000
0000
0000
0000
0000
0000
0000
0000
0000
0000
0000
0000
0000
0000
0000
0000
0000
0000
0000
0000
0000
0000
0000
0000
0000
0000
0000
0000
0000
0000
0000
0000
0000
0000
0000
0000
0000
0000
0000
0000
0000
0000
0000
0000
0000
0000
0000
0000
0000
0000
0000
,  // measure 80
0M00
0000
0000
0000
0000
00M0
0000
0000
0000
0000
0000
0000
00MM
0000
MM00
0000
,  // measure 81
0MM0
0000
0000
0000
M000
0000
000M
0M00
00M0
0M00
000M
0000
0102
0000
0000
0000
,  // measure 82
0013
0100
1010
0001
0100
0001
1010
0100
,  // measure 83
0010
0M00
0010
0000
1100
0000
0001
0000
1000
0000
0100
0000
0020
0000
0000
0000
,  // measure 84
0000
0000
0031
0010
0001
1000
1010
0000
,  // measure 85
0110
0000
0000
0000
0000
0000
0101
0000
0000
0004
0000
0000
0013
0000
0100
0000
1000
0000
0040
0000
0000
0030
0000
0000
,  // measure 86
0100
0000
0001
0020
0000
0000
0130
0010
0001
0100
0000
0000
,  // measure 87
0010
0100
0001
1100
0010
0000
0100
0000
0010
2000
0000
0000
,  // measure 88
0000
0000
3001
0001
0010
0001
1000
0010
,  // measure 89
1000
0001
1100
0010
0100
0001
1100
0010
,  // measure 90
1000
0000
0001
0000
1010
0000
0100
0010
0001
0000
1000
0000
0020
0000
0000
0000
,  // measure 91
0000
0030
0000
0000
;

//---------------dance-single - ----------------
#NOTES:
     dance-single:
     A Dropout:
     Medium:
     7:
     0.437210,0.550760,0.063908,0.205925,0.145568,431.000000,422.000000,9.000000,29.000000,46.000000,0.000000,0.437210,0.550760,0.063908,0.205925,0.145568,431.000000,422.000000,9.000000,29.000000,46.000000,0.000000:
// measure 0
0000
0000
0000
0000
,  // measure 1
0000
0000
0000
0000
,  // measure 2
0000
0000
0000
0000
,  // measure 3
0000
0000
0000
0000
,  // measure 4
0001
0000
0100
0010
0100
0000
0001
1000
,  // measure 5
0001
1000
0000
0100
0010
0000
0001
1000
,  // measure 6
0040
0430
0304
4003
,  // measure 7
3400
0000
0000
0000
0300
1000
0001
0000
,  // measure 8
0100
0000
0010
1000
0001
0000
1000
0100
,  // measure 9
1000
0001
0200
0300
0010
0010
2000
3000
,  // measure 10
0002
0003
0010
0000
0100
0000
1000
0001
,  // measure 11
0100
0100
0010
1000
0001
0010
0100
0000
,  // measure 12
1100
0000
0000
0000
0001
0000
0010
0000
0100
0000
0000
1000
0000
0000
1000
0000
,  // measure 13
0020
0000
0130
0001
0020
0000
0130
1000
,  // measure 14
0001
1M00
0200
0310
,  // measure 15
0001
0000
0001
1000
0010
0000
0000
0000
,  // measure 16
0400
0000
0000
0300
0000
0000
0000
0000
0001
0000
1000
0000
0100
00M0
0100
0000
,  // measure 17
0001
0000
1000
0000
0010
0M00
0010
0000
0001
0000
0000
0010
0000
0000
0100
0000
,  // measure 18
1100
0000
1000
0001
0200
0000
0310
1000
,  // measure 19
1000
0000
0000
0001
0000
0000
0010
0000
0400
0000
0000
0000
1300
0000
0001
0000
,  // measure 20
0100
0001
0000
0010
0010
0100
0010
0001
,  // measure 21
1000
1000
0000
0001
0100
0010
2000
0000
,  // measure 22
3004
0000
0000
0000
0013
0100
0010
0001
,  // measure 23
1000
0010
0100
0001
0010
0000
0M00
0000
,  // measure 24
2010
0000
3100
0000
0010
0100
1000
0001
,  // measure 25
0010
0100
0010
0001
1000
0010
0100
0001
,  // measure 26
0020
0000
0130
0100
,  // measure 27
1100
0000
0000
1000
0000
0000
1001
0000
0000
0001
0100
0010
,  // measure 28
1000
0000
0000
0001
0000
0010
0200
0000
0000
1300
0001
1000
,  // measure 29
0010
0000
0000
0100
0001
0100
0010
1000
0000
0001
0000
0000
,  // measure 30
0020
0000
0000
0000
0130
1000
0100
1000
,  // measure 31
0001
0000
0100
0010
2000
0000
3000
0000
,  // measure 32
0001
0000
1000
0100
1000
0000
0010
0100
,  // measure 33
0001
1000
0001
1000
0100
0000
0020
0030
,  // measure 34
0002
0003
1000
1000
0010
0000
1000
0001
,  // measure 35
0010
0010
0100
0100
1000
0001
0001
0100
,  // measure 36
0010
0000
0000
1000
0000
0000
0100
0000
0010
0000
0000
0000
0100
0000
1000
0000
,  // measure 37
0001
0001
0100
0010
1000
0000
0100
0010
,  // measure 38
0001
0000
1000
0000
0010
0100
0000
0001
,  // measure 39
0010
0100
0000
1000
0010
0100
0001
0000
,  // measure 40
1000
0100
1000
0001
0000
0F00
1000
0F00
,  // measure 41
0000
0000
0000
0000
,  // measure 42
0000
0000
0000
0000
0000
0M00
M000
0M00
,  // measure 43
0000
0000
0000
0000
00M0
0000
0000
0000
0000
0000
0000
0000
0000
0000
0000
0000
000M
M000
0000
00M0
0000
0000
0000
0000
M001
0000
0000
0000
0100
0000
0000
0000
,  // measure 44
0001
0010
0100
0000
1000
0100
1000
0001
,  // measure 45
0010
0001
0100
0010
1000
0001
0010
0100
,  // measure 46
0010
0001
1000
0000
0010
0100
0010
1000
,  // measure 47
0001
0000
0010
0000
0100
0000
0000
0001
0000
0000
0100
0000
1000
0000
0001
0000
,  // measure 48
1000
0010
0400
0000
0301
1000
0001
0010
,  // measure 49
0100
0000
1000
0000
0010
0000
0000
0010
0000
0000
0100
0000
0001
0000
1000
0000
,  // measure 50
0010
0100
0004
0000
1003
0100
1000
0001
,  // measure 51
0010
0001
0100
0040
0130
0001
2000
0000
,  // measure 52
0000
0000
0000
0000
,  // measure 53
0000
0000
0000
0000
,  // measure 54
0000
0000
0000
0000
,  // measure 55
0000
0000
0000
0000
30M0
00M0
1000
0000
,  // measure 56
0000
0100
1000
0000
0000
0001
1000
0010
,  // measure 57
0000
0100
0001
0000
0000
1000
0400
0000
,  // measure 58
0340
0034
4003
3040
,  // measure 59
0000
0000
0030
0100
0001
0000
1000
0000
,  // measure 60
0100
1000
0001
0000
1000
0010
1000
0001
,  // measure 61
0020
0030
0100
0100
2000
3000
0002
0003
,  // measure 62
0100
0000
0010
0000
1000
0001
0010
0010
,  // measure 63
0100
1000
0010
1000
0001
0000
1100
0000
,  // measure 64
0001
0000
0100
0000
0010
0000
0000
1000
0000
0000
1000
0000
0200
0000
0000
0000
,  // measure 65
0310
0001
0200
0000
0310
1000
0001
0000
,  // measure 66
1M00
0200
0310
0001
,  // measure 67
0001
1000
0010
0000
0000
0000
0100
0010
,  // measure 68
0100
0001
1000
0001
0100
0010
0100
0001
,  // measure 69
1000
0100
0010
0000
0M00
M000
00MM
0000
,  // measure 70
0000
0000
0000
0000
,  // measure 71
0000
0000
0000
0000
0100
1000
0001
0010
,  // measure 72
0001
1000
0100
0010
0100
1000
0001
0010
,  // measure 73
0001
0100
0040
0000
1030
0001
0F00
0000
,  // measure 74
M000
0M00
00M0
0000
M000
000M
00M0
000M
,  // measure 75
0000
0000
0000
0100
,  // measure 76
M000
0M00
00M0
0000
M000
000M
00M0
000M
,  // measure 77
0M00
0000
00M0
0000
M000
0000
0000
0000
0000
000M
0000
0M00
00M0
0000
0000
M000
,  // measure 78
000M
0000
0000
0000
0000
0000
0000
0000
0000
0000
0000
0000
0000
0000
0000
0000
0000
0000
0000
0000
0000
0000
0000
0000
00M0
0000
0000
0000
0000
0000
0000
0000
0000
0000
0000
0000
0M00
0000
0000
0000
0000
0000
0000
0000
0000
0000
0000
0000
0000
0000
0000
0000
0000
0000
0000
0000
0000
0000
0000
0000
0000
0000
0000
0000
0000
0000
0000
0000
0000
0000
0000
0000
0000
0000
0000
0000
0000
0000
0000
0000
0000
0000
0000
0000
0000
0000
0000
0000
0000
0000
0000
0000
0000
0000
0000
0000
0000
0000
0000
0000
0000
0000
0000
0000
0000
0000
1000
0000
0000
0000
0000
0000
0000
0000
0000
0000
0000
0000
0000
0000
0000
0000
0000
0010
0000
0000
0000
0000
0000
0000
0000
0000
0000
0000
0000
0000
0000
0000
0000
0000
0000
0100
0000
0000
0000
0000
0000
0000
0000
0000
0000
0000
0000
0000
0000
0000
0000
0000
0001
0000
0000
0000
0000
0000
0000
0000
0000
0000
0000
0000
0000
0000
0000
0000
0000
2000
0000
0000
0000
0000
0000
0000
0000
0000
0000
0000
0000
0000
0000
0000
0000
0000
,  // measure 79
0000
0000
0000
0000
0000
0000
0000
0000
0000
0000
0000
0000
0000
0000
0000
0000
0000
3001
0000
0000
0000
0000
0000
0000
0000
0000
0000
0000
0000
0000
0000
0000
0000
0000
0020
0000
0000
0000
0000
0000
0000
0000
0000
0000
0000
0000
0000
0000
0000
0000
0000
0000
0000
0000
0000
0000
0000
0000
0000
0000
0000
0000
0000
0000
0000
0000
0000
0000
0000
0000
0000
0000
0000
0000
0000
0000
0000
0000
0000
0000
0000
0000
0000
0000
0000
0000
0000
0000
0000
0000
0000
0000
0000
0000
0000
0000
0030
0000
0000
0000
0000
0000
0000
0000
0000
0000
0000
0000
0000
0000
0000
0000
0000
0000
0000
0000
0000
0000
0000
0000
0000
0000
0000
0000
0000
0000
0000
0000
0000
0000
0000
0000
0000
0000
0000
0000
0000
0000
0000
0000
0000
0000
0000
0000
0000
0000
0000
0000
0000
0000
0000
0000
0000
0000
0000
0000
0000
0000
0000
0000
0000
0000
0000
0000
0000
0000
0000
0000
0000
0000
0000
0000
0000
0000
0000
0000
0000
0000
0000
0000
0000
0000
0000
0000
0000
0000
0000
0000
0000
0000
0000
0000
,  // measure 80
0M00
0000
0000
0000
0000
00M0
0000
0000
0000
0000
0000
0000
00MM
0000
MM00
0000
,  // measure 81
0MM0
0000
0000
0000
M000
0000
000M
0M00
00M0
0M00
000M
0000
1002
0000
0000
0000
,  // measure 82
0013
0000
0100
0010
0001
1000
0100
0010
,  // measure 83
0100
1000
0001
0100
0010
1000
0200
0000
,  // measure 84
0000
0310
0010
0011
,  // measure 85
0001
0000
0000
1001
0000
0000
1000
0010
0100
0001
0000
0000
,  // measure 86
1000
0000
0100
0020
0000
0000
0031
1000
0001
0100
0000
0000
,  // measure 87
0010
1000
0010
0100
0001
0000
1000
0000
0000
0200
0000
0000
,  // measure 88
0000
0000
0310
0001
0010
0001
1000
0000
,  // measure 89
0010
0100
0001
0010
0000
0100
1000
0010
,  // measure 90
0000
0100
0001
0010
0100
1000
0002
0000
,  // measure 91
0000
0003
0000
0000
;

//---------------dance-single - ----------------
#NOTES:
     dance-single:
     Droplet:
     Beginner:
     2:
     0.154190,0.225541,0.028403,0.085210,0.063908,152.000000,148.000000,4.000000,12.000000,50.000000,0.000000,0.154190,0.225541,0.028403,0.085210,0.063908,152.000000,148.000000,4.000000,12.000000,50.000000,0.000000:
0000
0000
0000
0000
,
0000
0000
0000
0000
,
0000
0000
0000
0000
,
0000
0000
0000
0000
,
1000
0000
1000
0000
,
0001
0000
0001
0000
,
0100
0000
0100
0000
,
0020
0000
0030
0000
,
0100
0000
0100
0000
,
0001
0000
1000
0100
,
0100
0000
0010
0000
,
0100
0000
0001
0000
,
0100
0000
0010
0000
,
0001
0000
0100
0000
,
0001
0000
1000
0000
,
0100
0000
0100
0000
,
1001
0000
0100
0000
,
0100
0000
0100
0000
,
0110
0000
0001
0000
,
0001
0000
0001
0000
,
0010
0000
0010
0000
,
0100
0000
0100
0000
,
1000
0000
0001
0000
,
0010
0000
0200
0300
,
1000
0000
0001
1000
,
0001
0000
0010
0000
,
0200
0000
1300
0000
,
0001
0000
0100
0000
,
0010
0000
0100
0000
,
0010
0000
1000
0000
,
0200
0000
0310
0000
,
0100
0000
2000
3000
,
0001
0000
0001
0000
,
0100
0000
0010
1000
,
1000
0000
0001
0000
,
1000
0000
0100
0000
,
0010
0000
0001
0000
,
1000
0000
0001
0000
,
0100
0000
0110
0000
,
0010
0000
0010
0000
,
1000
0000
0000
0000
0000
0000
0000
0000
0000
0000
0000
0000
0000
0000
F00F
FF0F
,
F0FF
F00F
0000
FFFF
F00F
F00F
FFFF
0000
0000
0000
0000
0000
0000
0000
0000
0000
,
0000
0000
0000
0000
0000
0000
0000
0000
0000
0000
0000
0000
0000
0000
M00M
MM0M
,
M0MM
M00M
0000
MMMM
M00M
M00M
MMMM
0000
0000
0000
0000
0000
0001
0000
0000
0000
,
0000
0010
0001
0000
,
0000
1000
0000
0100
,
0000
0010
0100
0000
,
0000
1000
0000
0010
,
0000
0100
0010
0000
,
0000
1000
0000
0100
,
0000
0010
0100
0000
,
0100
1000
0000
0001
,
0000
0000
0000
0000
,
0000
0000
0000
0000
,
0000
0000
0000
0000
,
0000
0000
0000
1000
,
0000
1000
0000
0001
,
0000
0001
0000
0010
,
0000
0010
0000
0200
,
0000
0300
0000
0010
,
0000
0010
0000
0001
,
0000
1000
0010
0010
,
0000
0100
0000
0010
,
0000
0001
0000
0010
,
0000
0100
0000
0001
,
0000
0010
0000
0001
,
0000
1000
0000
0010
,
0000
0010
0000
1001
,
0000
1000
0000
0001
,
0000
0100
0000
00M0
,
0000
0000
0000
0000
,
0000
0001
0000
0010
,
0000
0010
0000
1000
,
0000
0002
0000
0003
,
M000
0M00
00M0
0000
0000
0000
0000
0000
,
0000
0000
0000
0000
,
M000
0M00
00M0
0000
M000
000M
00M0
000M
,
0M00
0000
00M0
0000
M000
0000
0000
0000
0000
000M
0000
0M00
00M0
0000
0000
M000
,
000M
0000
0000
0000
0000
0000
0000
0000
0000
0000
0000
0000
0000
0000
0000
0000
0000
0000
0000
0000
0000
0000
0000
0000
00M0
0000
0000
0000
0000
0000
0000
0000
0000
0000
0000
0000
0M00
0000
0000
0000
0000
0000
0000
0000
0000
0000
0000
0000
0000
0000
0000
0000
0000
0000
0000
0000
0000
0000
0000
0000
0000
0000
0000
0000
0000
0000
0000
0000
0000
0000
0000
0000
0000
0000
0000
0000
0000
0000
0000
0000
0000
0000
0000
0000
0000
0000
0000
0000
0000
0000
0000
0000
0000
0000
0000
0000
0000
0000
0000
0000
0000
0000
0000
0000
0000
0000
1000
0000
0000
0000
0000
0000
0000
0000
0000
0000
0000
0000
0000
0000
0000
0000
0000
0000
0000
0000
0000
0000
0000
0000
0000
0000
0000
0000
0000
0000
0000
0000
0000
0000
0000
0000
0000
0000
0000
0000
0000
0000
0000
0000
0000
0000
0000
0000
0000
0000
0000
0000
0000
0000
0000
0000
0000
0000
0000
0000
0000
0000
0000
0000
0000
0000
0000
0000
0000
0001
0000
0000
0000
0000
0000
0000
0000
0000
0000
0000
0000
0000
0000
0000
0000
0000
,
0000
0000
0000
0000
0000
0000
0000
0000
0000
0000
0000
0000
0000
0000
0000
0000
0000
0000
0000
0000
0000
0000
0000
0000
0000
0000
0000
0000
0000
0000
0000
0000
0000
0000
0020
0000
0000
0000
0000
0000
0000
0000
0000
0000
0000
0000
0000
0000
0000
0000
0000
0000
0000
0000
0000
0000
0000
0000
0000
0000
0000
0000
0000
0000
0000
0000
0000
0000
0000
0000
0000
0000
0000
0000
0000
0000
0000
0000
0000
0000
0000
0000
0000
0000
0000
0000
0000
0000
0000
0000
0000
0000
0000
0000
0000
0000
0030
0000
0000
0000
0000
0000
0000
0000
0000
0000
0000
0000
0000
0000
0000
0000
0000
0000
0000
0000
0000
0000
0000
0000
0000
0000
0000
0000
0000
0000
0000
0000
0000
0000
0000
0000
0000
0000
0000
0000
0000
0000
0000
0000
0000
0000
0000
0000
0000
0000
0000
0000
0000
0000
0000
0000
0000
0000
0000
0000
0000
0000
0000
0000
0000
0000
0000
0000
0000
0000
0000
0000
0000
0000
0000
0000
0000
0000
0000
0000
0000
0000
0000
0000
0000
0000
0000
0000
0000
0000
0000
0000
0000
0000
0000
0000
,
0M00
0000
0000
0000
0000
0M00
0000
0000
0000
0000
0000
0000
0M00
0000
0M00
0000
,
0M00
0000
0000
0000
0M00
0000
M000
0M00
M000
0M00
M000
0000
0001
0000
0000
0000
,
0000
1000
0001
1000
,
0000
0100
0000
0020
,
0000
0031
0000
1000
,
0000
0010
0000
0100
,
0000
0010
0000
0100
,
0000
0001
0000
0020
,
0000
0130
0000
0010
,
0000
0002
0003
2000
,
3000
0010
0000
0100
;

//---------------dance-single - ----------------
#NOTES:
     dance-single:
     A drop pop candy:
     Easy:
     4:
     0.299251,0.388772,0.099412,0.184622,0.056807,295.000000,281.000000,14.000000,26.000000,44.000000,0.000000,0.299251,0.388772,0.099412,0.184622,0.056807,295.000000,281.000000,14.000000,26.000000,44.000000,0.000000:
// measure 0
0000
0000
0000
0000
,  // measure 1
0000
0000
0000
0000
,  // measure 2
0000
0000
0000
0000
,  // measure 3
0000
0000
0000
0000
,  // measure 4
1000
0100
1000
0001
,  // measure 5
0100
0001
1000
0010
,  // measure 6
0100
0100
0001
0001
,  // measure 7
1000
1000
0100
0000
,  // measure 8
1000
0001
0100
0010
,  // measure 9
1000
0100
0010
0001
,  // measure 10
0002
0003
0100
0000
0100
0000
0010
0000
,  // measure 11
1000
0100
0010
0100
,  // measure 12
1100
1000
0001
0100
,  // measure 13
0020
1030
0200
0310
,  // measure 14
0001
1M00
0002
0103
,  // measure 15
0010
0010
1001
0000
,  // measure 16
1000
0001
0000
0000
0010
0000
0400
0000
,  // measure 17
1300
0004
0103
0010
,  // measure 18
0110
1000
0100
0010
,  // measure 19
0010
0001
0100
0010
,  // measure 20
1010
0000
0000
1000
0010
0000
0000
1000
,  // measure 21
0001
1000
0000
0100
0010
0000
0001
0000
,  // measure 22
2000
0000
0000
0000
3010
0000
0010
0100
,  // measure 23
0001
1000
0100
00M0
,  // measure 24
0100
0001
0010
0001
,  // measure 25
0100
0010
1000
0001
,  // measure 26
0020
0000
0130
0100
,  // measure 27
1100
1000
0010
0400
,  // measure 28
0301
1000
1200
0310
,  // measure 29
0011
0000
0000
0001
0000
0000
1000
0010
0000
0100
0000
0000
,  // measure 30
0002
0000
0000
0000
1003
0000
1000
0100
,  // measure 31
0010
0001
2000
3000
,  // measure 32
0001
0100
0100
0010
,  // measure 33
1000
0000
1000
0000
0001
0000
0020
0030
,  // measure 34
0200
0300
1000
0000
1000
0000
0001
0000
,  // measure 35
0100
0100
0100
0010
,  // measure 36
1010
1000
0001
0010
,  // measure 37
0100
0000
0100
0010
0001
0000
1000
0000
,  // measure 38
0010
0000
0000
0000
0100
0010
0000
0000
,  // measure 39
0100
0010
0000
0000
1000
0000
0001
0000
,  // measure 40
0100
0000
0100
0000
0000
F000
F000
F000
,  // measure 41
000F
0000
0000
0000
,  // measure 42
0000
0000
0000
0000
0000
M000
M000
M000
,  // measure 43
0000
0000
0000
0000
000M
0000
0000
0000
0000
0000
0000
0000
0000
0000
0000
0000
000M
M000
0000
00M0
0000
0000
0000
0000
M001
0000
0000
0000
0000
0000
0000
0000
,  // measure 44
0001
0010
0100
0000
1000
0000
1000
0000
,  // measure 45
0010
0200
0301
1000
,  // measure 46
1000
0100
0010
0000
0001
0000
0001
0000
,  // measure 47
0100
0020
0000
0130
,  // measure 48
0100
0001
1000
0000
0100
0000
0100
0000
,  // measure 49
0010
0002
0000
0013
,  // measure 50
0010
0100
1000
0000
0001
0000
0001
0000
,  // measure 51
0100
0010
0010
2000
,  // measure 52
0000
0000
0000
0000
,  // measure 53
0000
0000
0000
0000
,  // measure 54
0000
0000
0000
0000
,  // measure 55
0000
0000
0000
0000
30M0
00M0
0001
0000
,  // measure 56
0100
0001
1000
0010
,  // measure 57
1000
0001
0010
0100
,  // measure 58
0100
1000
1000
0001
,  // measure 59
0001
0100
0000
0001
,  // measure 60
1000
0010
0100
0001
,  // measure 61
0010
0000
0100
0000
1000
0000
2000
3000
,  // measure 62
0010
0010
0100
0001
,  // measure 63
0010
0100
0010
0011
,  // measure 64
0001
1000
0010
0200
,  // measure 65
0301
0020
0130
1000
,  // measure 66
0M02
1003
0100
0010
,  // measure 67
0010
1001
0000
0001
,  // measure 68
0001
0100
0001
0001
,  // measure 69
1000
0100
M000
000M
,  // measure 70
0000
0000
0000
0000
,  // measure 71
0000
0000
1000
0001
,  // measure 72
0001
0100
0010
0010
,  // measure 73
1000
0002
0000
0F03
,  // measure 74
M000
0M00
00M0
0000
M000
000M
00M0
000M
,  // measure 75
0000
0000
0000
0100
,  // measure 76
M000
0M00
00M0
0000
M000
000M
00M0
000M
,  // measure 77
0M00
0000
00M0
0000
M000
0000
0000
0000
0000
000M
0000
0M00
00M0
0000
0000
M000
,  // measure 78
000M
0000
0000
0000
0000
0000
0000
0000
0000
0000
0000
0000
0000
0000
0000
0000
0000
0000
0000
0000
0000
0000
0000
0000
00M0
0000
0000
0000
0000
0000
0000
0000
0000
0000
0000
0000
0M00
0000
0000
0000
0000
0000
0000
0000
0000
0000
0000
0000
0000
0000
0000
0000
0000
0000
0000
0000
0000
0000
0000
0000
0000
0000
0000
0000
0000
0000
0000
0000
0000
0000
0000
0000
0000
0000
0000
0000
0000
0000
0000
0000
0000
0000
0000
0000
0000
0000
0000
0000
0000
0000
0000
0000
0000
0000
0000
0000
0000
0000
0000
0000
0000
0000
0000
0000
0000
0000
1000
0000
0000
0000
0000
0000
0000
0000
0000
0000
0000
0000
0000
0000
0000
0000
0000
0000
0000
0000
0000
0000
0000
0000
0000
0000
0000
0000
0000
0000
0000
0000
0000
0000
0000
0000
0000
0000
0000
0000
0000
0000
0000
0000
0000
0000
0000
0000
0000
0000
0000
0000
0001
0000
0000
0000
0000
0000
0000
0000
0000
0000
0000
0000
0000
0000
0000
0000
0000
2000
0000
0000
0000
0000
0000
0000
0000
0000
0000
0000
0000
0000
0000
0000
0000
0000
,  // measure 79
0000
0000
0000
0000
0000
0000
0000
0000
0000
0000
0000
0000
0000
0000
0000
0000
0000
3001
0000
0000
0000
0000
0000
0000
0000
0000
0000
0000
0000
0000
0000
0000
0000
0000
0020
0000
0000
0000
0000
0000
0000
0000
0000
0000
0000
0000
0000
0000
0000
0000
0000
0000
0000
0000
0000
0000
0000
0000
0000
0000
0000
0000
0000
0000
0000
0000
0000
0000
0000
0000
0000
0000
0000
0000
0000
0000
0000
0000
0000
0000
0000
0000
0000
0000
0000
0000
0000
0000
0000
0000
0000
0000
0000
0000
0000
0000
0030
0000
0000
0000
0000
0000
0000
0000
0000
0000
0000
0000
0000
0000
0000
0000
0000
0000
0000
0000
0000
0000
0000
0000
0000
0000
0000
0000
0000
0000
0000
0000
0000
0000
0000
0000
0000
0000
0000
0000
0000
0000
0000
0000
0000
0000
0000
0000
0000
0000
0000
0000
0000
0000
0000
0000
0000
0000
0000
0000
0000
0000
0000
0000
0000
0000
0000
0000
0000
0000
0000
0000
0000
0000
0000
0000
0000
0000
0000
0000
0000
0000
0000
0000
0000
0000
0000
0000
0000
0000
0000
0000
0000
0000
0000
0000
,  // measure 80
0M00
0000
0000
0000
0000
00M0
0000
0000
0000
0000
0000
0000
0MM0
0000
0MM0
0000
,  // measure 81
0MM0
0000
0000
0000
0M00
0000
00M0
0M00
00M0
0M00
00M0
0000
0001
0000
0000
0000
,  // measure 82
1000
0100
1000
0010
,  // measure 83
0100
0001
1000
0200
,  // measure 84
0000
0310
0010
0011
,  // measure 85
0001
0100
0040
1030
,  // measure 86
0001
0021
0130
1100
,  // measure 87
1000
0000
0000
0001
0100
0000
0010
0000
0000
2000
0000
0000
,  // measure 88
0000
0000
3001
0000
0001
0010
0100
0000
,  // measure 89
1000
0000
0001
0100
0000
0000
0001
1000
,  // measure 90
0000
0001
0010
2001
,  // measure 91
0000
3000
0000
0000
;
