#VERSION:0.83;
#TITLE:28 Grams;
#SUBTITLE:;
#ARTIST:Wolfgang Gartner;
#TITLETRANSLIT:;
#SUBTITLETRANSLIT:;
#ARTISTTRANSLIT:;
#GENRE:Complextro;
#ORIGIN:;
#CREDIT:Benpai & Feraligatr;
#BANNER:28grams-bn.png;
#BACKGROUND:28grams-bg-wide.png;
#PREVIEWVID:;
#JACKET:28grams-jacket.png;
#CDIMAGE:bengatr-cd.png;
#DISCIMAGE:28grams-bg.png;
#LYRICSPATH:;
#CDTITLE:;
#MUSIC:28 Grams.ogg;
#OFFSET:0.009000;
#SAMPLESTART:20.778000;
#SAMPLELENGTH:15.118000;
#SELECTABLE:YES;
#DISPLAYBPM:127.000000;
#BPMS:0.000=127.000,
43.000=190.500,
43.750=63.500,
44.000=127.000,
60.000=190.500,
60.750=63.500,
61.000=127.000,
92.000=190.500,
92.750=63.500,
93.000=127.000,
104.000=190.500,
104.500=127.000,
105.000=190.500,
105.500=127.000,
106.000=190.500,
108.000=127.000,
123.000=190.500,
123.750=63.500,
124.000=127.000,
140.000=190.500,
140.750=63.500,
141.000=127.000,
172.000=190.500,
172.750=63.500,
173.000=127.000;
#STOPS:104.000=0.079,
105.000=0.079,
106.000=0.079,
106.500=0.079,
107.000=0.078,
107.500=0.079;
#DELAYS:;
#WARPS:;
#TIMESIGNATURES:0.000=4=4;
#TICKCOUNTS:0.000=4;
#COMBOS:0.000=1;
#SPEEDS:0.000=1.000=0.000=0;
#SCROLLS:0.000=1.000;
#FAKES:;
#LABELS:0.000=Song Start;
#BGCHANGES:;
#KEYSOUNDS:;
#ATTACKS:
;

//---------------dance-single - Benpai & Feraligatr----------------
#NOTEDATA:;
#CHARTNAME:Benpai & Feraligatr SX;
#STEPSTYPE:dance-single;
#DESCRIPTION:Benpai & Feraligatr;
#CHARTSTYLE:Pad;
#DIFFICULTY:Challenge;
#METER:10;
#RADARVALUES:0.661943,0.757039,0.233078,0.205109,0.540742,497.000000,472.000000,25.000000,22.000000,10.000000,0.000000,32.000000,0.000000,0.000000,0.661943,0.757039,0.233078,0.205109,0.540742,497.000000,472.000000,25.000000,22.000000,10.000000,0.000000,32.000000,0.000000,0.000000;
#CREDIT:Benpai & Feraligatr;
#DISPLAYBPM:127.000000;
#NOTES:
// measure 0
0000
0000
0000
0000
,  // measure 1
0000
0000
0000
0000
,  // measure 2
0000
0000
0000
0000
,  // measure 3
0000
0000
0000
0000
,  // measure 4
0001
0010
0000
0000
0001
0000
1000
0100
1000
0000
0010
0000
0100
0000
0001
0000
,  // measure 5
1000
0100
0000
0000
1000
0000
0001
0010
0001
0000
0100
0000
0010
0000
1000
0000
,  // measure 6
0002
0000
0000
1003
0010
0000
0200
0000
0301
0000
1000
0000
0100
0000
0010
0000
,  // measure 7
0011
1000
1001
0001
0101
1000
1010
0001
,  // measure 8
0011
1000
1010
0010
0110
0001
0010
0010
,  // measure 9
0100
0000
0100
0000
1000
0000
1000
0000
0004
0000
0403
0000
0320
0000
0000
0030
,  // measure 10
1000
0000
0000
0000
0000
0000
0000
0000
0000
0000
0000
0000
0100
0000
0000
0000
0000
0000
0000
0000
0000
0000
0000
0000
1000
0000
0000
0000
0000
0000
0000
0000
0000
0000
0000
0000
0000
0000
0000
0000
0000
0000
0000
0000
0000
0000
0000
0000
0010
0000
0000
0000
0000
0000
0000
0000
0000
0000
0000
0000
0000
0000
0000
0000
0000
0000
0000
0000
0000
0000
0000
0000
0100
0000
0000
0000
0000
0000
0000
0000
0000
0000
0000
0000
0000
0000
0000
0000
0000
0001
0000
0000
0000
0000
0000
0000
0010
0000
0000
0000
0000
0000
0000
0000
0000
0000
0000
0000
0000
0000
0000
0000
0000
0000
0000
0000
0000
0000
0000
0000
0100
0000
0000
0000
0000
0000
0000
0000
0000
0000
0000
0000
0000
0000
0000
0000
0000
0000
0000
0000
0000
0000
0000
0000
0011
0000
0000
0000
0000
0000
0000
0000
0000
0000
0000
0000
0000
0000
0000
0000
0000
0000
0000
0000
0000
0000
0000
0000
0000
0000
0000
0000
0000
0000
0000
0000
0000
0000
0000
0000
0000
0000
0000
0000
0000
0000
0000
0000
0000
0000
0000
0000
,  // measure 11
1001
0000
4000
3000
4000
3000
0010
00M1
,  // measure 12
0010
0000
0000
0000
0000
0000
0000
0000
1000
0000
0000
0000
0000
0000
0000
0000
0020
0000
0000
0000
0000
0000
0000
0000
0000
0000
0000
0000
0030
0000
0000
0000
0100
0000
0000
0000
0000
0010
0000
0000
0001
0000
0000
0000
0100
0000
0000
0000
0010
0000
0000
0000
0000
0000
0000
0000
1000
0000
0000
0000
0000
0000
0000
0000
,  // measure 13
1400
0310
1400
0310
0004
0000
1000
0013
,  // measure 14
0001
0000
0000
0000
0001
0000
0000
0000
0001
0000
0000
0000
1000
0000
0000
0000
1000
0000
0000
0000
1000
0000
0000
0000
0100
0000
0000
0010
0000
0000
0001
0000
0000
1000
0000
0000
0001
0000
0000
0100
0000
0000
0010
0000
0000
1000
0000
0000
,  // measure 15
0200
0000
0000
0300
0040
0000
0030
0000
0040
0000
0030
0000
0100
0000
0M01
0000
,  // measure 16
0100
0000
0000
0000
0000
0000
1000
0000
0000
0000
0000
0000
0200
0000
0000
0000
0000
0000
0000
0000
0000
0300
0000
0000
0010
0000
1000
0000
0001
0000
1000
0000
0000
0100
0000
0000
0020
0000
0000
0000
0000
0000
0031
0000
0000
0000
0000
0000
,  // measure 17
1000
0000
0010
0100
0001
0000
1000
0000
0100
0010
0001
0000
1000
0000
0010
0000
,  // measure 18
1000
0000
0000
0000
0000
0000
0000
0000
0100
0000
0000
0000
0000
0000
0000
0000
0010
0000
0000
0000
0000
0000
0000
0000
0001
0000
0000
0000
0000
1000
0000
0000
0010
0000
0000
0000
1000
0000
0000
0000
0001
0000
0000
0000
0000
0000
0000
0000
0010
0000
0000
0000
0001
0000
0000
0000
1000
0000
0000
0000
0000
0000
0000
0000
,  // measure 19
1010
1000
0004
0013
0004
0013
0100
0M01
,  // measure 20
0100
0000
0000
0000
0000
0000
0000
0000
1000
0000
0000
0000
0000
0000
0000
0000
0200
0000
0000
0000
0000
0000
0000
0000
0000
0000
0000
0000
0300
0000
0000
0000
0010
0000
0000
0000
0000
0100
0000
0000
0001
0000
0000
0000
0010
0000
0000
0000
0100
0000
0000
0000
0000
0000
0000
0000
1000
0000
0000
0000
0000
0000
0000
0000
,  // measure 21
4010
3001
4010
3001
4000
0000
0001
3100
,  // measure 22
1000
0000
0000
0000
1000
0000
0000
0000
1000
0000
0000
0000
0001
0000
0000
0000
0001
0000
0000
0000
0001
0000
0000
0000
0100
0000
0000
0010
0000
0000
1000
0000
0000
0001
0000
0000
1000
0000
0000
0100
0000
0000
0010
0000
0000
0001
0000
0000
,  // measure 23
0200
0000
0000
0300
0040
0000
1030
0000
0040
0000
1030
0000
0001
0000
0010
0000
,  // measure 24
0100
0000
0000
0000
0000
0000
0001
0000
0000
0000
0000
0000
0200
0000
0000
0000
0000
0000
0000
0000
0000
0300
0000
0000
0010
0000
0001
0000
1000
0000
0001
0000
0000
0100
0000
0000
0020
0000
0000
0000
0000
0000
1030
0000
0000
0000
0000
0000
,  // measure 25
0100
0000
0010
0000
0001
0000
1000
0000
0010
0000
0001
0000
0010
0000
1000
0001
,  // measure 26
0100
0000
0000
0000
0000
0000
0000
0000
0000
0000
0000
0000
0000
0000
0000
0000
0000
0000
0000
0000
0000
0000
0000
0000
0001
0000
0000
0000
0000
0000
0000
0000
0000
0000
0000
0000
1000
0000
0000
0000
0000
0000
0000
0000
0000
0000
0000
0000
0100
0000
0000
0000
0000
0000
0000
0000
0000
0000
0000
0000
0000
0000
0000
0000
0000
0000
0000
0000
0000
0000
0000
0000
0010
0000
0000
0000
0000
0000
0000
0000
0000
0000
0000
0000
0000
0000
0000
0000
0000
0100
0000
0000
0000
0000
0000
0000
1000
0000
0000
0000
0000
0000
0000
0000
0000
0000
0000
0000
0000
0000
0000
0000
0000
0000
0000
0000
0000
0000
0000
0000
0001
0000
0000
0000
0000
0000
0000
0000
0000
0000
0000
0000
0000
0000
0000
0000
0000
0000
0000
0000
0000
0000
0000
0000
1000
0000
0000
0000
0000
0000
0000
0000
0000
0000
0000
0000
0000
0000
0000
0000
0000
0000
0000
0000
0000
0000
0000
0000
0001
0000
0000
0000
0000
0000
0000
0000
0000
0000
0000
0000
0000
0000
0000
0000
0000
0000
0000
0000
0000
0000
0000
0000
,  // measure 27
0401
0000
0000
0310
1000
0000
0001
0010
0001
1000
0010
0000
1000
0000
0001
0010
,  // measure 28
0100
1000
0010
0100
0001
1000
0010
1000
0100
0010
0100
1000
0001
0100
0001
0000
,  // measure 29
0020
0000
0000
0130
1000
0000
0001
0000
0100
0000
1000
0000
0100
0000
0010
0000
,  // measure 30
1000
0000
0000
0000
0000
0000
0000
0000
0001
0000
0000
0000
0000
0000
0000
0000
0010
0000
0000
0000
0000
0000
0000
0000
0010
0000
0000
0000
0000
0100
0000
0000
1000
0000
0000
0000
0000
0000
0000
0000
0010
0000
0000
0000
0100
0000
0000
0000
0002
0000
0000
0000
0000
0000
0000
0000
0000
0000
0000
0000
0003
0000
0000
0000
,  // measure 31
1001
0000
001M
0000
0100
0000
0001
0000
0010
0100
M000
0100
0001
0000
1000
0000
,  // measure 32
0040
0000
0000
0000
1000
0000
0130
0001
0010
0100
M000
0100
0001
0000
1000
0000
,  // measure 33
1040
0130
1040
0130
0001
1000
0100
1000
,  // measure 34
0010
0000
0000
0000
0010
0000
0000
0000
0010
0000
0000
0000
0100
0000
0000
0000
0100
0000
0000
0000
0100
0000
0000
0000
0001
0000
0000
1000
0000
0000
0100
0000
0000
0010
0000
0000
0001
0000
0000
1000
0000
0000
0100
0000
0000
1000
0000
0000
,  // measure 35
0020
0000
0000
0030
0400
0000
0301
0000
0400
0000
0301
0000
0100
0000
1M00
0000
,  // measure 36
0100
0000
0000
0000
0000
0000
0001
0000
0000
0000
0000
0000
0200
0000
0000
0000
0000
0000
0000
0000
0000
0300
0000
0000
0010
0000
0001
0000
1000
0000
0001
0000
0000
0100
0000
0000
0020
0000
0000
0000
0000
0000
1030
0000
0000
0000
0000
0000
,  // measure 37
0100
0010
0001
1000
0010
0001
0010
0100
,  // measure 38
0001
0000
0000
0000
0000
0000
0000
0000
0000
0000
0000
0000
0010
0000
0000
0000
0000
0000
0000
0000
0000
0000
0000
0000
0100
0000
0000
0000
0000
0000
0000
0000
0000
0000
0000
0000
0000
0000
0000
0000
0000
0000
0000
0000
0000
0000
0000
0000
1000
0000
0000
0000
0000
0000
0000
0000
0000
0000
0000
0000
0000
0000
0000
0000
0000
0000
0000
0000
0000
0000
0000
0000
0001
0000
0000
0000
0000
0000
0000
0000
0000
0000
0000
0000
0000
0000
0000
0000
0000
1000
0000
0000
0000
0000
0000
0000
0010
0000
0000
0000
0000
0000
0000
0000
0000
0000
0000
0000
1000
0000
0000
0000
0000
0000
0000
0000
0000
0000
0000
0000
0001
0000
0000
0000
0000
0000
0000
0000
0000
0000
0000
0000
0000
0000
0000
0000
0000
0000
0000
0000
0000
0000
0000
0000
0010
0000
0000
0000
0000
0000
0000
0000
0000
0000
0000
0000
0100
0000
0000
0000
0000
0000
0000
0000
0000
0000
0000
0000
1000
0000
0000
0000
0000
0000
0000
0000
0000
0000
0000
0000
0000
0000
0000
0000
0000
0000
0000
0000
0000
0000
0000
0000
,  // measure 39
0010
1000
0001
0010
0001
0000
0100
0010
1000
0001
1000
0100
0010
0100
0002
0003
,  // measure 40
0100
0010
0001
1000
0010
0000
0100
0001
1000
0100
0010
0001
1000
0000
0001
0000
,  // measure 41
0401
0310
0401
0310
4000
0000
0000
0000
,  // measure 42
3001
0000
0000
0000
0001
0000
0000
0000
0001
0000
0000
0000
1000
0000
0000
0000
1000
0000
0000
0000
1000
0000
0000
0000
0001
0000
0000
0010
0000
0000
0100
0000
0000
0010
0000
0000
0001
0000
0000
1000
0000
0000
0010
0000
0000
1000
0000
0000
,  // measure 43
0200
0000
0000
0300
0040
0000
0031
0000
0040
0000
0031
0000
0100
0000
10M0
0000
,  // measure 44
0010
0000
0000
0000
0000
0000
0001
0000
0000
0000
0000
0000
0020
0000
0000
0000
0000
0000
0000
0000
0000
0030
0000
0000
0100
0000
0001
0000
1000
0000
0001
0000
0000
0010
0000
0000
0200
0000
0000
0000
0000
0000
1300
0000
0000
0000
0000
0000
,  // measure 45
1004
0000
0000
0000
0000
0000
0000
0000
0000
0000
0000
0000
0000
0000
0000
0000
0000
0000
0000
0000
0000
0000
0000
0000
0103
0000
0000
0000
0000
0000
0000
0000
0000
0000
0000
0000
0000
0000
0000
0000
0000
0000
0000
0000
0000
0000
0000
0000
1004
0000
0000
0000
0000
0000
0000
0000
0000
0000
0000
0000
0000
0000
0000
0000
0000
0000
0000
0000
0000
0000
0000
0000
0103
0000
0000
0000
0000
0000
0000
0000
0000
0000
0000
0000
0000
0000
0000
0000
0000
0001
0000
0000
0000
0000
0000
0000
0010
0000
0000
0000
0000
0000
0000
0000
0000
0000
0000
0000
0000
0000
0000
0000
0000
0000
0000
0000
0000
0000
0000
0000
0000
0000
0000
0000
0000
0000
0000
0000
0000
0000
0000
0000
0000
0000
0000
0000
0000
0000
0000
0000
0000
0000
0000
0000
0010
0000
0000
0000
0000
0000
0000
0000
0000
0000
0000
0000
0000
0000
0000
0000
0000
0000
0000
0000
0000
0000
0000
0000
0000
0000
0000
0000
0000
0000
0000
0000
0000
0000
0000
0000
0000
0000
0000
0000
0000
0000
0000
0000
0000
0000
0000
0000
,  // measure 46
4001
0000
0000
0000
0000
0000
0000
0000
0000
0000
0000
0000
0000
0000
0000
0000
0000
0000
0000
0000
0000
0000
0000
0000
3100
0000
0000
0000
0000
0000
0000
0000
0000
0000
0000
0000
0000
0000
0000
0000
0000
0000
0000
0000
0000
0000
0000
0000
4001
0000
0000
0000
0000
0000
0000
0000
0000
0000
0000
0000
0000
0000
0000
0000
0000
0000
0000
0000
0000
0000
0000
0000
3100
0000
0000
0000
0000
0000
0000
0000
0000
0000
0000
0000
0000
0000
0000
0000
0000
1000
0000
0000
0000
0000
0000
0000
0010
0000
0000
0000
0000
0000
0000
0000
0000
0000
0000
0000
0000
0000
0000
0000
0000
0000
0000
0000
0000
0000
0000
0000
0000
0000
0000
0000
0000
0000
0000
0000
0000
0000
0000
0000
0000
0000
0000
0000
0000
0000
0000
0000
0000
0000
0000
0000
0010
0000
0000
0000
0000
0000
0000
0000
0000
0000
0000
0000
0000
0000
0000
0000
0000
0000
0000
0000
0000
0000
0000
0000
0000
0000
0000
0000
0000
0000
0000
0000
0000
0000
0000
0000
0000
0000
0000
0000
0000
0000
0000
0000
0000
0000
0000
0000
,  // measure 47
0110
0000
0000
0000
0001
0000
0010
0100
1000
0000
0010
0000
0100
0000
0001
1000
,  // measure 48
0100
0000
0010
0000
1000
0000
0000
0000
0010
0000
0000
0000
0100
00M0
0100
0000
0001
0000
0000
0000
0010
0000
0000
0000
0100
0000
0000
0000
0001
0000
0000
0000
,  // measure 49
0100
0010
000M
0010
1000
0000
0001
0000
0010
0100
0001
0000
0100
0000
0010
0000
,  // measure 50
0001
0000
0000
0000
0000
0000
0000
0000
0100
0000
0000
0000
0000
0000
0000
0000
0010
0000
0000
0000
0000
0000
0000
0000
0001
0000
0000
0000
0000
0000
0000
0000
0010
0000
0000
0000
0000
1000
0000
0000
0001
0000
0000
0000
1000
0000
0000
0000
0010
0000
0000
0000
0000
0000
0000
0000
0010
0000
0000
0000
0000
0000
0000
0000
,  // measure 51
1000
0100
0000
0000
1000
0000
0001
0010
0001
0000
0100
0000
0010
0000
1000
0000
,  // measure 52
0001
0010
0000
0000
0001
0000
1000
0100
1000
0000
0010
0000
0100
0000
0001
0000
,  // measure 53
2000
0000
0000
3001
0010
0000
0200
0000
1300
0000
0001
0000
0100
0000
0010
0000
,  // measure 54
1000
0000
0000
0000
0000
0000
0000
0000
0000
0000
0000
0000
0100
0000
0000
0000
0000
0000
0000
0000
0000
0000
0000
0000
1000
0000
0000
0000
0000
0000
0000
0000
0000
0000
0000
0000
0000
0000
0000
0000
0000
0000
0000
0000
0000
0000
0000
0000
0010
0000
0000
0000
0000
0000
0000
0000
0000
0000
0000
0000
0000
0000
0000
0000
0000
0000
0000
0000
0000
0000
0000
0000
0100
0000
0000
0000
0000
0000
0000
0000
0000
0000
0000
0000
0000
0000
0000
0000
0000
0001
0000
0000
0000
0000
0000
0000
0040
0000
0000
0000
0000
0000
0000
0000
0000
0000
0000
0000
0000
0000
0000
0000
0000
0000
0000
0000
0000
0000
0000
0000
0000
0000
0000
0000
0000
0000
0000
0000
0000
0000
0000
0000
0000
0000
0000
0000
0000
0000
0000
0000
0000
0000
0000
0000
0000
0000
0000
0000
0000
0000
0000
0000
0000
0000
0000
0000
0000
0000
0000
0000
0000
0000
0000
0000
0000
0000
0000
0000
0000
0000
0000
0000
0000
0000
0000
0000
0000
0000
0000
0000
0000
0000
0000
0000
0000
0000
0000
0000
0000
0000
0000
0000
,  // measure 55
0000
0000
0000
0000
,  // measure 56
0030
0000
0000
0000
;

//---------------dance-single - Feraligatr----------------
#NOTEDATA:;
#CHARTNAME:Feraligatr SH;
#STEPSTYPE:dance-single;
#DESCRIPTION:Feraligatr;
#CHARTSTYLE:;
#DIFFICULTY:Hard;
#METER:8;
#RADARVALUES:0.515436,0.574305,0.214432,0.410218,0.195786,387.000000,364.000000,23.000000,44.000000,0.000000,0.000000,12.000000,0.000000,0.000000,0.515436,0.574305,0.214432,0.410218,0.195786,387.000000,364.000000,23.000000,44.000000,0.000000,0.000000,12.000000,0.000000,0.000000;
#CREDIT:Feraligatr;
#DISPLAYBPM:127.000000;
#NOTES:
0000
0000
0000
0000
,
0000
0000
0000
0000
,
0000
0000
0000
0000
,
0000
0000
0000
0000
,
1000
0000
0000
0000
0001
0000
0100
0010
1000
0000
0001
0000
0010
0000
0100
0000
,
1000
0000
0000
0000
0001
0000
0100
0010
1000
0000
0001
0000
0010
0000
0100
0000
,
2000
0000
3001
0200
0001
0000
0310
1000
,
0001
0010
0001
1000
0010
0100
0010
1000
,
0001
0010
0100
1000
0001
0001
0100
0100
,
0010
0010
1000
1000
0400
0340
0034
0003
,
0000
0000
0000
0000
0000
0100
1001
0000
,
1010
0000
0004
0003
0004
0003
0010
1000
,
0010
0000
0100
0000
2000
0000
0000
3000
0001
0000
1000
0010
0100
0000
0001
0000
,
0021
0030
0021
0030
0400
0000
0010
1300
,
0001
0000
0100
0000
0001
0000
1000
0000
0010
0000
1000
0000
0001
0000
0000
0010
0000
0000
0100
0000
0000
1000
0000
0000
,
1001
0000
4000
3000
4000
3000
0010
0001
,
0010
0000
1000
0000
0200
0000
0000
0000
1300
0010
0100
0001
0020
0000
0130
0000
,
1000
0000
0001
0100
0001
0000
1000
0000
0001
0010
0001
0000
1000
0000
0010
0000
,
0100
0001
1000
0100
0010
0001
1000
0010
,
0110
0100
0002
1003
0002
1003
0100
0001
,
0100
0000
0010
0000
0002
0000
1000
0003
0001
0000
0100
0010
1000
0000
0001
0000
,
0021
0130
0021
0130
4000
0000
0001
3010
,
1000
0000
0010
0000
1000
0000
0001
0000
0100
0000
0001
0000
1000
0000
0000
0100
0000
0000
0010
0000
0000
0001
0000
0000
,
1001
0000
2000
3010
2000
3010
0100
0001
,
0010
0000
0100
0000
2000
0000
0000
0000
3001
0100
0010
1000
0200
0000
0310
0000
,
0002
0000
1003
0020
0100
0000
1030
0001
,
0010
0000
0100
1000
0100
0000
0010
0001
0010
0000
0100
0000
1000
0000
0001
0000
,
0201
0310
1000
0001
,
0010
0100
1000
0001
0100
0010
0100
0001
,
2000
0000
3001
0020
0001
0000
0130
1000
,
0001
0100
0001
1000
0100
0010
0001
0000
,
1200
0000
0301
0000
0100
0000
1000
0000
0010
0100
0000
0100
0001
0000
1000
0000
,
0400
0000
0000
0000
0000
0000
0000
0000
0310
0001
0000
0001
1000
0000
0000
0000
,
2010
3000
2010
3000
0001
0010
0100
1000
,
0001
0000
0100
0000
0001
0000
1000
0000
0010
0000
1000
0000
0001
0000
0000
0010
0000
0000
0100
0000
0000
1000
0000
0000
,
1001
0000
0002
0103
0002
0103
0010
0001
,
0010
0000
1000
0000
0200
0000
0000
0000
1300
0010
0100
0001
0020
0000
0130
0000
,
2000
0000
3001
0200
0001
0000
0310
1000
,
0001
0010
0100
1000
0001
0100
0110
0000
,
0001
0100
0001
0000
1000
0000
0100
0000
0010
0001
0010
0000
0100
0000
1000
0000
,
0001
0100
0001
0000
1000
0000
0100
0000
0010
0001
0010
0000
0100
0000
0010
0000
,
0012
1003
0012
1003
0040
0000
0000
0000
,
0130
0000
0001
0000
0100
0000
0010
0000
1000
0000
0010
0000
0100
0000
0000
0001
0000
0000
1000
0000
0000
0100
0000
0000
,
0110
0000
2000
3001
2000
3001
0100
1000
,
0100
0000
0001
0000
0020
0000
0000
0000
0031
0100
0010
1000
0200
0000
0310
0000
,
0012
1003
0012
1003
0000
0000
0000
0000
,
2010
3001
2010
3001
0000
0000
0000
0000
,
1001
0000
0000
0000
1000
0000
0001
0100
0001
0000
1000
0000
0100
0000
0010
0000
,
0001
0000
0000
0000
1000
0000
0010
0100
0010
0000
1000
0000
0001
0000
0010
0000
,
0200
0000
1300
0002
1000
0000
0103
0010
,
1000
0001
0010
0100
1000
0001
0100
0010
,
1000
0001
0010
0100
,
0010
0001
1000
0010
,
0200
0000
0310
2000
0010
0000
3001
0010
,
0100
1000
0001
0000
0040
0000
0000
0000
,
0000
0000
0000
0000
,
0030
0000
0000
0000
;

//---------------dance-single - Feraligatr----------------
#NOTEDATA:;
#CHARTNAME:Feraligatr SM;
#STEPSTYPE:dance-single;
#DESCRIPTION:Feraligatr;
#CHARTSTYLE:;
#DIFFICULTY:Medium;
#METER:6;
#RADARVALUES:0.346288,0.443781,0.167817,0.400895,0.000000,260.000000,242.000000,18.000000,43.000000,0.000000,0.000000,12.000000,0.000000,0.000000,0.346288,0.443781,0.167817,0.400895,0.000000,260.000000,242.000000,18.000000,43.000000,0.000000,0.000000,12.000000,0.000000,0.000000;
#CREDIT:Feraligatr;
#DISPLAYBPM:127.000000;
#NOTES:
0000
0000
0000
0000
,
0000
0000
0000
0000
,
0000
0000
0000
0000
,
0000
0000
0000
0000
,
1000
0000
0001
0000
0100
0010
1000
0001
,
0010
0000
0100
0000
1000
0001
0100
0010
,
2000
0000
0000
3200
0000
0000
0000
0310
,
0001
0100
0010
1000
0001
0010
0100
1000
,
0001
0010
0001
1000
0010
0010
0100
0100
,
0001
0001
1000
1000
0200
0320
0032
0003
,
0000
0000
0000
0100
,
1001
0000
2000
3000
2000
3000
0001
0010
,
0100
0000
1000
0000
0002
0000
0000
0003
0100
0000
0010
0000
1000
0000
0000
0000
,
1100
1100
0002
0000
,
0403
0000
0340
0000
1030
0001
0010
0000
,
0110
0000
0002
0003
0002
0003
1000
0010
,
0100
0001
2000
0000
3100
0010
0100
1000
,
0001
0100
0010
1000
,
0001
0010
0001
0010
0100
1000
0001
0000
,
0101
0000
0002
0003
0002
0003
1000
0100
,
0010
0000
0001
0000
2000
0000
0000
3000
0010
0000
0100
0000
0001
0000
0000
0000
,
0011
0011
2000
0000
,
3040
0000
0430
0000
0301
1000
0100
0000
,
0110
0000
0002
0003
0002
0003
1000
0100
,
0010
0001
2000
0000
3010
0100
0010
1000
,
0002
0000
0000
0023
0000
0000
0000
0130
,
4000
0000
3004
0000
1003
0010
1000
0010
,
0200
0301
0000
0001
,
0000
1000
0000
1000
,
0200
0000
0000
0320
0000
0000
0000
0031
,
1000
0010
0100
0001
1000
0100
0010
0000
,
0011
0000
1000
0000
0001
0100
0010
0000
,
4000
0000
0000
0000
3001
0010
0100
0000
,
1100
0000
1100
0000
0001
0100
0010
1000
,
0004
0000
4003
0000
3010
0100
0001
0000
,
1001
0000
2000
3000
2000
3000
0001
0010
,
0100
1000
0002
0000
0103
0010
0100
0000
,
0002
0000
0000
0203
0000
0000
0000
0310
,
1000
0000
0001
0000
0010
0100
1000
0000
,
0001
0100
0001
1000
0001
0100
0001
0010
,
0100
1000
0100
0010
0100
1000
0100
0010
,
0002
0003
0002
0003
2000
0000
0000
0000
,
3040
0000
0430
0000
0301
1000
0100
0000
,
0110
0000
0002
0003
0002
0003
1000
0010
,
0100
0001
2000
0000
3100
0010
0100
0000
,
2100
3000
2100
3000
0000
0000
0000
0000
,
0102
0003
0102
0003
0000
0000
0000
0000
,
1001
0000
1000
0000
0010
0100
0001
0000
,
1000
0000
0100
0000
0010
0100
1000
0000
,
0002
0000
0000
0203
0000
0000
0000
0310
,
1000
0000
0001
0000
0010
0100
1000
0000
,
0001
0000
0100
0000
,
0001
0000
0100
0000
,
0020
0000
0000
2030
0000
0000
0000
3001
,
1000
0100
0040
0000
,
0000
0000
0000
0000
,
0030
0000
0000
0000
;

//---------------dance-single - Feraligatr----------------
#NOTEDATA:;
#CHARTNAME:Feraligatr SE;
#STEPSTYPE:dance-single;
#DESCRIPTION:Feraligatr;
#CHARTSTYLE:;
#DIFFICULTY:Easy;
#METER:4;
#RADARVALUES:0.238406,0.287153,0.186463,0.065262,0.000000,179.000000,159.000000,20.000000,7.000000,0.000000,0.000000,7.000000,0.000000,0.000000,0.238406,0.287153,0.186463,0.065262,0.000000,179.000000,159.000000,20.000000,7.000000,0.000000,0.000000,7.000000,0.000000,0.000000;
#CREDIT:Feraligatr;
#DISPLAYBPM:127.000000;
#NOTES:
0000
0000
0000
0000
,
0000
0000
0000
0000
,
0000
0000
0000
0000
,
0000
0000
0000
0000
,
1000
0010
0100
0001
,
1000
0100
1000
0001
,
0100
0000
0010
0000
,
1000
0001
1000
0100
,
0010
0100
1000
1000
,
0001
0001
0200
0310
,
0000
0000
0000
0000
,
1001
1000
1000
0010
,
0100
0001
1000
0100
,
1100
1100
0002
0000
,
0403
0000
0310
1000
,
0001
0010
0010
0100
,
1000
0001
0100
0010
,
2000
0000
3002
0000
,
0013
0100
1000
0001
,
1001
1000
1000
0100
,
0010
0001
1000
0010
,
1010
1010
0002
0000
,
0043
0000
0130
1000
,
0001
0100
0100
0010
,
1000
0001
0010
0100
,
1000
0000
0001
0000
,
0400
0340
1030
1000
,
1001
0000
0000
0000
,
0000
0000
0000
0000
,
1000
0000
0001
0000
,
0100
0010
1000
0001
,
1001
1000
0100
0010
,
0002
0000
1003
0010
,
0110
0110
0001
1000
,
0400
0000
0310
0001
,
1001
1000
1000
0010
,
0100
0001
1000
0100
,
0010
0000
0001
0000
,
1000
0010
0100
0001
,
1001
1000
1000
1000
,
0001
0001
0001
0001
,
0110
0110
2000
0000
,
3004
0000
0103
0010
,
1010
0001
0001
0010
,
0100
1000
0001
0100
,
0110
0110
0000
0000
,
1001
1001
0000
0000
,
1100
1000
0001
0100
,
0010
0100
0001
1000
,
0100
0000
0010
0000
,
0100
1000
0001
0100
,
0010
0000
0000
0000
,
1000
0000
0000
0000
,
0001
0000
1000
0000
,
0100
0000
0040
0000
,
0000
0000
0000
0000
,
0030
0000
0000
0000
;

//---------------dance-single - Feraligatr----------------
#NOTEDATA:;
#CHARTNAME:Feraligatr SN;
#STEPSTYPE:dance-single;
#DESCRIPTION:Feraligatr;
#CHARTSTYLE:;
#DIFFICULTY:Beginner;
#METER:2;
#RADARVALUES:0.143843,0.261048,0.121201,0.055939,0.000000,108.000000,95.000000,13.000000,6.000000,0.000000,0.000000,1.000000,0.000000,0.000000,0.143843,0.261048,0.121201,0.055939,0.000000,108.000000,95.000000,13.000000,6.000000,0.000000,0.000000,1.000000,0.000000,0.000000;
#CREDIT:Feraligatr;
#DISPLAYBPM:127.000000;
#NOTES:
0000
0000
0000
0000
,
0000
0000
0000
0000
,
0000
0000
0000
0000
,
0000
0000
0000
0000
,
1000
0000
0000
0000
,
0001
0000
0000
0000
,
0100
0000
0000
0000
,
0010
0000
1000
0000
,
0010
0000
1000
0000
,
0001
0000
0020
0000
,
0030
0000
0000
0000
,
1001
1000
1000
0000
,
0010
0000
0100
0000
,
0001
0001
2000
0000
,
3100
0000
0000
0000
,
0110
0010
0010
0000
,
0001
0000
1000
0000
,
0010
0000
0100
0000
,
0001
0000
1000
0000
,
1001
0001
0001
0000
,
0010
0000
0100
0000
,
1000
1000
0002
0000
,
0103
0000
0000
0000
,
0110
0010
0010
0000
,
1000
0000
0001
0000
,
0010
0000
0100
0000
,
2000
0000
0000
0000
,
3001
0000
0000
0000
,
0000
0000
0000
0000
,
1000
0000
0010
0000
,
0100
0000
0000
0000
,
1001
0000
1000
0000
,
0200
0000
0310
0000
,
0001
0001
1000
0000
,
0010
0000
0000
0000
,
0110
0010
0010
0000
,
1000
0000
0001
0000
,
0010
0000
0100
0000
,
1000
0000
0001
0000
,
1001
0000
1000
0000
,
0010
0000
0100
0000
,
0001
0001
0020
0000
,
0130
0000
0000
0000
,
0110
0010
0010
0000
,
0001
0000
1000
0000
,
1001
1001
0000
0000
,
1001
1001
0000
0000
,
0110
0000
0001
0000
,
1000
0000
0100
0000
,
0010
0000
0001
0000
,
1000
0000
0010
0000
,
0100
0000
0000
0000
,
0001
0000
0000
0000
,
0010
0000
0000
0000
,
0100
0000
0040
0000
,
0000
0000
0000
0000
,
0030
0000
0000
0000
;
