#VERSION:0.83;
#TITLE:110;
#SUBTITLE:;
#ARTIST:Maozon & C-Show;
#TITLETRANSLIT:;
#SUBTITLETRANSLIT:;
#ARTISTTRANSLIT:;
#GENRE:;
#ORIGIN:;
#CREDIT:;
#BANNER:;
#BACKGROUND:110-bg-wide.png;
#PREVIEWVID:;
#JACKET:;
#CDIMAGE:;
#DISCIMAGE:;
#LYRICSPATH:;
#CDTITLE:;
#MUSIC:110.ogg;
#OFFSET:0.009000;
#SAMPLESTART:52.354637;
#SAMPLELENGTH:17.454000;
#SELECTABLE:YES;
#BPMS:0.000=110.000;
#STOPS:;
#DELAYS:;
#WARPS:;
#TIMESIGNATURES:0.000=4=4;
#TICKCOUNTS:0.000=4;
#COMBOS:0.000=1;
#SPEEDS:0.000=1.000=0.000=0;
#SCROLLS:0.000=1.000;
#FAKES:;
#LABELS:0.000=Song Start;
#BGCHANGES:;
#KEYSOUNDS:;
#ATTACKS:
;

//---------------dance-single - sangyule----------------
#NOTEDATA:;
#CHARTNAME:sangyule;
#STEPSTYPE:dance-single;
#DESCRIPTION:sangyule;
#CHARTSTYLE:;
#DIFFICULTY:Challenge;
#METER:12;
#RADARVALUES:0.832002,1.049232,0.497847,0.331898,1.438224,737.000000,674.000000,63.000000,42.000000,4.000000,11.000000,0.000000,0.000000,0.000000,0.832002,1.049232,0.497847,0.331898,1.438224,737.000000,674.000000,63.000000,42.000000,4.000000,11.000000,0.000000,0.000000,0.000000;
#CREDIT:sangyule;
#NOTES:
0000
0000
0000
0000
,
0000
0000
0000
0000
,
0000
0000
0000
0000
,
0000
0000
0000
0000
,
1001
0000
0000
0012
0000
0000
0000
0000
1003
0000
0000
0010
0000
0000
0000
0000
,
1001
0000
0000
2100
0000
0000
0000
0000
3001
0000
0000
0100
0000
0000
0000
0000
,
0110
0000
0000
2010
0000
0000
0000
0000
3100
0000
0000
0010
0000
0000
0000
0000
,
0011
0000
0000
0210
0000
0000
0000
0000
1300
0000
0000
0002
0000
0000
0000
0000
,
1103
0010
0000
0000
0010
0000
0000
0010
0010
0000
0000
0010
0000
0000
2000
0000
,
3101
1000
0000
0000
1000
0000
0000
1000
1000
0000
1000
1000
0000
0002
0000
0103
,
0011
1000
0000
0000
1001
0000
0000
1000
1000
0000
0000
1000
0001
0000
0020
0000
,
0131
0010
0000
0000
0011
0000
0000
0001
0001
0000
1000
1000
0010
0200
0000
0301
,
1100
0001
1000
0100
0010
0000
0001
1000
1000
0010
0100
0001
0000
0000
0010
0010
,
0101
0010
0001
0100
0010
1000
0001
0010
0020
0000
0130
0100
0000
2000
0000
3001
,
1100
0001
0100
0010
1000
0000
0001
0010
0010
0100
1000
0001
0000
0000
0100
0100
,
0011
1000
0001
0100
0010
1000
0100
0010
0101
0000
1000
1000
0000
0020
0000
0130
,
0012
0000
0000
0000
,
0000
0000
0003
0000
,
1000
0001
0010
0100
1000
0010
0100
0001
1000
0100
0010
0001
0100
0010
1000
0001
,
0010
0100
0010
0001
1000
0010
0100
0010
1000
0001
1000
0100
0010
0001
0100
0001
,
1100
0000
0010
0000
1000
0000
0001
0000
0010
0000
0100
0000
0010
0000
0001
0000
1000
0000
0010
0000
1000
0000
0001
0000
0010
0000
0100
1000
0100
0000
0010
0000
,
0001
0000
1000
0000
0001
0000
0100
0000
0010
0000
0100
0000
0001
0000
1000
0000
0100
0000
0010
0000
0100
0000
1000
0000
0001
0000
0100
0001
0100
0000
0010
0000
,
1100
0000
0001
1000
0001
0000
0010
0000
0100
0000
1000
0001
1000
0000
0010
0000
0100
0000
0001
1000
0001
0000
0100
0000
0010
0000
1000
0001
1000
0000
0100
0000
,
0010
0001
1000
0001
0100
0010
1000
0001
1000
0100
0010
0001
1000
0010
0100
0001
0020
0000
0000
0000
0000
0000
0000
0000
0131
0000
2000
0000
0000
0000
3010
0000
,
1100
0001
0010
0000
0101
0000
1000
0001
0001
0100
0010
1000
0011
0000
0200
0000
,
0301
1000
0100
0000
1010
0000
0001
1000
1000
0100
0010
0010
0101
2000
0000
3010
,
0100
0001
1000
0000
0101
0000
0010
0001
0001
0010
0100
1000
0101
0000
0020
0000
,
0031
0000
1000
0000
0001
0000
0000
0000
1100
0000
0000
0000
0010
0000
1000
0000
0001
0000
0100
00M0
0100
0000
1000
0000
0010
0100
0001
1000
0100
0010
0001
1000
,
0001
0100
0100
0100
0011
0000
1000
0001
0001
0010
0100
1000
0011
0000
2000
0000
,
3100
0010
0001
0000
1100
0000
0010
1000
1000
0100
0010
0010
0101
2000
0000
3001
,
0100
0001
1000
0000
0101
0000
0010
0100
0100
1000
0001
0100
0011
0000
2000
0000
,
3001
0000
0010
0000
0100
0000
0000
0000
1010
0000
0001
0000
1000
0000
0010
0000
0100
0000
0010
000M
0010
0000
0001
0000
1000
0001
0010
0100
1000
0001
0100
0010
,
2000
0000
0000
0000
0000
0000
0000
0000
3000
0000
0000
0000
0000
0000
0001
1000
0001
0000
0000
0000
0000
0000
0010
0000
0000
0000
0000
0000
0002
0000
0000
0000
,
1003
0001
1000
0100
0010
0100
0001
0100
0000
1000
0001
0100
0010
0100
1000
0100
,
0000
0001
1000
0100
0010
0100
0001
0100
0000
1000
0001
0100
0010
0100
1000
0100
,
0000
0000
0001
0000
1000
0000
0100
0000
0010
0000
0100
0000
0001
0000
0100
0000
1000
0000
0010
0M00
0010
0000
0001
0000
0100
0010
1000
0001
1000
0100
0010
0001
,
0100
0010
1000
0010
0100
0010
0001
0010
0000
1000
0001
0010
0100
0010
1000
0010
,
0000
0001
1000
0010
0100
0010
0001
0010
0000
1000
0001
0010
0100
0010
1000
0010
,
0002
1003
0002
1003
0100
0010
1000
0010
0000
0001
1000
0010
0100
0010
0001
0010
,
1000
0000
0000
0000
0100
0000
1000
0000
0011
0000
0100
000M
0100
0000
2020
0000
0000
0000
0000
0000
3030
0000
0001
0000
1000
0001
0010
0100
1000
0001
1000
0010
,
0100
0001
0010
0001
1100
0010
0001
0010
0000
1000
0010
1000
0101
0010
0001
1000
,
0010
0100
0001
1000
0101
0010
1000
0010
0000
0001
1000
0010
1100
0001
1000
0100
,
0010
0001
0010
1000
0011
0100
1000
0001
0000
1000
0100
0000
1010
0001
0000
0100
,
0000
0000
0010
0000
0100
0000
1000
0000
0101
0000
0010
0000
1000
0000
0001
0000
0000
0000
0010
0000
0100
0000
1000
0000
0001
0100
0001
1000
0100
0000
0010
0000
,
0001
0100
0010
1000
0101
0010
1000
0010
0000
0001
1000
0010
1100
0001
1000
0100
,
0010
0001
0100
0001
1100
0010
0001
0010
0000
0100
0010
0100
0011
1000
0100
0010
,
0001
0000
1000
0000
0010
0000
0100
0000
0010
0100
0001
1000
0100
0010
0001
0000
1000
0000
0010
0000
0100
0000
0001
0000
1000
0001
0100
0010
1000
0001
1000
0000
,
0100
0000
0010
0000
0100
0000
1000
0000
0001
1000
0100
0010
0001
1000
0001
0000
1100
0000
0001
0000
1000
0000
0010
0000
0100
0010
1000
0001
0010
0100
1000
0001
,
0200
0000
0000
0000
0311
1000
0001
0020
0000
0000
0000
0000
0131
1000
0001
0000
,
2000
0000
0000
0000
3011
0100
0001
2000
0000
0000
3100
0010
0101
1000
0001
0010
,
0100
1000
0100
0010
0101
1000
0010
0001
0000
0010
0100
0001
1100
0001
0010
2000
,
0000
0000
3010
0000
0001
0000
2000
0000
0000
0000
3010
0000
0100
0000
0000
0000
1000
0000
0002
0000
0000
0000
0013
0000
1000
0010
1000
0001
0010
0000
0100
0000
,
2000
0000
0000
0000
3011
0000
0100
0020
0000
0000
0000
0000
1130
0001
1000
0000
,
0200
0000
0000
0000
1310
0001
1000
0002
0000
0000
0000
0000
1103
0010
2000
0000
,
3001
0000
1000
0000
0001
0000
0100
0000
0010
1000
0001
0010
0100
1000
0001
0000
0100
0000
0010
0000
0100
0000
0001
0000
1000
0100
1000
0001
0100
0010
1000
0000
,
0002
0000
0000
0000
0000
0000
0000
0000
0013
0100
1000
0001
1000
0010
0100
0000
0000
0000
0001
1000
0001
0000
0010
0000
0100
1000
0001
1000
0010
0100
0001
0000
,
2200
0000
3300
0000
;

//---------------dance-single - sangyule----------------
#NOTEDATA:;
#CHARTNAME:;
#STEPSTYPE:dance-single;
#DESCRIPTION:sangyule;
#CHARTSTYLE:;
#DIFFICULTY:Beginner;
#METER:1;
#RADARVALUES:0.109504,0.154886,0.047414,0.000000,0.000000,97.000000,91.000000,6.000000,0.000000,0.000000,0.000000,0.000000,0.000000,0.000000,0.109504,0.154886,0.047414,0.000000,0.000000,97.000000,91.000000,6.000000,0.000000,0.000000,0.000000,0.000000,0.000000,0.000000;
#CREDIT:sangyule;
#NOTES:
0000
0000
0000
0000
,
0000
0000
0000
0000
,
0000
0000
0000
0000
,
0000
0000
0000
0000
,
0001
0000
0000
0000
,
0001
0000
0000
0000
,
1000
0000
0000
0000
,
1000
0000
0000
0000
,
1001
0000
0000
0000
,
0001
0000
0000
0000
,
1000
0000
1000
0000
,
0010
0000
0010
0000
,
0100
0000
0100
0000
,
0001
0000
0001
0000
,
1000
0000
1000
0000
,
0100
0000
0100
0000
,
0010
0000
0000
0000
,
0000
0000
0000
0000
,
0000
0000
0000
0000
,
0000
0000
0000
0000
,
0001
0000
1000
0000
,
0010
0000
0100
0000
,
0001
0000
1000
0000
,
0100
0000
0000
0000
,
1001
0000
0001
0000
,
0100
0000
0010
0000
,
1000
0000
0001
0000
,
0010
0000
0100
0100
,
1000
0000
0001
0000
,
1000
0000
0010
0000
,
0100
0000
0001
0000
,
1000
0000
0001
0001
,
0010
0000
0000
0000
,
0110
0000
1000
0000
,
0001
0000
0100
0000
,
0010
0000
1000
1000
,
1001
0000
0010
0000
,
0100
0000
1000
0000
,
0001
0000
0100
0000
,
0010
0000
0000
0000
,
1000
0000
1000
0000
,
0001
0000
0001
0000
,
0010
0000
0100
0000
,
1000
0000
0001
0000
,
0100
0000
0100
0000
,
0010
0000
0010
0000
,
1000
0000
0001
0000
,
0010
0000
0100
0000
,
1001
0000
0001
0000
,
0100
0000
0010
0000
,
1000
0000
1000
0000
,
0001
0000
0001
0000
,
0010
0000
0100
0000
,
1000
0000
0001
0000
,
0100
0000
0100
0000
,
0010
0000
0000
0000
,
0110
0000
0000
0000
;

//---------------dance-single - sangyule----------------
#NOTEDATA:;
#CHARTNAME:;
#STEPSTYPE:dance-single;
#DESCRIPTION:sangyule;
#CHARTSTYLE:;
#DIFFICULTY:Easy;
#METER:4;
#RADARVALUES:0.238199,0.315303,0.252874,0.150144,0.003951,211.000000,179.000000,32.000000,19.000000,0.000000,0.000000,0.000000,0.000000,0.000000,0.238199,0.315303,0.252874,0.150144,0.003951,211.000000,179.000000,32.000000,19.000000,0.000000,0.000000,0.000000,0.000000,0.000000;
#CREDIT:sangyule;
#NOTES:
0000
0000
0000
0000
,
0000
0000
0000
0000
,
0000
0000
0000
0000
,
0000
0000
0000
0000
,
0001
0000
0001
0000
,
1000
0000
1000
0000
,
0010
0000
0010
0000
,
0100
0000
0100
0000
,
1001
0000
0000
0000
,
1001
0000
0000
0000
,
1001
1000
0000
0001
,
0011
0010
0000
0100
,
1100
1000
0001
0100
,
0110
0010
1000
0001
,
0101
0100
0010
1000
,
1100
0001
0011
1000
,
1002
0000
0000
0000
,
0000
0000
0003
0000
,
0101
0100
0000
0010
,
0000
1000
0000
0001
,
1001
1000
0100
0100
,
0010
0010
0001
0001
,
0101
0100
0010
1000
,
1001
0001
0010
0000
,
1001
0000
1000
0000
0010
0000
0100
0001
,
0100
0010
1000
0002
,
0013
0000
0100
0000
1000
0000
0001
0010
,
0001
1000
0020
0230
,
0301
0000
1000
0000
0001
0000
0010
0100
,
0010
0001
0100
0020
,
1030
0000
0001
0000
0010
0000
0100
1000
,
0100
1000
0002
0203
,
0310
0000
0000
0000
,
0100
1010
0100
0011
,
0100
1010
0100
0011
,
0100
1010
0002
2003
,
3010
0101
0010
1100
,
0010
0101
0010
1100
,
0010
0101
0010
1100
,
0010
0000
0000
0000
0101
0000
0000
0101
0000
0000
0000
0000
0000
0000
0000
0000
,
1000
0000
0100
0000
0010
0000
0001
1000
,
0001
0000
1000
0000
0010
0000
0100
0001
,
0100
1000
0100
0001
,
0100
0000
1000
0000
0100
0000
0001
1000
,
0001
0000
0010
0000
0100
0000
1000
0001
,
1000
0000
0100
0000
1000
0000
0010
1000
,
0010
0001
0010
1000
,
0010
0001
0020
0030
,
2001
0000
0000
0000
3200
0000
0300
0010
,
0002
0000
1003
0010
,
1000
0100
0010
0001
,
1000
0010
0001
0010
,
2000
0000
0000
0000
3002
0000
0003
0010
,
0200
0000
1300
0001
,
0100
1001
0010
1001
,
0200
0000
0000
0300
,
2002
0000
0000
0000
,
3003
0000
0000
0000
;

//---------------dance-single - sangyule----------------
#NOTEDATA:;
#CHARTNAME:;
#STEPSTYPE:dance-single;
#DESCRIPTION:sangyule;
#CHARTSTYLE:;
#DIFFICULTY:Medium;
#METER:7;
#RADARVALUES:0.378183,0.427911,0.252874,0.268679,0.320044,335.000000,303.000000,32.000000,34.000000,2.000000,0.000000,1.000000,0.000000,0.000000,0.378183,0.427911,0.252874,0.268679,0.320044,335.000000,303.000000,32.000000,34.000000,2.000000,0.000000,1.000000,0.000000,0.000000;
#CREDIT:sangyule;
#NOTES:
0000
0000
0000
0000
,
0000
0000
0000
0000
,
0000
0000
0000
0000
,
0000
0000
0000
0000
,
1001
0000
0000
1000
0000
0000
0000
0000
0001
0000
0000
1000
0000
0000
0000
0000
,
1001
0000
0000
0001
0000
0000
0000
0000
1000
0000
0000
0001
0000
0000
0000
0000
,
0110
0000
0000
0100
0000
0000
0000
0000
0010
0000
0000
0100
0000
0000
0000
0000
,
1001
0000
0000
1000
0000
0000
0000
0000
0001
0000
0000
1000
0000
0000
0000
0000
,
1001
0000
0000
0000
0001
0000
0000
0000
0010
0000
0000
0010
0000
0000
0100
0000
,
1100
0000
0000
0000
1000
0000
0000
0000
0001
0000
0000
0001
0000
0200
0000
0000
,
0310
0000
1010
0000
1000
0000
0011
1000
,
1100
0000
0000
0000
0001
0000
0000
0000
0100
0000
0000
0100
0000
0020
0000
0000
,
1030
0000
0001
0000
0010
0000
0100
0000
1000
0000
0000
0001
0000
0000
0100
0000
,
0110
0000
0010
0000
1000
0000
0100
0000
0010
0000
0000
0001
0000
1000
0000
0000
,
1010
0000
0010
0000
0100
0000
0001
0000
1000
0000
0000
0100
0000
0000
0010
0000
,
0011
0000
0001
0000
1000
0000
0001
0000
0101
0000
0000
0100
0000
0000
0010
0000
,
2010
0000
0000
0000
,
3000
0000
0000
0000
,
0100
0110
0010
0011
,
0001
1001
1000
1010
,
0010
0000
0100
0000
0001
0000
1000
0001
,
1000
0000
0100
0000
0010
0000
0001
1000
,
1001
0001
0100
0010
1000
0100
0010
0001
,
1004
0000
0103
0110
,
1001
0000
0001
0000
0010
0000
0000
0100
1000
0000
0000
0001
0000
0000
0200
0000
,
0310
0000
0000
0000
1000
0000
0000
0001
1000
0000
0001
0010
0000
0100
0000
0000
,
1100
0000
0000
0000
1000
0000
0000
0001
0100
0000
0000
0010
0000
0000
1000
0000
,
0001
0000
0000
0000
1000
0000
0000
0100
0000
0002
0000
0203
0000
0000
1300
0000
,
0010
0000
0100
0000
0101
0000
0000
0001
1000
0000
0000
0100
0000
0000
0020
0000
,
0031
0000
0000
0000
1001
0000
0000
1000
0100
0000
1000
0001
0000
0100
0000
0000
,
0110
0000
0000
0000
1010
0000
0000
1000
0001
0000
0000
0010
0000
0000
0002
0000
,
0103
0000
0000
0000
0110
0000
0000
0010
0000
0002
0000
0023
0000
0000
1030
0000
,
0001
0000
0000
0000
0000
0000
0000
0000
0M00
0000
0000
0M00
0000
0000
0000
0000
,
1100
0000
1000
0000
0001
0000
1000
0001
0000
0000
0100
0000
0010
0000
0100
0010
,
0000
0000
1000
0000
0001
0000
1000
0001
0000
0000
0010
0000
0100
0000
0010
0100
,
0000
0000
1000
0000
0001
0000
1000
0001
0000
0200
0000
0320
0000
0000
1030
0000
,
1001
0000
0001
0000
0010
0000
0001
0010
0000
0000
0100
0000
1000
0000
0100
1000
,
0000
0000
0001
0000
0100
0000
0001
0100
0000
0000
0010
0000
1000
0000
0010
1000
,
0000
0000
0100
0000
1000
0000
0100
1000
0000
0000
0001
0000
0010
0000
0001
0010
,
0000
0000
0001
0000
0100
0000
0000
0220
0000
0000
0000
0000
0330
0000
0000
0000
,
1000
0000
0001
0000
0010
0000
0100
2000
0000
0000
3001
0000
0100
0000
0001
0000
,
1000
0000
0010
0000
0100
0000
0001
2000
0000
0000
3100
0000
0010
0000
0100
0000
,
1000
0000
0010
0100
0000
0000
0001
0100
0000
0001
1000
0000
0100
0000
0010
0000
,
0001
0000
1000
0001
0000
0000
0100
0001
0000
0000
0100
0000
0010
0000
1000
0000
,
0100
0000
0010
0000
0001
0000
0100
0002
0000
0000
0103
0000
0010
0000
1000
0000
,
0001
0000
0010
0000
0100
0000
1000
0002
0000
0000
0103
0000
0010
0000
1000
0000
,
0100
0000
0010
0001
0000
0000
1000
0100
0000
1000
0001
0000
0100
0000
0010
0000
,
1000
0000
0001
0010
0000
0000
0001
1000
0020
0000
0000
0000
0130
0000
0001
0000
,
2000
0000
0000
0000
0000
0000
3000
0002
0000
0000
0000
0000
0003
0000
0010
0000
,
0200
0000
0000
0000
0000
0000
0300
2000
0000
0000
0000
3002
0000
0000
0103
0000
,
0010
0000
1000
0000
0100
0000
0010
0000
0100
0000
1000
0000
0010
0000
0100
0002
,
0000
0000
0000
1003
0000
0000
1000
0000
0100
0010
0000
0100
0000
1000
0001
0000
,
0200
0000
0000
0000
0300
0000
0000
0020
0000
0000
0000
0000
1030
0000
0001
0000
,
0020
0000
0000
0000
0000
0000
0030
0200
0000
0000
0000
0300
0000
1000
0001
0000
,
0200
0000
0000
0000
0310
0000
0000
2000
0000
0000
0000
3001
0000
1000
0000
0000
,
0200
0000
0000
0300
,
0022
0000
0000
0000
,
0033
0000
0000
0000
;

//---------------dance-single - sangyule----------------
#NOTEDATA:;
#CHARTNAME:;
#STEPSTYPE:dance-single;
#DESCRIPTION:sangyule;
#CHARTSTYLE:;
#DIFFICULTY:Hard;
#METER:10;
#RADARVALUES:0.529456,0.653127,0.229167,0.260777,0.873207,469.000000,440.000000,29.000000,33.000000,8.000000,1.000000,1.000000,0.000000,0.000000,0.529456,0.653127,0.229167,0.260777,0.873207,469.000000,440.000000,29.000000,33.000000,8.000000,1.000000,1.000000,0.000000,0.000000;
#CREDIT:sangyule;
#NOTES:
// measure 0
0000
0000
0000
0000
,  // measure 1
0000
0000
0000
0000
,  // measure 2
0000
0000
0000
0000
,  // measure 3
0000
0000
0000
0000
,  // measure 4
1001
0000
0000
2010
0000
0000
0000
0000
0001
0000
0000
3100
0000
0000
0000
0000
,  // measure 5
0011
0000
0000
1002
0000
0000
0000
0000
0100
0000
0000
1003
0000
0000
0000
0000
,  // measure 6
1010
0000
0000
0210
0000
0000
0000
0000
0001
0000
0000
0310
0000
0000
0000
0000
,  // measure 7
1001
0000
0000
2100
0000
0000
0000
0000
0001
0000
0000
3020
0000
0000
0000
0000
,  // measure 8
1130
0001
0000
0000
1000
0000
0000
0001
1000
0000
0000
0001
0000
0000
1000
0000
,  // measure 9
0101
1000
0000
0000
0001
0000
0000
1000
0001
0000
0100
0010
0000
1000
0000
0001
,  // measure 10
1100
0001
0000
0000
1000
0000
0000
0100
0010
0000
0000
0001
1000
0000
0001
0000
,  // measure 11
1100
0010
0000
0000
1000
0000
0000
0001
0010
0000
0001
1000
0000
0100
0000
0010
,  // measure 12
0101
0010
0000
0000
0001
0000
0000
1000
0001
0000
0000
0100
0010
0000
1000
0000
,  // measure 13
0011
1000
0000
0000
0001
0000
0000
0100
0010
0000
1000
0001
0000
0010
0000
0100
,  // measure 14
1010
0001
0000
0000
1000
0000
0000
0001
0100
0000
0000
0010
0000
0000
1000
0000
,  // measure 15
0101
1000
0000
0000
0001
0000
0000
0010
0101
0000
1000
0001
0000
0100
0000
0010
,  // measure 16
2000
0000
0000
0000
,  // measure 17
0000
0000
3000
0000
,  // measure 18
1001
0001
0010
0100
,  // measure 19
1000
0001
0100
0010
,  // measure 20
1010
1000
0001
0010
0100
1000
0001
0200
,  // measure 21
0310
1000
0010
0100
0001
0010
0100
1000
,  // measure 22
0001
0100
0010
0100
0001
1000
0100
0010
0001
0100
0010
1000
0100
1000
0001
0100
,  // measure 23
0040
0000
0230
0301
,  // measure 24
1100
0001
1000
0000
0001
0000
0000
0010
0100
0000
0000
1000
0001
0000
1000
0000
,  // measure 25
0011
1000
0010
0000
0100
0000
0000
0001
1000
0000
0100
1000
0000
0100
0000
0010
,  // measure 26
0101
1000
0001
0000
1000
0000
0000
0010
0100
0000
0000
0001
1000
0000
0001
0000
,  // measure 27
1010
0001
0000
0000
0100
0000
0000
0010
0000
0002
0000
0023
0000
0000
1030
0000
,  // measure 28
0011
0100
0001
0000
1000
0000
0000
0100
0010
0000
0000
0001
1000
0000
0010
0000
,  // measure 29
1100
0001
0000
0000
0010
0000
0000
0001
1000
0000
0100
1000
0000
0010
0000
0100
,  // measure 30
0011
1000
0000
0000
0001
0000
0000
0010
0100
0000
0000
1000
0001
0000
1000
0000
,  // measure 31
0011
0100
0000
0000
0001
0000
0000
0010
0000
2000
0000
3020
0000
0000
0031
0000
,  // measure 32
1001
0000
0M00
0000
0M00
0000
0M00
0M00
0000
0M00
0M00
0000
0M00
0000
1000
0000
,  // measure 33
0001
0010
0001
1000
0010
0100
0001
1000
0000
0001
0010
0001
1000
0010
0100
0001
,  // measure 34
0000
1000
0100
1000
0001
0100
0010
1000
0000
0001
0010
0001
1000
0010
0100
0001
,  // measure 35
0000
1000
0100
1000
0001
0100
0010
0100
0000
2000
0000
3200
0000
0000
0301
0000
,  // measure 36
1000
0100
0010
0001
0100
0001
1000
0010
0000
1000
0100
0010
0001
0100
0010
1000
,  // measure 37
0000
0001
0010
0100
1000
0010
0100
0001
0000
1000
0100
0010
0001
0100
0010
1000
,  // measure 38
0000
0001
0010
0100
1000
0010
0100
0001
0000
1000
0100
0010
0001
0100
0010
1000
,  // measure 39
0000
0000
0001
0000
0010
0000
0100
0000
1000
0000
0010
0M00
0010
0000
0002
0000
0000
0000
0000
0000
0003
0000
1000
0000
0000
0000
1000
0000
0010
0000
0100
0000
,  // measure 40
0001
1000
0100
1000
0000
0010
0100
0001
0000
1000
0001
0010
0100
1000
0010
0100
,  // measure 41
0001
1000
0001
0010
0000
0100
1000
0010
0000
0100
0001
1000
0100
0010
0001
1000
,  // measure 42
0010
0000
0100
1000
0000
0100
0001
1000
0000
0100
0010
0000
0001
0100
0000
0001
,  // measure 43
0000
1000
0010
0001
0000
0010
1000
0001
0000
1000
0100
0010
1000
0010
0100
1000
,  // measure 44
0001
0100
0010
1000
0000
0100
0001
0100
0000
1000
0001
0100
0010
1000
0100
0010
,  // measure 45
0100
1000
0001
1000
0000
0010
0001
0010
0000
1000
0100
0010
0001
0010
0100
1000
,  // measure 46
0001
0100
0010
0001
0000
0010
1000
0001
0000
0010
0100
0000
1000
0010
0000
0100
,  // measure 47
0000
0001
0010
1000
0000
0010
0001
1000
0020
0000
0000
0000
0130
0001
1000
0100
,  // measure 48
0020
0000
0000
0000
0000
0000
0030
0002
0000
0000
0000
0000
0003
1000
0010
0000
,  // measure 49
0200
0000
0000
0000
0300
0001
1000
0200
0000
0000
0300
0020
0000
0130
1000
0001
,  // measure 50
0000
0100
0010
1000
0000
0001
0010
1000
0000
0010
0001
1000
0000
0010
0100
2000
,  // measure 51
0000
0000
3000
0100
0000
0001
0010
0000
1000
0001
0000
0100
0000
1000
0001
0100
,  // measure 52
0002
0000
0000
0000
0000
0000
0003
2000
0000
0000
0000
0000
3000
0100
0010
0000
,  // measure 53
0002
0000
0000
0000
0000
0000
0003
0200
0000
0000
0000
0000
0300
0010
1000
0000
,  // measure 54
0200
0000
0000
0000
1300
0000
0000
0020
0000
0000
0000
0230
0000
0302
0000
0000
,  // measure 55
2003
0000
0000
0000
0000
0000
0000
3000
,  // measure 56
0220
0000
0000
0000
,  // measure 57
0330
0000
0000
0000
;
