#TITLE:pitch-black feeling;
#SUBTITLE:;
#ARTIST:CRO-RN;
#TITLETRANSLIT:;
#SUBTITLETRANSLIT:;
#ARTISTTRANSLIT:;
#GENRE:;
#CREDIT:;
#BANNER:pitch-black feeling.png;
#BACKGROUND:pitch-black feeling-BG.png;
#LYRICSPATH:;
#CDTITLE:;
#MUSIC:pitch-black feeling.ogg;
#OFFSET:-1.746001;
#SAMPLESTART:74.227997;
#SAMPLELENGTH:12.000000;
#SELECTABLE:YES;
#BPMS:0.000000=137.000000
;
#STOPS:
;
#BGCHANGES:;
#KEYSOUNDS:;
#ATTACKS:TIME=2.620000:LEN=120.000000:MODS=90% Stealth, Overhead;

//---------------dance-single - ----------------
#NOTES:
     dance-single:
     :
     Hard:
     10:
     0.546766,0.602639,0.091309,0.266318,0.395672,503.000000,491.000000,12.000000,35.000000,0.000000,0.000000,0.546766,0.602639,0.091309,0.266318,0.395672,503.000000,491.000000,12.000000,35.000000,0.000000,0.000000:
0000
0000
0000
0000
,
1000
0000
0001
0000
0100
0000
0010
0000
1000
0010
1000
0000
0001
0100
0001
0000
,
0100
0010
0100
0000
0001
0100
0001
0000
1000
0010
1000
0000
0001
0000
1000
0100
,
0010
0000
0100
0000
1000
0000
0001
0000
0010
0001
0010
0000
0100
1000
0100
0000
,
1000
0001
1000
0000
0100
1000
0100
0000
0010
0001
0010
0000
0100
0000
0001
0010
,
0100
0000
0010
0000
0001
0000
1000
0000
0100
1000
0100
0000
0010
0001
0010
0000
,
0001
1000
0001
0000
0010
0001
0010
0000
0100
1000
0100
0000
0010
0000
0100
0010
,
0001
0000
1000
0000
0010
0000
0100
0000
0001
0100
0001
0000
1000
0010
1000
0000
,
0010
0100
0010
0000
1000
0010
1000
0000
0001
0100
0001
0000
1000
0000
0001
0010
,
2000
0000
0000
0000
0001
0000
0000
0000
0001
0000
0000
0000
3001
0000
0001
0010
,
0200
0010
0010
0310
,
2001
3001
0210
0310
,
0120
0100
0130
1002
,
2003
0000
0000
0000
0001
0000
0000
0000
0001
0000
0000
0000
3001
0000
0001
0100
,
1000
0000
0000
0000
2001
0000
0000
0000
0001
0000
0000
0000
3001
0000
1000
0100
,
0010
0010
0100
0001
,
0001
0000
0010
0000
0100
0000
1000
0000
0001
0000
1000
0000
0001
0010
0100
1000
,
0001
0201
0001
0301
,
1020
0000
0000
0000
1000
0000
0000
0000
1000
0000
0000
0000
1030
0000
1000
0100
,
0010
0012
0010
0013
,
2100
0000
0000
0000
0100
0000
0000
0000
0100
0000
0000
0000
3100
0000
0100
0010
,
0001
2001
0001
3001
,
1002
0000
0000
0000
1000
0000
0000
0000
1000
0000
0000
0000
1003
0000
1000
0010
,
0001
0010
0100
1000
0001
0100
0010
1000
,
0001
1000
0000
1000
0000
0010
0000
0100
0000
1000
0100
0010
0001
1000
0100
0010
,
0001
0000
0000
0000
,
1000
0100
1000
0000
0010
0000
0100
0000
0001
0010
0001
0000
1000
0000
0001
0010
,
1000
0000
0010
1000
0010
0000
0100
0000
0001
0100
0001
0000
1000
0000
0010
0100
,
1000
0000
0010
0100
0010
0000
0100
0000
0001
1000
0001
0000
1000
0000
1000
0010
,
0001
0010
0001
0000
0100
0000
0010
0000
1000
0100
1000
0000
0001
0000
1000
0100
,
0001
0000
0100
0001
0100
0000
0010
0000
1000
0010
1000
0000
0001
0000
0100
0010
,
0001
0000
0100
0010
0100
0000
0010
0000
1000
0001
1000
0000
0001
0000
0001
0100
,
0010
1000
0010
0000
0001
0000
1000
0000
0100
0001
0100
0000
0010
0000
0100
0001
,
0010
0000
0001
0010
0001
0000
1000
0000
0100
1000
0100
0000
0010
0000
0001
1000
,
0010
0000
0001
1000
0001
0000
1000
0000
0100
0010
0100
0000
0010
0000
0010
0001
,
0100
0001
0100
0000
1000
0000
0001
0000
0010
1000
0010
0000
0100
0000
0010
1000
,
0100
0000
1000
0100
1000
0000
0001
0000
0010
0001
0010
0000
0100
0000
1000
0001
,
0100
0000
1000
0001
1000
0000
0001
0000
0010
0100
0010
0000
0100
0000
0100
1000
,
0001
0010
0001
0000
0100
0000
0010
0000
1000
0100
1000
0000
0001
0000
1000
0100
,
0001
0000
0100
0001
0100
0000
0010
0000
1000
0010
1000
0000
0001
0000
0100
0010
,
0001
0000
0100
0010
0100
0000
0010
0000
1000
0001
1000
0000
0001
0000
0001
0100
,
0010
1000
0001
0100
0010
0001
1000
0100
,
0020
0000
0000
0000
0100
0000
0000
0000
0100
0000
0000
0000
0130
0000
0100
0010
,
0002
0000
0000
0000
1000
0000
0000
0000
1000
0000
0000
0000
1003
0000
1000
0010
,
0200
0000
0301
0001
0100
0010
1000
0001
,
0000
1000
0010
0100
0001
0010
0100
1000
,
0002
0100
0100
0103
,
0020
1000
1000
1030
,
0200
0000
0000
0000
0001
0000
0000
0000
0301
0000
0000
0010
0000
0000
0100
0000
,
2000
0000
0000
0000
0001
0000
0000
0000
3001
0000
0000
0010
0000
0000
0100
0000
,
2000
0000
0000
0000
0001
0000
0000
0000
0001
0000
0000
0000
3001
0000
0001
0010
,
0200
0000
0000
0000
0010
0000
0000
0000
0010
0000
0000
0000
0310
0000
0010
0100
,
0002
1003
0001
0100
,
0010
0000
0000
0000
0100
0000
0010
0000
0000
1000
0000
0000
0000
0000
0001
0010
,
0200
0010
0310
1000
,
0002
0100
0103
0010
,
2000
0000
0000
0000
3001
0000
0000
0000
0001
0000
0000
0100
0000
0000
0010
0000
,
2000
0000
0000
0000
3010
0000
0000
0000
0010
0000
0000
1000
0000
0000
0001
0000
,
1020
0000
0000
0000
1000
0000
0000
0000
1000
0000
0000
0000
1030
0000
1000
0100
,
0002
0000
0000
0000
0100
0000
0000
0000
0100
0000
0000
0000
0103
0000
0001
0010
,
2000
0000
0000
0000
0010
0000
0000
0000
0010
0000
0000
0000
3010
0000
0010
1000
,
0200
0000
0000
0000
0001
0000
0000
0000
0001
0000
0000
0000
0301
0000
0001
0100
,
0020
0000
0000
0000
1000
0000
0000
0000
1000
0000
0000
0000
1030
0000
1000
0100
,
0002
0000
0000
0000
0100
0000
0000
0000
0100
0000
0000
0000
0103
0000
0100
0010
,
0002
0000
1003
0100
,
1000
0000
0100
0000
0010
0000
0001
0000
1000
0000
0001
0010
0100
1000
0001
0010
,
0100
0000
0000
0000
;

//---------------dance-single - ----------------
#NOTES:
     dance-single:
     :
     Medium:
     7:
     0.305450,0.527309,0.000000,0.000000,0.049459,281.000000,281.000000,0.000000,0.000000,0.000000,0.000000,0.305450,0.527309,0.000000,0.000000,0.049459,281.000000,281.000000,0.000000,0.000000,0.000000,0.000000:
0000
0000
0000
0000
,
0100
0001
0100
1000
,
0001
1000
0100
1000
,
0010
0100
0010
0001
,
0100
0001
0010
0001
,
0001
1000
0001
0010
,
1000
0010
0001
0010
,
1000
0010
1000
0100
,
0010
0100
1000
0100
,
1000
1000
1000
1000
,
0010
0010
0010
0010
,
0100
0100
0010
0010
,
0001
0001
0001
0100
,
0100
1000
1000
1000
,
0100
0100
1000
1000
,
0010
0010
0001
1000
,
1000
0000
0010
0000
0001
0000
0100
0000
1000
0000
0100
0000
1000
0010
0001
0100
,
1000
1000
1000
1000
,
0100
0100
0100
0100
,
0010
0010
0010
0010
,
0001
0001
0001
0001
,
1000
1000
1000
1000
,
0100
0100
0100
0100
,
1000
0010
0001
0100
1000
0001
0010
0100
,
1000
0100
0000
0100
0000
0010
0000
0001
0000
0001
0010
0100
1000
0001
0010
0100
,
1000
0000
0000
0000
,
0100
0010
1000
0100
,
0100
0010
1000
0001
,
0100
0010
1000
0100
,
1000
0001
0100
0010
,
1000
0001
0100
1000
,
0010
0001
0100
1000
,
0010
1000
0001
0010
,
0010
1000
0001
0100
,
0010
1000
0001
0010
,
0001
0100
0010
0001
,
0001
0100
0010
1000
,
0001
0100
0010
0001
,
1000
0001
0100
1000
,
1000
0001
0100
1000
,
1000
0001
0100
1000
,
0010
1000
0010
0100
,
0001
0001
0001
0001
,
0100
0100
0100
0100
,
1000
1000
0001
0100
,
1000
0010
1000
0001
,
1000
0001
0001
0001
,
0010
0100
0100
0100
,
0001
1000
1000
0010
,
0100
1000
1000
0010
,
0001
0100
0100
0100
,
0010
0010
0010
0010
,
1000
0100
1000
0001
,
0010
0001
0010
0100
,
0001
0010
0010
0100
,
1000
0001
0001
0010
,
0100
1000
1000
0001
,
0100
0010
0010
1000
,
0100
0100
0100
0100
,
1000
0001
0001
0001
,
0010
0010
0010
0010
,
0001
1000
1000
1000
,
0001
0100
0100
0100
,
0010
0001
0001
0001
,
1000
0000
0100
0000
,
0100
0000
0001
0000
0010
0000
1000
0000
1000
0000
0100
0010
0001
1000
0100
0010
,
0001
0000
0000
0000
;

//---------------dance-single - ----------------
#NOTES:
     dance-single:
     :
     Easy:
     2:
     0.125006,0.225990,0.000000,0.213054,0.000000,115.000000,115.000000,0.000000,28.000000,0.000000,0.000000,0.125006,0.225990,0.000000,0.213054,0.000000,115.000000,115.000000,0.000000,28.000000,0.000000,0.000000:
// measure 0
0000
0000
0000
0000
,  // measure 1
0001
0000
0001
0000
,  // measure 2
1000
0000
0001
0000
,  // measure 3
0010
0000
0010
0000
,  // measure 4
0001
0000
0010
0000
,  // measure 5
0100
0000
1000
0000
,  // measure 6
0100
0000
1000
0000
,  // measure 7
0100
0000
0100
0000
,  // measure 8
0010
0000
0100
0000
,  // measure 9
0200
0000
0000
0300
,  // measure 10
0020
0000
0000
0030
,  // measure 11
0002
0003
0020
0030
,  // measure 12
2000
0000
3000
0001
,  // measure 13
0200
0000
0000
0300
,  // measure 14
0002
0000
0000
0003
,  // measure 15
0020
0000
0000
0030
,  // measure 16
0100
0000
1000
0000
0100
0000
0100
1000
,  // measure 17
0200
0000
0000
0300
,  // measure 18
0002
0000
0000
0003
,  // measure 19
0020
0000
0000
0030
,  // measure 20
2000
0000
0000
3000
,  // measure 21
0200
0000
0000
0300
,  // measure 22
0002
0000
0000
0003
,  // measure 23
0100
1000
0100
0010
,  // measure 24
0100
0010
1000
0001
,  // measure 25
0100
0000
0000
0000
,  // measure 26
0001
0000
0100
0000
,  // measure 27
0001
0000
0100
0000
,  // measure 28
0001
0000
0100
0000
,  // measure 29
1000
0000
0001
0000
,  // measure 30
0100
0000
1000
0000
,  // measure 31
0010
0000
0001
0000
,  // measure 32
0010
0000
1000
0000
,  // measure 33
0010
0000
1000
0000
,  // measure 34
0010
0000
1000
0000
,  // measure 35
0100
0000
0010
0000
,  // measure 36
0100
0000
0010
0000
,  // measure 37
1000
0000
0010
0000
,  // measure 38
0100
0000
0001
0000
,  // measure 39
0100
0000
0001
0000
,  // measure 40
0100
0000
0001
0000
,  // measure 41
0010
0000
0010
0000
,  // measure 42
2000
0000
0000
3000
,  // measure 43
0002
0000
0000
0003
,  // measure 44
0200
0300
1000
0000
,  // measure 45
0100
0000
0100
0000
,  // measure 46
2000
0000
0000
3000
,  // measure 47
0002
0000
0000
0003
,  // measure 48
0200
0000
0300
0000
,  // measure 49
0001
0000
0100
0000
,  // measure 50
0002
0000
0000
0003
,  // measure 51
0020
0000
0000
0030
,  // measure 52
0100
0000
0100
0000
,  // measure 53
0010
0000
0010
0000
,  // measure 54
1000
0000
0010
0000
,  // measure 55
0100
0000
1000
0000
,  // measure 56
0001
0000
0100
0000
,  // measure 57
0001
0000
0010
0000
,  // measure 58
0002
0000
0000
0003
,  // measure 59
2000
0000
0000
3000
,  // measure 60
0020
0000
0000
0030
,  // measure 61
0200
0000
0000
0300
,  // measure 62
0002
0000
0000
0003
,  // measure 63
2000
0000
0000
3000
,  // measure 64
0100
0000
0001
0000
,  // measure 65
0001
0010
0100
1000
,  // measure 66
0001
0000
0000
0000
;
