#TITLE:iNHiBiTOR;
#SUBTITLE:;
#ARTIST:q/stol;
#TITLETRANSLIT:;
#SUBTITLETRANSLIT:;
#ARTISTTRANSLIT:;
#GENRE:;
#CREDIT:;
#BANNER:iNHiBiTOR.png;
#BACKGROUND:iNHiBiTOR-BG.png;
#LYRICSPATH:;
#CDTITLE:;
#MUSIC:iNHiBiTOR.ogg;
#OFFSET:0.370000;
#SAMPLESTART:7.130000;
#SAMPLELENGTH:12.000000;
#SELECTABLE:YES;
#DISPLAYBPM:128.000000;
#BPMS:0.000000=128.000000
,1.000000=256.000000
,2.000000=128.000000
,9.000000=256.000000
,10.000000=128.000000
,17.000000=256.000000
,18.000000=128.000000
,25.000000=256.000000
,26.000000=128.000000
,33.000000=256.000000
,34.000000=128.000000
,41.000000=256.000000
,42.000000=128.000000
,49.000000=256.000000
,50.000000=128.000000
,57.000000=256.000000
,58.000000=128.000000
,65.000000=256.000000
,66.000000=128.000000
,73.000000=256.000000
,74.000000=128.000000
,81.000000=256.000000
,82.000000=128.000000
,89.000000=256.000000
,90.000000=128.000000
,97.000000=256.000000
,98.000000=128.000000
,104.000000=256.000000
,105.000000=128.000000
,112.000000=256.000000
,113.000000=128.000000
,118.500000=256.000000
,119.500000=128.000000
,126.500000=256.000000
,127.500000=128.000000
,134.000000=256.000000
,135.000000=128.000000
,142.000000=256.000000
,143.000000=128.000000
,148.500000=256.000000
,149.500000=128.000000
,156.500000=256.000000
,157.500000=128.000000
,158.250000=256.000000
,159.250000=128.000000
,160.000000=256.000000
,161.000000=128.000000
,162.000000=256.000000
,163.000000=128.000000
,168.500000=256.000000
,169.500000=128.000000
,176.500000=256.000000
,177.500000=128.000000
,185.000000=256.000000
,186.000000=128.000000
,193.500000=256.000000
,194.500000=128.000000
,202.000000=256.000000
,203.000000=128.000000
,213.500000=256.000000
,214.500000=128.000000
,221.500000=256.000000
,222.500000=128.000000
,229.500000=256.000000
,230.500000=128.000000
,237.500000=256.000000
,238.500000=128.000000
,245.500000=256.000000
,246.500000=128.000000
,253.500000=256.000000
,254.500000=128.000000
,261.500000=256.000000
,262.500000=128.000000
,269.500000=256.000000
,270.500000=128.000000
,277.000000=256.000000
,278.000000=128.000000
,278.500000=256.000000
,279.500000=128.000000
,280.500000=256.000000
,281.500000=128.000000
,282.500000=256.000000
,283.500000=128.000000
,284.500000=256.000000
,285.500000=128.000000
,286.500000=512.000000
,302.500000=128.000000
;
#STOPS:
;
#BGCHANGES:0.750=iNHiBiTOR.avi=1.000=0=0=1=====,
302.500=iNHiBiTOR-BG.png=1.000=0=0=1=====,
99999=-nosongbg-=1.000=0=0=0 // don't automatically add -songbackground-
;
#KEYSOUNDS:;
#ATTACKS:;

//---------------dance-single - ----------------
#NOTES:
     dance-single:
     :
     Hard:
     10:
     0.730374,0.688294,0.791427,0.696456,0.652928,646.000000,546.000000,100.000000,88.000000,0.000000,0.000000,0.730374,0.688294,0.791427,0.696456,0.652928,646.000000,546.000000,100.000000,88.000000,0.000000,0.000000:
0000
0000
0000
0000
2002
0000
0000
0000
3003
0000
0000
0000
1000
0100
1000
0000
,
0001
0010
0001
0010
0000
0000
0100
0010
0100
0000
1001
0000
1001
0000
1000
0000
,
0001
0100
0000
0000
2020
0000
0000
0000
3030
0000
0000
0000
0001
0100
0001
0000
,
1000
0010
1000
0010
0000
0001
1000
0001
0000
0000
1010
0000
1010
0000
0001
0000
,
1000
0001
0000
0000
0202
0000
0000
0000
0303
0000
0000
0000
1000
0010
0100
0000
,
0001
0100
0010
1000
0000
0000
0001
0100
0001
0000
0101
0000
0101
0000
1000
0000
,
0001
0010
0000
0000
0220
0000
0000
0000
0330
0000
0000
0000
0001
0100
0010
0000
,
1000
0010
0100
0001
0000
0000
1000
0010
1000
0000
0110
0000
0110
0000
1000
0000
,
0001
1000
0000
0000
2200
0000
0000
0000
3300
0000
0000
0000
0001
0010
0100
0000
,
1000
0100
0010
0001
0000
0000
1000
0010
0001
0000
1100
0000
1100
0000
0001
0000
,
0100
0010
0000
0000
0022
0000
0000
0000
0033
0000
0000
0000
1000
0100
0010
0000
,
0001
0010
0100
1000
0000
0000
0001
1000
0001
0000
0011
0000
0011
0000
1000
0000
,
0010
0100
0000
0000
2002
0000
0000
0000
3003
0000
0000
0000
0001
0010
0001
0000
,
1000
0100
1000
0100
0000
0000
0010
0100
0010
0000
1001
0000
1001
0000
0001
0000
,
1000
0010
0000
0000
0202
0000
0000
0000
0303
0000
0000
0000
1000
0010
1000
0000
,
0202
0000
0000
0303
0000
1000
0001
1000
0000
0000
0101
0000
0101
0000
1000
0000
,
0001
1000
0000
0000
2020
0000
0000
0000
3030
0000
0000
0000
0001
0100
0010
0000
,
1000
0010
0100
0001
0000
0000
1000
0010
1000
0000
1010
0000
1010
0000
0001
0000
,
1000
0100
0000
0000
0220
0000
0000
0000
0330
0000
0000
0000
1000
0010
0100
0000
,
0001
0100
0010
1000
0000
0000
0001
0100
0001
0000
0110
0000
0110
0000
0001
0000
,
1000
0001
0000
0000
0022
0000
0000
0000
0033
0000
0000
0000
1000
0100
0010
0000
,
0001
0010
0100
1000
0000
0000
0001
0100
1000
0000
0001
0010
0001
0000
1000
0000
,
0010
0100
0000
0000
2200
0000
0000
0000
3300
0000
0000
0000
0001
0010
0100
0000
,
1000
0100
0010
0001
0000
0000
1000
0001
1000
0000
1100
0000
1100
0000
0001
0000
,
0100
0010
0000
0000
0220
0000
0000
0000
0330
0000
0000
0000
0100
0001
0100
0000
,
0010
1000
0010
1000
0000
0000
0001
1000
0001
0000
0110
0000
0110
0000
0100
0000
,
2200
0000
0000
0000
3300
0000
0000
0000
0010
0001
0010
0000
0100
1000
0100
1000
,
0000
0010
0100
0010
0000
0000
1100
0000
1100
0000
0010
0000
0100
0010
0000
0000
,
0022
0000
0000
0000
0033
0000
0000
0000
0100
1000
0001
0000
0010
0001
1000
0100
,
0000
0000
0010
0001
0010
0000
0011
0000
0011
0000
2002
0000
0000
0000
3003
0000
,
0000
0000
0010
0001
1000
0000
0100
1000
0001
0010
0000
0000
0100
1000
0100
0000
,
1001
0000
1001
0000
0100
0000
0010
0100
0000
0000
0202
0000
0000
0000
0303
0000
,
0000
0000
0010
1000
0001
0000
0100
0001
1000
0010
0000
0000
0100
1000
0010
0000
,
0101
0101
0010
0001
2020
0000
3030
0000
,
0100
0001
1000
0000
0010
1000
0001
0100
0000
0000
0010
0100
0010
0000
1010
0000
,
1010
0000
0100
0000
1000
0001
0000
0000
0220
0000
0000
0000
0330
0000
0000
0000
,
0010
1000
0010
0000
0100
0001
0100
0001
0000
0000
1000
0001
1000
0000
0110
0000
,
0110
0000
0022
0000
0000
0000
0033
0000
0000
0000
0100
1000
0100
0000
0010
0001
,
0010
0001
0000
0100
0010
0100
0000
0000
0011
0000
0011
0000
0100
0000
0010
0100
,
0000
0000
2200
0000
0000
0000
3300
0000
0000
0022
0000
0000
0000
0033
0000
0000
,
0220
0330
2002
3003
,
1000
0001
0100
0000
0010
1000
0001
0100
0000
0000
0010
0001
0010
0000
1100
0000
,
1100
0000
2002
0000
0000
0000
3003
0000
0000
0000
0100
1000
0001
0000
0010
0001
,
1000
0100
0000
0000
0010
0001
0010
0000
1001
0000
1001
0000
0010
0000
0100
0010
,
0000
0000
2020
0000
0000
0000
3030
0000
0000
0000
0100
0001
1000
0000
0010
1000
,
0001
0100
0000
0000
0010
0001
0100
0000
1000
0000
0010
0000
0001
0000
1000
0000
,
0010
0000
0100
0000
0202
0000
0000
0000
0303
0000
0000
0000
0010
1000
0001
0000
,
0100
0001
1000
0010
0000
0000
0100
0010
0100
0000
0001
0000
0100
0000
0010
0000
,
0001
0010
0100
2002
0000
3003
0000
0000
,
0100
0010
0001
0000
1000
0100
0010
0001
0000
0000
1000
0000
0010
0000
0100
0000
,
0001
0010
0100
1000
0220
0000
0330
0000
,
1000
0010
0100
0000
0001
0100
0010
1000
0000
0000
0001
1000
0001
0000
0010
0000
,
0100
1000
0010
0100
0001
1000
0001
0010
,
0100
0000
0010
0000
1000
0000
2002
0000
0000
0000
3003
0000
0000
0000
0001
0010
,
0001
0000
1000
0100
1000
0100
0000
0000
0010
0100
0010
0000
1001
0000
1001
0000
,
0001
0000
1000
0010
0000
0000
0202
0000
0000
0000
0303
0000
0000
0000
1000
0010
,
1000
0000
0001
0100
0001
0100
0000
1000
0001
1000
0000
0000
0101
0000
0101
0000
,
1000
0000
0001
1000
0000
0000
2020
0000
0000
0000
3030
0000
0000
0000
0001
0100
,
0010
0000
1000
0010
0100
0001
0000
0000
1000
0010
1000
0000
1010
0000
1010
0000
,
0001
0000
1000
0100
0000
0000
0220
0000
0000
0000
0330
0000
0000
0000
1000
0010
,
0100
0000
0001
0100
0010
1000
0000
0000
0001
0100
0001
0000
0110
0000
0110
0000
,
0001
0000
1000
0001
0000
0000
0022
0000
0000
0000
0033
0000
0000
0000
1000
0100
,
0010
0000
0001
0010
0100
1000
0000
0000
0001
0100
1000
0000
0011
0000
0011
0000
,
1000
0000
0010
0100
0000
0000
2200
0000
0000
0000
3300
0000
0000
0000
0001
0010
,
0100
0000
1000
0100
0010
0001
0000
0000
1000
0001
1000
0000
1100
0000
1100
0000
,
0001
0000
0100
0010
0000
0000
0220
0000
0000
0000
0330
0000
0000
0000
0100
0001
,
0100
0000
0010
1000
0010
1000
0000
0000
0001
1000
0001
0000
0100
0000
0010
0000
,
0100
0000
0010
0001
0000
0000
2200
0000
0000
0000
3300
0000
0000
0000
0010
0001
,
0010
0000
0100
1000
0100
1000
0000
0010
0100
0010
0000
0000
1100
0000
1100
0000
,
0010
0001
0022
0000
0033
2200
0000
3300
,
0000
0220
0000
0330
0000
2002
0000
3003
,
0000
0220
0000
0330
0000
2002
0000
0000
,
0000
0000
0000
0000
,
0000
0000
0000
0000
,
0000
0000
0000
0000
,
0000
0000
0000
0000
0000
3003
0000
0000
;

//---------------dance-single - ----------------
#NOTES:
     dance-single:
     :
     Medium:
     7:
     0.472595,0.508739,0.284914,0.633142,0.003957,418.000000,382.000000,36.000000,80.000000,0.000000,0.000000,0.472595,0.508739,0.284914,0.633142,0.003957,418.000000,382.000000,36.000000,80.000000,0.000000,0.000000:
0000
0000
0202
0000
0303
0000
0100
0010
,
1000
0001
0000
0010
1000
0100
0001
0100
,
0001
0000
2200
0000
3300
0000
0001
1000
,
0010
0100
0000
0100
0000
0100
1000
0001
,
0010
0000
0022
0000
0033
0000
0100
0010
,
0001
1000
0000
0001
1000
0010
1000
0001
,
0100
0000
2020
0000
3030
0000
0001
1000
,
0100
0010
0000
0100
1000
0010
1000
0100
,
0001
0000
0220
0000
0330
0000
0001
0010
,
0100
1000
0000
0100
0001
0100
0010
0001
,
0010
0000
2002
0000
3003
0000
0100
1000
,
0001
0010
0000
0001
0001
1000
1000
0100
,
1000
0000
0202
0000
0303
0000
0001
0001
,
0100
0100
0000
1000
1000
0010
0010
0001
,
0100
0000
0022
0000
0033
0000
0100
1000
,
0020
0000
0000
0030
0000
0000
0001
0000
0000
0000
0010
0000
0001
0000
0100
0000
,
0001
0000
2200
0000
3300
0000
0001
1000
,
0100
0010
0000
0100
0100
1000
1000
0001
,
0100
0000
2020
0000
3030
0000
0100
0010
,
0001
1000
0000
0001
0001
0010
0010
0001
,
0100
0000
2002
0000
3003
0000
0100
1000
,
0001
0010
0000
0001
0100
0001
0001
0100
,
1000
0000
0220
0000
0330
0000
0001
0010
,
0100
1000
0000
0100
0100
0010
0010
0001
,
0010
0000
2020
0000
3030
0000
0010
0010
,
1000
1000
0000
0001
0001
0100
0100
0010
,
0220
0000
0330
0000
1000
0001
0010
0100
,
0000
0010
0000
0100
0010
1000
0010
0000
,
2002
0000
3003
0000
0010
0001
1000
0100
,
0000
1000
0010
1000
0001
0202
0000
0303
,
0000
1000
0100
0010
0001
0000
0010
0010
,
0001
0001
0010
1000
0000
0022
0000
0033
,
0000
1000
0001
0010
0100
0000
0010
1000
,
0010
0001
1000
0001
2200
0000
3300
0000
,
0010
0100
1000
0001
0000
1000
0010
0100
,
1000
0010
0100
0000
2020
0000
3030
0000
,
1000
1000
0010
0010
0000
0100
0100
0001
,
0001
2002
0000
3003
0000
0010
0100
1000
,
0001
0000
1000
0000
0001
1000
0010
1000
,
0000
0000
0200
0000
0000
0000
0300
0000
0000
0002
0000
0000
0000
0003
0000
0000
,
0020
0030
0202
0303
,
0100
0010
1000
0001
0000
1000
1000
0100
,
0010
0202
0000
0303
0000
0010
0001
1000
,
0100
0000
1000
1000
0100
0001
1000
0010
,
0000
2200
0000
3300
0000
0010
0100
1000
,
0001
0000
1000
0010
0100
1000
0001
0100
,
1000
0010
0022
0000
0033
0000
1000
0001
,
0010
0100
0000
0010
0010
0001
0010
1000
,
0001
1000
0010
0202
0000
0303
0000
0000
,
0010
0001
0100
1000
0000
0100
1000
0010
,
0001
1000
0010
0100
2020
0000
3030
0000
,
0100
0010
0001
1000
0000
1000
0001
1000
,
0010
0100
1000
0010
0001
0100
0001
1000
,
0010
1000
0100
0202
0000
0303
0000
0001
,
0001
0100
0100
0000
1000
1000
0010
0010
,
0001
0100
0000
0022
0000
0033
0000
0100
,
0100
0001
0001
0000
0001
0000
0010
0010
,
0100
0001
0000
2200
0000
3300
0000
0001
,
1000
0100
0010
0000
0100
0010
1000
0001
,
1000
0100
0000
2020
0000
3030
0000
0100
,
0010
0001
1000
0000
0001
0100
1000
0010
,
0001
0100
0000
2002
0000
3003
0000
0100
,
1000
0001
0010
0000
0001
0100
1000
0001
,
0100
1000
0000
0220
0000
0330
0000
0001
,
0010
0100
1000
0000
0100
0010
1000
0010
,
0001
0010
0000
2020
0000
3030
0000
0010
,
0010
1000
1000
0000
0001
0001
0010
1000
,
0010
1000
0000
0220
0000
0330
0000
1000
,
1000
0010
0010
0000
0010
0000
0100
0010
,
1000
0001
2000
0000
3000
0020
0000
0030
,
0000
0002
0000
0003
0000
0200
0000
0300
,
0000
2020
0000
3030
0000
0202
0000
0000
,
0000
0000
0000
0000
,
0000
0000
0000
0000
,
0000
0000
0000
0000
,
0000
0000
0000
0000
0000
0303
0000
0000
;

//---------------dance-single - ----------------
#NOTES:
     dance-single:
     :
     Easy:
     3:
     0.239689,0.239407,0.000000,0.348228,0.003957,212.000000,212.000000,0.000000,44.000000,0.000000,0.000000,0.239689,0.239407,0.000000,0.348228,0.003957,212.000000,212.000000,0.000000,44.000000,0.000000,0.000000:
// measure 0
0000
0002
0003
0010
,  // measure 1
0100
0000
0100
0001
,  // measure 2
0001
0200
0300
0001
,  // measure 3
1000
0000
0000
0100
,  // measure 4
1000
0002
0003
0010
,  // measure 5
0001
0000
0100
0100
,  // measure 6
0010
2000
3000
0001
,  // measure 7
0010
0000
0100
0100
,  // measure 8
0001
2000
3000
0001
,  // measure 9
0010
0000
0001
1000
,  // measure 10
1000
0200
0300
0010
,  // measure 11
0001
0000
0001
0100
,  // measure 12
0100
0020
0030
0001
,  // measure 13
0010
0000
0100
1000
,  // measure 14
0010
0002
0003
0010
,  // measure 15
2000
0000
0000
3000
0000
0000
0000
0000
0000
0000
0000
0000
0001
0000
0000
0000
,  // measure 16
0001
0020
0030
0001
,  // measure 17
0010
0000
0010
0100
,  // measure 18
0010
2000
3000
0010
,  // measure 19
0001
0000
0001
1000
,  // measure 20
0010
0200
0300
0010
,  // measure 21
0001
0000
0010
0001
,  // measure 22
0100
2000
3000
0001
,  // measure 23
0010
0000
0010
1000
,  // measure 24
1000
0200
0300
1000
,  // measure 25
0100
0000
0001
0010
,  // measure 26
2000
3000
0100
1000
,  // measure 27
0000
0000
1000
1000
,  // measure 28
0002
0003
1000
0100
,  // measure 29
0000
0000
1000
0000
0001
0020
0000
0030
,  // measure 30
0000
0010
0001
1000
,  // measure 31
0001
0000
1000
0000
0000
0002
0000
0003
,  // measure 32
0000
0001
0010
1000
,  // measure 33
1000
0100
0020
0030
,  // measure 34
1000
0100
0000
1000
,  // measure 35
0100
0010
0200
0300
,  // measure 36
0100
1000
0000
0010
,  // measure 37
0001
0200
0000
0300
0000
0000
0010
0000
,  // measure 38
0001
0100
0001
1000
,  // measure 39
0000
0000
0020
0000
0000
0000
0030
0000
0000
0002
0000
0000
0000
0003
0000
0000
,  // measure 40
2000
3000
0020
0030
,  // measure 41
0010
0100
0000
0100
,  // measure 42
1000
0020
0000
0030
0000
0000
0001
0000
,  // measure 43
0010
0100
0010
0100
,  // measure 44
0000
0020
0000
0030
0000
0000
0010
0000
,  // measure 45
0001
0100
0010
0001
,  // measure 46
0100
2000
3000
0100
,  // measure 47
1000
0000
1000
1000
,  // measure 48
0001
0000
1000
0020
0000
0030
0000
0000
,  // measure 49
1000
0010
0000
0100
,  // measure 50
0001
1000
0200
0300
,  // measure 51
0010
0001
0000
0001
,  // measure 52
1000
0100
0001
0001
,  // measure 53
1000
0000
0010
0002
0000
0003
0000
0000
,  // measure 54
0001
0010
0100
1000
,  // measure 55
0001
0000
0000
2000
0000
3000
0000
0000
,  // measure 56
0010
0001
0001
1000
,  // measure 57
0010
0000
0000
0200
0000
0300
0000
0000
,  // measure 58
0100
1000
0010
0100
,  // measure 59
0100
0000
0000
2000
0000
3000
0000
0000
,  // measure 60
1000
0100
0001
0100
,  // measure 61
0001
0000
0000
0200
0000
0300
0000
0000
,  // measure 62
0100
1000
0001
0100
,  // measure 63
0010
0000
0000
2000
0000
3000
0000
0000
,  // measure 64
1000
0100
0010
0100
,  // measure 65
0001
0000
0000
2000
0000
3000
0000
0000
,  // measure 66
1000
0100
0001
1000
,  // measure 67
1000
0000
0000
0020
0000
0030
0000
0000
,  // measure 68
0100
1000
1000
0010
,  // measure 69
0100
0000
0200
0000
0300
2000
0000
3000
,  // measure 70
0000
0002
0000
0003
0000
0020
0000
0030
,  // measure 71
0000
0200
0000
0300
0000
0002
0000
0000
,  // measure 72
0000
0000
0000
0000
,  // measure 73
0000
0000
0000
0000
,  // measure 74
0000
0000
0000
0000
,  // measure 75
0000
0000
0000
0000
0000
0003
0000
0000
;
