#TITLE:Violence Trident;
#SUBTITLE:;
#ARTIST:LeaF;
#TITLETRANSLIT:;
#SUBTITLETRANSLIT:;
#ARTISTTRANSLIT:;
#GENRE:;
#CREDIT:;
#BANNER:Violence Trident.png;
#BACKGROUND:Violence Trident-BG.png;
#LYRICSPATH:;
#CDTITLE:;
#MUSIC:Violence Trident.ogg;
#OFFSET:-0.015000;
#SAMPLESTART:34.014999;
#SAMPLELENGTH:12.000000;
#SELECTABLE:YES;
#BPMS:0.000000=300.000000
;
#STOPS:
;
#BGCHANGES:;
#KEYSOUNDS:;
#ATTACKS:;

//---------------dance-single - ----------------
#NOTES:
     dance-single:
     :
     Hard:
     12:
     0.869753,1.092684,0.569663,0.000000,0.049845,855.000000,775.000000,80.000000,0.000000,154.000000,0.000000,0.869753,1.092684,0.569663,0.000000,0.049845,855.000000,775.000000,80.000000,0.000000,154.000000,0.000000:
1001
0000
0000
0000
1000
0100
0010
0001
,
0010
0100
0010
1000
,
1001
0000
0001
0010
0100
1000
0100
0010
,
0001
0100
0010
1000
,
1001
0000
0100
0010
,
0110
1000
0001
0100
,
0101
0000
0000
0000
0000
0000
0010
0100
,
0001
0000
0000
0000
,
1010
0000
0000
0000
1000
0100
1000
0100
,
1000
0001
0100
0010
,
1000
0000
0001
0010
0100
1000
0100
0010
,
0001
0100
0010
1000
,
1001
0000
0100
0010
,
1010
1000
0001
0100
,
1010
0000
0010
0100
0000
0100
0001
1000
,
0010
0000
0000
0100
0000
0010
0100
0000
,
0101
0000
0001
0010
0000
0100
1000
0001
,
0010
0100
0000
0001
0000
0000
0010
0100
,
1000
0100
0010
0100
1000
0100
0010
0000
,
0001
0010
0100
0010
0001
0010
0100
0010
,
0001
0000
1000
0100
0000
1000
0100
0000
,
0100
0010
0100
0000
0010
0100
0010
0000
,
0010
0000
0001
0010
0000
0001
0010
0000
,
0001
1000
0001
1000
0001
1000
0001
0000
,
1001
0000
0000
1000
0000
0000
0100
0000
,
0010
0000
0110
0000
0000
1000
0000
0000
,
1001
0000
0000
0100
0000
0000
0010
0000
,
0001
0000
1001
0000
0000
1010
0000
0000
,
0101
0000
0000
0010
0000
0000
1000
0100
,
1000
0000
0000
0100
0000
0000
0010
0100
,
0010
0000
0000
0010
0000
0000
0001
0010
,
0001
0000
1000
0100
0010
0001
0010
0100
,
1000
0100
0010
0000
0000
0000
0100
0000
,
0010
0100
0010
0000
0000
0000
0001
0000
,
1000
0000
1000
0100
0010
0001
1000
0000
,
10MM
0100
M01M
0100
10MM
0100
0010
0000
,
MM01
0010
M10M
0010
MM01
0010
0100
0000
,
1M0M
0010
MM01
0010
1M0M
0010
0001
0000
,
M0M1
0100
10MM
0100
M0M1
0100
1000
0000
,
1MM0
0001
1MM0
0001
1MM0
0001
1000
0000
,
M01M
0100
M01M
0100
M01M
0100
0010
0000
,
1010
0000
0000
0101
0000
0000
1001
0000
,
0000
0110
0000
0000
1001
0000
1001
0000
,
1001
0000
1000
0001
1000
0000
1001
0000
,
1000
0001
0000
0000
1001
0000
0000
0000
,
0010
0100
0101
0000
,
0100
0010
1010
0000
,
0100
0000
0101
0000
,
1010
0000
1001
0000
,
0001
0100
0101
0000
,
1000
0010
1010
0000
,
1010
0000
0101
0000
,
0110
0000
0000
0000
1001
0000
10MM
0100
,
M01M
0100
10MM
0100
M01M
0100
10MM
0100
,
M01M
0100
10MM
0100
0010
0000
MM01
0010
,
M10M
0010
MM01
0010
M10M
0010
MM01
0010
,
M10M
0010
MM01
0010
0100
0000
1MM0
0001
,
1MM0
0001
1MM0
0001
1MM0
0001
1MM0
0001
,
1MM0
0001
1MM0
0001
1000
0000
M01M
0100
,
M01M
0100
M01M
0100
M01M
0100
M01M
0100
,
M01M
0100
M01M
0100
M01M
0000
0000
1001
,
0000
0001
0010
0100
,
1000
0000
0001
0000
1001
0000
0000
0110
,
0000
1000
0100
0010
,
0001
1000
1001
0001
,
0010
1010
1000
0100
,
0110
0010
0011
0001
,
0010
0100
1001
1000
,
0100
0010
1001
0010
,
0000
0000
0100
0000
0010
0000
1000
0001
,
0000
1000
0010
0100
,
0000
0100
0001
1000
,
0010
1000
0001
0100
,
0000
0000
0010
0000
0100
0000
0001
1000
,
0000
0010
0100
0001
,
0000
1000
0010
0100
,
0001
0010
0100
1000
,
0000
0010
0100
0001
,
0010
0000
0100
0000
1000
0000
0000
0001
,
0000
0000
0100
0000
0010
0000
0000
1000
,
0000
0001
0010
0000
,
0000
0000
0100
0000
0010
0000
0000
1000
,
0000
0000
0001
0000
0010
0100
1000
0100
,
0010
0000
0100
0010
0001
0010
0100
1000
,
0100
0010
0001
0010
0100
0000
0100
0000
,
0000
0000
0010
0000
0100
0000
0001
1000
,
0000
0001
0100
0010
,
0000
0010
1000
0001
,
0100
0001
1000
0010
,
0000
0000
0100
0000
0010
0000
1000
0001
,
0000
0100
0010
1000
,
0000
0001
0100
0010
,
1000
0100
0010
0001
,
0000
0100
0010
1000
,
0100
0000
0010
0000
0001
0000
0000
1000
,
0000
0000
0010
0000
0100
0000
0000
0001
,
0000
1000
0100
0000
,
0000
0000
0010
0000
0100
0000
0000
0001
,
0000
0000
1000
0000
1010
0000
0000
1010
,
0000
0000
1010
0000
0000
0101
0000
0000
,
0101
0000
0000
0101
0000
0000
1000
0000
0000
1000
0100
0010
,
0001
0000
0000
0000
0000
0000
1000
0000
0100
0000
0010
0000
0001
0000
0000
1000
0000
0000
0100
0000
0000
0010
0000
0000
,
0001
0000
0000
1000
0100
0010
0001
0000
0000
0001
0010
0100
,
1000
0000
0000
0001
0000
0000
0010
0000
0000
0100
0000
0000
1000
0000
0000
0000
0000
0000
0001
0000
0010
0000
0100
0000
,
1000
0001
0010
0100
1000
0000
0001
0000
,
0010
0000
0000
0100
0000
0000
1000
0100
0010
0001
0000
0000
,
0001
0010
0100
1000
0000
0000
0100
0000
0000
0010
0000
0000
,
0001
0000
1000
0100
0000
0010
0100
0000
,
0001
0000
0000
0000
1000
0000
1M0M
0010
,
1M0M
0010
1M0M
0010
0000
0100
M0M1
0100
,
M0M1
0100
0001
0000
M01M
0100
M01M
0100
,
M01M
0100
M01M
0100
M01M
0000
1000
0000
,
1000
0100
0010
0100
1000
0000
0001
0010
,
0100
0010
0000
0100
0000
1000
0100
0000
,
0010
0000
0001
0000
0101
0000
0000
0101
,
0000
0000
0101
0000
0000
1010
0000
0000
,
1010
0000
1010
0000
1000
0010
0001
0000
,
0000
0000
0000
0001
1000
0100
0001
0000
,
0000
0000
0000
0100
1000
0100
0010
0000
,
0000
0100
0010
1000
,
0001
0000
0100
0000
0001
0010
0100
0000
,
0000
0000
0001
0000
0010
0100
1000
0000
,
0000
0000
0100
0000
0010
1000
0100
0000
,
0000
1000
0100
0010
,
0001
0000
0100
0000
0010
0100
1000
0000
,
0000
0000
0001
0000
0100
0010
0001
0000
,
0000
0000
1010
0000
1000
0100
0010
0000
,
0000
0001
0010
0100
,
0010
0000
0001
0000
0010
0100
1000
0000
,
0001
0000
0100
0010
0001
0000
1000
0000
,
0100
0000
0010
0000
0001
0100
1000
0000
,
0000
0000
0001
0000
M1M0
0001
M1M0
0001
,
M1M0
0001
M1M0
0001
M1M0
0001
0100
0000
,
1M0M
0010
1M0M
0010
1M0M
0010
1M0M
0010
,
1M0M
0010
1000
0000
M01M
0100
M01M
0100
,
M01M
0100
M01M
0100
M01M
0100
0010
0000
,
0MM1
1000
0MM1
1000
0MM1
1000
0MM1
1000
,
0MM1
1000
0100
0000
1000
0001
1000
0000
,
0000
0000
1000
0100
,
0010
0001
1000
0100
,
1000
0001
0010
0001
,
0100
0010
0100
1000
,
0001
0010
0100
0010
,
0001
1000
0100
0010
,
0100
1000
0010
0100
,
0010
0000
1000
0000
0001
0010
0000
0100
,
1000
0010
1001
0010
,
0100
0010
0001
1000
,
0100
0010
0100
1000
,
0001
1000
0100
0010
,
0001
1000
1001
0000
,
0101
0000
1010
0000
,
0110
0000
0000
0000
1000
0100
0010
0001
,
1000
0100
0010
0001
0010
0100
1000
0001
,
0010
0100
1000
0000
1010
0000
0000
0000
,
1010
0000
0110
0000
,
0110
0000
0001
0010
,
0100
1000
0100
0010
,
0001
0000
0101
0000
,
0101
0000
0110
0000
,
0110
0000
1000
0100
,
0010
0001
0010
0100
,
1000
0000
0000
0000
1001
0000
0000
1000
,
0001
1000
0001
0000
0101
0000
0000
0100
,
0001
0100
0001
0000
0110
0000
0000
0100
,
0010
0100
0010
0000
0110
0000
0000
0000
,
0110
0000
0000
0000
0110
0000
0000
0010
,
0100
0010
0001
0010
0100
0000
0000
1000
,
0100
0010
0100
1000
0100
0010
0001
0010
,
0100
0010
0001
0010
0100
0000
0110
0000
,
0000
1001
1001
0000
;

//---------------dance-single - ----------------
#NOTES:
     dance-single:
     :
     Medium:
     9:
     0.567628,0.789161,0.719199,0.000000,0.000000,558.000000,457.000000,101.000000,0.000000,0.000000,0.000000,0.567628,0.789161,0.719199,0.000000,0.000000,558.000000,457.000000,101.000000,0.000000,0.000000,0.000000:
1010
0000
0000
0000
,
1010
0000
0010
0000
,
1010
0000
0000
0000
,
0101
0000
0100
0000
,
0101
0000
0000
0000
,
1001
0000
0000
0000
,
0110
0000
0000
0000
,
1010
0000
0000
0000
,
1001
0000
0000
0000
0100
1000
0100
0010
,
0001
0000
0100
0010
,
1000
0000
0001
0010
0100
0010
0001
0010
,
0100
0000
1000
0001
,
0010
0000
0000
0100
,
0010
0000
0001
0000
,
1001
0000
0000
0000
0000
0000
1000
0100
,
0010
0000
0000
0000
,
1001
0000
0000
0000
0000
0010
0001
1000
,
0100
0000
0000
0000
,
1010
0000
0000
0000
,
0001
1000
0001
1000
0001
0100
0001
0100
,
0001
0000
0000
1000
0000
0000
0010
0000
,
0100
0000
0001
0000
0000
1000
0000
0000
,
0010
0000
0000
0100
0000
0000
0001
0000
,
1000
0000
1000
0010
0000
0010
0100
0001
,
1000
0000
0000
0010
0000
0000
1000
0000
,
0100
0000
0001
0000
0000
0010
0000
0000
,
0100
0000
0000
0010
0000
0000
1000
0000
,
0001
0000
0100
0000
0000
0010
0000
0000
,
1000
0000
0000
0010
0000
0000
0010
0100
,
1000
0000
0000
0001
0000
0000
0010
0100
,
0010
0000
0000
1000
0000
0000
0001
0010
,
0100
0000
0001
0010
0100
1000
0100
0010
,
0001
0010
0100
0000
0000
0000
0010
0000
,
1000
0100
1000
0000
0000
0000
0001
0000
,
0010
0000
0100
0010
0001
0010
0100
0010
,
0001
0000
0000
0101
0000
0000
0101
0000
,
0000
0101
0000
0000
0110
0000
0000
0110
,
0000
0000
0110
0000
0000
1010
0000
0000
,
1010
0000
0000
1010
0000
0000
1001
0000
,
0000
1001
0000
0000
1001
0000
0000
0011
,
0000
0000
0011
0000
0000
0011
0000
0000
,
1100
0000
0000
1100
0000
0000
1100
0000
,
0000
1001
0000
0000
1001
0000
0001
0000
,
0001
0001
0001
0001
,
1000
0001
0000
0000
1010
0000
0000
0000
,
0100
0000
0101
0000
,
0010
0100
0101
0000
,
0010
0000
1000
0000
,
0001
0000
0101
0000
,
0010
0000
1010
0000
,
0100
0010
1010
0000
,
0100
0000
0001
0000
,
0010
0000
1001
0000
,
1000
0000
1000
0000
,
0100
0000
0100
0000
,
0010
0000
0010
0000
,
0001
0000
1001
0000
,
0001
0000
0010
0000
,
0010
0000
0100
0000
,
0100
0000
1000
0000
,
1000
0000
0000
0000
1001
0000
0000
0101
,
0000
0000
0000
0000
,
0000
0000
0000
0000
1010
0000
0000
0110
,
0000
0000
0000
0000
,
0000
0000
1100
0000
,
0010
0110
0000
0001
,
1001
0000
1010
0010
,
0000
0001
0100
0010
,
1000
0001
1001
0000
,
0000
0000
1000
0000
0010
0000
0000
0100
,
0000
0001
1000
0000
,
0000
0000
0110
0000
,
0101
0000
1010
0000
,
0000
0000
1000
0000
0001
0000
0000
0100
,
0000
0010
1000
0000
,
0000
0000
0101
0000
,
1010
0000
1001
0000
,
0000
0000
1000
0100
,
0010
0000
0001
0000
0010
0000
0000
0100
,
0000
0000
1000
0000
0010
0000
0000
0001
,
0000
0100
1001
0000
,
0000
0000
1000
0000
0001
0000
0000
0100
,
0000
0010
1000
0000
,
0000
0000
0101
0000
,
1000
0100
0010
0001
1000
0000
0000
0000
,
0000
0000
0001
0000
1000
0000
0000
0010
,
0000
0100
0010
0000
,
0000
0000
1100
0000
,
0011
0000
1001
0000
,
0000
0000
1000
0000
0001
0000
0000
0010
,
0000
0100
1000
0000
,
0000
0000
0101
0000
,
0110
0000
1010
0000
,
0000
0000
1000
0100
,
0010
0000
0100
0000
1000
0000
0000
0001
,
0000
0000
0010
0000
0100
0000
0000
0010
,
0000
1000
1001
0000
,
0000
0000
0001
0000
1000
0000
0000
0010
,
0000
0000
1000
0000
0101
0000
0000
0101
,
0000
0000
0101
0000
0000
1010
0000
0000
,
1010
1010
0010
0000
,
0110
0000
0000
0000
0001
0000
0000
1000
,
0001
0010
0000
0100
,
0101
0000
0010
0000
,
1010
0000
1000
0000
,
1001
0000
0000
0000
0001
0000
0000
0001
,
0100
0010
0000
1000
,
1010
0000
0000
0000
0010
0000
0000
0010
,
0100
0001
0101
0000
,
0001
0000
0000
0000
1000
0000
0000
1000
,
0010
0100
0000
0001
,
0101
0000
0000
0000
0010
0000
0000
0010
,
0100
0001
1000
0000
,
0101
0000
0000
0000
0101
0000
0000
0001
,
1000
0000
0010
0000
1010
0000
0000
1010
,
0000
0000
1010
0000
0000
0101
0000
0000
,
0101
0101
0001
0000
,
0000
0000
0010
0000
,
0000
0000
0100
0000
,
0000
0000
1000
0000
,
0000
0000
0001
0000
,
0000
0000
0100
0000
,
0000
0000
0010
0000
,
0000
0000
1010
0000
,
0000
0000
0000
0000
1000
0100
0010
0000
,
0000
1000
0100
0010
0001
0000
0000
0000
,
0100
0000
0010
0001
0010
0000
0000
0000
,
0000
0100
0010
1000
,
0010
0000
0100
0000
0001
0010
0100
0000
,
0000
0000
0010
0000
0010
0100
1000
0000
,
0000
0000
0100
0000
0100
1000
0001
0000
,
0000
0100
0010
1000
,
0001
0100
0001
0000
,
0000
0000
0000
0000
1010
0000
0000
1010
,
0000
1010
1000
0000
,
0000
0000
0000
0000
0101
0000
0000
0101
,
0000
0101
0001
0000
,
0000
0000
0000
0000
1000
0001
0000
1000
,
0000
0000
1010
0010
,
0000
0010
0000
0010
,
0100
1000
0100
0010
,
0000
0001
0000
1000
,
0100
0010
0100
1000
,
0000
1000
0100
1000
,
0000
0001
0010
0001
,
0000
0000
0100
0000
0010
1000
0000
0001
,
0100
0001
0101
0100
,
0000
0100
0010
0001
,
0010
0100
1000
0100
,
0010
0001
0010
0100
,
1000
0100
0101
0000
,
0001
0000
0001
0000
,
0001
0000
1001
0000
,
0000
0000
0000
0000
,
0000
0000
1001
0000
,
0001
0000
0010
0000
,
0010
0000
0100
0000
,
0100
0000
1000
0000
,
1000
0000
1001
0000
,
1000
0000
1000
0000
,
0100
0000
0100
0000
,
0010
0000
0010
0000
,
0001
0000
0000
0000
1001
0000
0000
1000
,
0000
1000
0100
0000
0100
0000
0000
0100
,
0000
0100
0010
0000
0010
0000
0000
0010
,
0000
0010
0001
0000
0001
0000
0000
0000
,
1000
0000
0000
0000
1001
0000
0000
1000
,
0000
1000
0100
0010
0001
0000
0000
0010
,
0000
0001
0010
0100
1000
0000
0100
0000
,
0010
0001
0010
0100
,
0000
1000
1001
0000
;

//---------------dance-single - ----------------
#NOTES:
     dance-single:
     :
     Easy:
     5:
     0.329590,0.364228,0.000000,0.000000,0.000000,324.000000,324.000000,0.000000,0.000000,0.000000,0.000000,0.329590,0.364228,0.000000,0.000000,0.000000,324.000000,324.000000,0.000000,0.000000,0.000000,0.000000:
// measure 0
0010
0000
0000
0000
,  // measure 1
1000
0000
0100
0000
,  // measure 2
0010
0000
0000
0000
,  // measure 3
0001
0000
0100
0000
,  // measure 4
1000
0000
0000
0000
,  // measure 5
0001
0000
0000
0000
,  // measure 6
0100
0000
0000
0000
,  // measure 7
0010
0000
0000
0000
,  // measure 8
0001
0000
0100
0000
,  // measure 9
0001
0000
0100
0000
,  // measure 10
1000
0000
0100
0000
,  // measure 11
0100
0000
1000
0000
,  // measure 12
0010
0000
0000
0100
,  // measure 13
0010
0000
0001
0000
,  // measure 14
1000
0000
0000
1000
,  // measure 15
0010
0000
0000
0000
,  // measure 16
0001
0000
0000
0001
,  // measure 17
0100
0000
0000
0000
,  // measure 18
0010
0000
0000
0000
,  // measure 19
1000
0000
0001
0000
,  // measure 20
1000
0000
0010
0000
,  // measure 21
0100
0001
0000
1000
,  // measure 22
0010
0000
0100
0000
,  // measure 23
1000
0000
0010
0000
,  // measure 24
0001
0000
0010
0000
,  // measure 25
0100
0001
0000
0010
,  // measure 26
0100
0000
0010
0000
,  // measure 27
0001
0100
0000
0010
,  // measure 28
1000
0000
0010
0000
,  // measure 29
0100
0000
0001
0000
,  // measure 30
0010
0000
1000
0000
,  // measure 31
0010
0000
1000
0000
,  // measure 32
0001
0010
0000
0100
,  // measure 33
0000
0100
0000
0001
,  // measure 34
0000
0100
0000
1000
,  // measure 35
0000
0000
0100
0100
,  // measure 36
0000
0001
1000
0000
,  // measure 37
0100
0010
0000
0100
,  // measure 38
0010
0000
0001
0100
,  // measure 39
0000
0010
1000
0000
,  // measure 40
0100
0001
0000
1000
,  // measure 41
0100
0000
0010
0001
,  // measure 42
0000
0100
0000
0001
,  // measure 43
0000
0100
0000
0001
,  // measure 44
0000
0001
0010
0000
,  // measure 45
0100
0000
1000
0000
,  // measure 46
0010
0000
0001
0000
,  // measure 47
0010
0000
1000
0000
,  // measure 48
0001
0000
0100
0000
,  // measure 49
0010
0000
1000
0000
,  // measure 50
0100
0000
0001
0000
,  // measure 51
0100
0000
0001
0000
,  // measure 52
0010
0000
0001
0000
,  // measure 53
1000
0000
1000
0000
,  // measure 54
0100
0000
0100
0000
,  // measure 55
0010
0000
0010
0000
,  // measure 56
0001
0000
0001
0000
,  // measure 57
0001
0000
0010
0000
,  // measure 58
0010
0000
0100
0000
,  // measure 59
0100
0000
1000
0000
,  // measure 60
1000
0000
0001
0000
,  // measure 61
0001
0000
0000
0000
,  // measure 62
0000
0000
0010
0000
,  // measure 63
0010
0000
0000
0000
,  // measure 64
0000
0000
0100
0000
,  // measure 65
0010
0010
0000
0001
,  // measure 66
0001
0000
0010
0010
,  // measure 67
0000
0001
0000
0010
,  // measure 68
0000
0001
0000
0000
,  // measure 69
0000
1000
0010
0000
,  // measure 70
0100
0000
1000
0000
,  // measure 71
0000
0000
0010
0000
,  // measure 72
0001
0000
0010
0000
,  // measure 73
0000
1000
0001
0000
,  // measure 74
0100
0000
1000
0000
,  // measure 75
0000
0000
0001
0000
,  // measure 76
0010
0000
0001
0000
,  // measure 77
0000
0000
1000
0000
,  // measure 78
0010
0000
0010
0000
,  // measure 79
0100
0000
0010
0000
,  // measure 80
0001
0000
0001
0000
,  // measure 81
0000
1000
0001
0000
,  // measure 82
0100
0000
1000
0000
,  // measure 83
0000
0000
0001
0000
,  // measure 84
1000
0000
0001
0000
,  // measure 85
0000
0001
1000
0000
,  // measure 86
0010
0000
0010
0000
,  // measure 87
0000
0000
0100
0000
,  // measure 88
0001
0000
0001
0000
,  // measure 89
0000
1000
0001
0000
,  // measure 90
0010
0000
1000
0000
,  // measure 91
0000
0000
0001
0000
,  // measure 92
0010
0000
0010
0000
,  // measure 93
0000
0000
1000
0000
,  // measure 94
0010
0000
1000
0000
,  // measure 95
0001
0000
0100
0000
,  // measure 96
0010
0000
0001
0000
,  // measure 97
0000
0001
1000
0000
,  // measure 98
0010
0000
0001
0000
,  // measure 99
0001
0001
0000
0010
,  // measure 100
0000
0010
0000
0000
,  // measure 101
0010
0000
0001
0000
,  // measure 102
0001
0010
0000
0100
,  // measure 103
0001
0000
0010
0000
,  // measure 104
0010
0000
1000
0000
,  // measure 105
0001
0000
0001
0000
,  // measure 106
0001
0010
0000
1000
,  // measure 107
0010
0000
0010
0000
,  // measure 108
0010
0000
0001
0000
,  // measure 109
0001
0000
1000
0000
,  // measure 110
0010
0100
0000
0001
,  // measure 111
0001
0000
0010
0000
,  // measure 112
0010
0000
1000
0000
,  // measure 113
0001
0000
0001
0000
,  // measure 114
0001
0000
0010
0000
,  // measure 115
0010
0010
0000
0001
,  // measure 116
0000
0001
0000
0000
,  // measure 117
0000
0000
0010
0000
,  // measure 118
0000
0000
0100
0000
,  // measure 119
0000
0000
1000
0000
,  // measure 120
0000
0000
0001
0000
,  // measure 121
0000
0000
0100
0000
,  // measure 122
0000
0000
0010
0000
,  // measure 123
0000
0000
0010
0000
,  // measure 124
0000
0000
1000
0010
,  // measure 125
0000
0100
0001
0000
,  // measure 126
0100
0000
0001
0000
,  // measure 127
0000
0100
0000
1000
,  // measure 128
0000
0100
0001
0000
,  // measure 129
0000
0010
0000
0100
,  // measure 130
0000
0100
0000
0001
,  // measure 131
0000
0100
0000
1000
,  // measure 132
0000
0100
0000
0000
,  // measure 133
0000
0000
0010
0000
,  // measure 134
0010
0000
1000
0000
,  // measure 135
0000
0000
0001
0000
,  // measure 136
0001
0000
0001
0000
,  // measure 137
0000
0000
1000
0001
,  // measure 138
1000
0000
0010
0010
,  // measure 139
0000
0010
0000
0010
,  // measure 140
0000
1000
0000
0010
,  // measure 141
0000
0001
0000
1000
,  // measure 142
0000
0010
0000
1000
,  // measure 143
0000
1000
0000
1000
,  // measure 144
0000
0001
0000
0001
,  // measure 145
0000
0100
0000
1000
,  // measure 146
0000
0001
0000
0100
,  // measure 147
0000
0100
0000
0001
,  // measure 148
0000
0100
0000
0100
,  // measure 149
0000
0001
0000
0100
,  // measure 150
0000
0100
0000
0000
,  // measure 151
0001
0000
0001
0000
,  // measure 152
0001
0000
0001
0000
,  // measure 153
1000
0000
0100
0000
,  // measure 154
0010
0000
0001
0000
,  // measure 155
0001
0000
0010
0000
,  // measure 156
0010
0000
0100
0000
,  // measure 157
0100
0000
1000
0000
,  // measure 158
1000
0000
0001
0000
,  // measure 159
1000
0000
1000
0000
,  // measure 160
0100
0000
0100
0000
,  // measure 161
0010
0000
0010
0000
,  // measure 162
0001
0000
0001
0000
,  // measure 163
1000
0000
0100
0000
,  // measure 164
0100
0000
0010
0000
,  // measure 165
0010
0000
0001
0000
,  // measure 166
1000
0000
0001
0000
,  // measure 167
1000
0000
0001
0000
,  // measure 168
0010
0000
1000
0000
,  // measure 169
0010
0000
0100
0000
,  // measure 170
0000
1000
0100
0000
;
