#TITLE:VS ΣSignal;
#SUBTITLE:;
#ARTIST:ディヴェラ;
#TITLETRANSLIT:VS SigmaSignal;
#SUBTITLETRANSLIT:;
#ARTISTTRANSLIT:DIVELA;
#GENRE:;
#CREDIT:;
#BANNER:VS SigmaSignal.png;
#BACKGROUND:VS SigmaSignal-BG.png;
#LYRICSPATH:;
#CDTITLE:;
#MUSIC:VS SigmaSignal.ogg;
#OFFSET:-0.845000;
#SAMPLESTART:27.327999;
#SAMPLELENGTH:24.000000;
#SELECTABLE:YES;
#BPMS:0.000000=290.000000
;
#STOPS:
;
#BGCHANGES:;
#KEYSOUNDS:;
#ATTACKS:;

//---------------dance-single - ----------------
#NOTES:
     dance-single:
     :
     Hard:
     11:
     0.841544,1.001437,0.928248,0.000000,0.000000,660.000000,556.000000,104.000000,0.000000,0.000000,0.000000,0.841544,1.001437,0.928248,0.000000,0.000000,660.000000,556.000000,104.000000,0.000000,0.000000,0.000000:
1000
0000
0010
0000
0100
0001
0100
0000
,
0010
1000
0010
0100
0001
0100
0010
0000
,
1000
0000
0100
1000
0100
0010
0100
0000
,
0010
0100
0010
0001
0010
0100
1000
0000
,
0010
0000
0001
0000
1000
0100
1000
0000
,
0001
0010
0001
1000
0100
1000
0001
0000
,
0010
0000
1000
0010
1000
0001
1000
0000
,
0001
1000
0001
0100
0001
1000
0010
0000
,
0010
0100
0010
1000
,
1001
0000
0000
0101
0000
0000
1010
0000
,
0010
1000
0001
0100
,
1010
0000
0000
0101
0000
0001
1000
0000
,
0100
0001
1000
0010
,
0110
0000
0000
0101
0000
0000
1010
0000
,
0010
0100
0001
1000
,
1001
0000
0000
0101
0000
0100
0010
0000
,
0100
0010
0100
0001
,
1001
0000
0000
1010
0000
0000
0101
0000
,
0100
0001
1000
0010
,
0101
0000
0000
1010
0000
1000
0010
0000
,
0010
1000
0001
0100
,
0110
0000
0000
1010
0000
0000
0101
0000
,
0100
0010
1000
0001
,
1001
0000
0000
1010
0000
0010
0100
0000
,
0010
0001
0010
1000
,
1100
0000
0000
0101
0000
0000
1010
0000
,
0010
1000
0100
0001
,
1010
0000
0000
0101
0000
0100
1000
0000
,
0001
0100
1000
0010
,
0011
0000
0000
0101
0000
0000
1010
0000
,
0010
0100
1000
0001
0010
0100
0010
0001
,
1000
0100
0010
0001
0010
0100
0010
0100
,
1000
0001
0100
0010
,
1010
0000
0000
0110
0000
0000
0101
0000
,
0100
0010
1000
0001
,
1010
0000
0000
1100
0000
0000
0101
0000
,
0001
0010
0100
1000
,
1001
0000
0000
0101
0000
0000
0110
0000
,
0010
1000
0001
0100
,
0101
0000
0000
1010
0000
0000
0101
0000
,
0001
1000
0010
0100
,
0101
0000
0000
0110
0000
0000
1010
0000
,
0010
0100
0001
1000
,
0101
0000
0000
0011
0000
0000
1010
0000
,
1000
0100
0010
0001
,
1001
0000
0000
1010
0000
0000
0110
0000
,
0100
0001
1000
0010
,
1010
0000
0000
0101
0000
0000
1000
0001
,
1000
0000
0100
0000
0010
0100
0010
0000
,
1000
0000
0001
0010
0100
0010
0001
0000
,
1000
0000
0100
0000
0010
0100
1000
0100
,
0010
0100
0001
0010
,
0100
0000
0010
0000
0100
0010
1000
0000
,
0001
0000
0100
1000
0100
0010
0100
0000
,
0010
0000
0100
0000
0001
0010
1000
0010
,
0001
1010
0110
0101
,
0100
0010
1000
0001
,
0101
0000
0000
0110
0000
0000
1010
0000
,
0010
0100
0010
0001
,
0011
0000
0000
0110
0000
0000
1100
0000
,
1000
0100
1000
0001
,
0101
0000
0000
0110
0000
0000
1010
0000
,
0010
0100
0001
1000
,
1001
0000
0000
0101
0000
0000
0110
0000
,
0010
1000
0001
0100
,
0010
0001
1000
0100
,
1000
0001
0010
0001
,
0100
0010
0100
1000
,
0001
0010
0100
0010
,
0100
1000
0001
0010
,
0100
0010
0001
1000
,
0100
0010
0100
1000
,
0010
0100
0001
1000
,
0100
1000
0010
0100
,
0010
0100
0001
0100
,
0010
1000
0010
1000
,
0001
1000
0010
0100
,
0010
1000
0100
1000
,
0001
0010
0001
0010
,
0100
0010
0100
1000
,
0100
1000
0100
0001
,
0100
0001
0100
0010
,
1000
0010
1000
0001
,
0010
0001
0010
1000
,
0100
1000
0100
1000
,
0010
0100
0001
1000
,
0010
1000
0010
1000
,
0001
0100
0001
0100
,
0001
1000
0010
0100
,
0001
1000
0001
0100
,
0010
1000
0001
0010
,
1000
0010
0001
1000
,
0100
0001
0100
1000
,
0010
0100
0001
1000
,
0010
0100
1000
0001
,
0010
0100
0001
1000
,
0001
0000
1000
0000
0010
0100
0010
0000
,
1000
0100
0010
0100
1000
0000
0001
0010
,
0100
0000
0010
0100
0010
0001
0010
0100
,
1000
0100
0010
0000
0010
0100
0001
0000
,
0010
1000
0010
0100
,
0101
0000
0000
0110
0000
0000
1010
0000
,
0010
0100
0001
1000
,
0101
0000
0000
0011
0000
0000
1010
0000
,
1000
0100
0010
0001
,
1001
0000
0000
1010
0000
0000
0110
0000
,
0100
0001
1000
0010
,
1010
0000
0000
0101
0000
0000
1010
0000
,
1000
0001
0100
0010
,
1010
0000
0000
0110
0000
0000
0101
0000
,
0100
0010
1000
0001
,
1010
0000
0000
1100
0000
0000
0101
0000
,
0001
0010
0100
1000
,
1001
0000
0000
0101
0000
0000
0110
0000
,
0010
1000
0001
0100
,
0101
0000
0000
1010
0000
0000
0001
1000
,
0001
0000
0010
0000
0100
0010
0100
0000
,
0001
0000
1000
0100
0010
0100
1000
0000
,
0001
0000
0010
0000
0100
0010
0001
0010
,
0100
0010
1000
0100
,
0010
0000
0100
0000
0010
0100
0001
0000
,
1000
0000
0010
0001
0010
0100
0010
0000
,
0100
0000
0010
0000
1000
0100
0001
0100
,
1000
0101
0110
1010
,
0010
0100
0001
1000
,
1010
0000
0000
0110
0000
0000
0101
0000
,
0100
0010
0100
1000
,
1100
0000
0000
0110
0000
0000
0011
0000
,
0001
0010
0001
1000
,
1010
0000
0000
0110
0000
0000
0101
0000
,
0100
0010
1000
0001
,
1001
0000
0000
1010
0000
0000
0110
0000
,
0010
0000
0000
0000
;

//---------------dance-single - ----------------
#NOTES:
     dance-single:
     :
     Medium:
     9:
     0.671960,0.589081,0.249913,0.000000,0.000000,527.000000,499.000000,28.000000,0.000000,0.000000,0.000000,0.671960,0.589081,0.249913,0.000000,0.000000,527.000000,499.000000,28.000000,0.000000,0.000000,0.000000:
1000
0001
0010
0010
,
1000
0001
0100
0001
,
1000
0010
0100
0010
,
0001
0001
1000
1000
,
0001
0100
1000
1000
,
0100
0100
0010
0100
,
0001
1000
0010
1000
,
0100
0001
0100
0001
,
0100
0010
0001
1000
,
1000
0000
0000
0100
0000
0000
1001
0000
,
0001
1000
0100
0010
,
1000
0000
0000
0100
0000
0100
1000
0000
,
0010
0100
1000
0001
,
0010
0000
0000
0100
0000
0000
1001
0000
,
0001
0010
0100
1000
,
0100
0000
0000
0010
0000
0010
0001
0000
,
0010
0001
0010
0100
,
1000
0000
0000
0001
0000
0000
0110
0000
,
0010
0100
1000
0001
,
0100
0000
0000
1000
0000
1000
0001
0000
,
0001
1000
0100
0010
,
0010
0000
0000
1000
0000
0000
0110
0000
,
0010
0001
1000
0100
,
1000
0000
0000
0001
0000
0001
0010
0000
,
0001
0100
0001
1000
,
0010
0000
0000
0100
0000
0000
1001
0000
,
0001
1000
0010
0100
,
1000
0000
0000
0010
0000
0010
1000
0000
,
0100
0010
1000
0001
,
0100
0000
0000
0010
0000
0000
1001
0000
,
0001
1000
0001
0001
,
1000
0001
0001
0001
,
1000
0100
0010
0001
,
1000
0000
0000
0010
0000
0000
0110
0000
,
0010
0001
1000
0100
,
1000
0000
0000
0010
0000
0000
0110
0000
,
0100
0001
0010
1000
,
0100
0000
0000
0010
0000
0000
0011
0000
,
0001
1000
0100
0010
,
0010
0000
0000
1000
0000
0000
0110
0000
,
0100
1000
0001
0010
,
0100
0000
0000
0010
0000
0000
1001
0000
,
0001
0010
0100
1000
,
0100
0000
0000
0100
0000
0000
1001
0000
,
1000
0010
0001
0100
,
1000
0000
0000
1000
0000
0000
0011
0000
,
0010
0100
1000
0001
,
1000
0000
0000
0100
0000
0000
1000
0000
,
1000
0010
0001
0001
,
1000
0100
0010
0100
,
1000
0010
0001
1000
,
0001
0010
0100
0001
,
0010
0001
0010
1000
,
0100
0010
0010
0010
,
0001
0010
0100
1000
,
0100
1000
0010
0100
,
0010
0001
1000
0100
,
0010
0000
0000
0010
0000
0000
1001
0000
,
0001
0010
0001
0100
,
0001
0000
0000
0010
0000
0000
1010
0000
,
1000
0010
1000
0100
,
0100
0000
0000
0010
0000
0000
1001
0000
,
0001
0010
0100
1000
,
0100
0000
0000
0010
0000
0000
0011
0000
,
0001
1000
0100
0010
,
0001
0100
1000
0010
,
1000
0100
0001
0100
,
0010
0001
0010
1000
,
0100
0001
0010
0001
,
0010
1000
0100
0001
,
0010
0001
0100
1000
,
0010
0001
0010
1000
,
0001
0010
0100
1000
,
0010
1000
0001
0010
,
0001
0010
0100
0010
,
0001
1000
0001
1000
,
0100
1000
0001
0010
,
0001
1000
0010
1000
,
0100
0001
0100
0001
,
0010
0001
0010
1000
,
0010
1000
0010
0100
,
0010
0100
0010
0001
,
1000
0001
1000
0100
,
0001
0100
0001
1000
,
0010
1000
0010
1000
,
0001
0010
0100
1000
,
0001
1000
0001
1000
,
0100
0010
0100
0010
,
0100
1000
0001
0010
,
0100
1000
0100
0010
,
0001
1000
0100
0001
,
1000
0001
0100
1000
,
0010
0100
0010
1000
,
0001
0010
0100
1000
,
0001
0010
1000
0100
,
0001
0010
0100
1000
,
0100
1000
0001
0001
,
1000
0001
1000
0100
,
0010
0001
0001
0001
,
1000
0001
0001
0100
,
0001
1000
0001
0010
,
0010
0000
0000
0001
0000
0000
1001
0000
,
0001
0010
0100
1000
,
0010
0000
0000
0100
0000
0000
1001
0000
,
1000
0010
0001
0100
,
1000
0000
0000
0001
0000
0000
0011
0000
,
0010
0100
1000
0001
,
1000
0000
0000
0100
0000
0000
1001
0000
,
1000
0100
0010
0001
,
1000
0000
0000
0010
0000
0000
0110
0000
,
0010
0001
1000
0100
,
1000
0000
0000
0010
0000
0000
0110
0000
,
0100
0001
0010
1000
,
0100
0000
0000
0010
0000
0000
0011
0000
,
0001
1000
0100
0010
,
0010
0000
0000
1000
0000
0000
0100
0000
,
0100
0001
0010
0010
,
0100
1000
0001
1000
,
0100
0001
0010
0100
,
0010
0001
1000
0010
,
0001
0010
0001
0100
,
1000
0001
0001
0001
,
0010
0001
1000
0100
,
1000
0100
0010
1000
,
0001
0010
0100
1000
,
1000
0000
0000
0010
0000
0000
0110
0000
,
0010
0001
0010
1000
,
0010
0000
0000
0001
0000
0000
0101
0000
,
0100
0001
0100
1000
,
0001
0000
0000
0010
0000
0000
0110
0000
,
0010
0001
1000
0100
,
1000
0000
0000
1000
0000
0000
0011
0000
,
0001
0000
0000
0000
;

//---------------dance-single - ----------------
#NOTES:
     dance-single:
     :
     Easy:
     5:
     0.337893,0.294540,0.000000,0.000000,0.000000,265.000000,265.000000,0.000000,0.000000,0.000000,0.000000,0.337893,0.294540,0.000000,0.000000,0.000000,265.000000,265.000000,0.000000,0.000000,0.000000,0.000000:
// measure 0
0001
0000
1000
0000
,  // measure 1
0010
0000
1000
0000
,  // measure 2
0001
0000
0100
0000
,  // measure 3
1000
0000
0100
0000
,  // measure 4
0010
0000
0001
0000
,  // measure 5
0010
0000
0001
0000
,  // measure 6
1000
0000
0010
0000
,  // measure 7
0001
0000
0100
0000
,  // measure 8
0001
0000
0010
0000
,  // measure 9
0010
0000
0000
0100
,  // measure 10
1000
0000
0010
0000
,  // measure 11
0100
0000
0000
1000
,  // measure 12
0001
0000
0100
0000
,  // measure 13
0010
0000
0000
0001
,  // measure 14
0100
0000
1000
0000
,  // measure 15
0010
0000
0000
0100
,  // measure 16
1000
0000
0001
0000
,  // measure 17
0010
0000
0000
0001
,  // measure 18
1000
0000
0001
0000
,  // measure 19
0100
0000
0000
0001
,  // measure 20
0100
0000
1000
0000
,  // measure 21
0010
0000
0000
0100
,  // measure 22
1000
0000
0010
0000
,  // measure 23
0001
0000
0000
1000
,  // measure 24
0001
0000
0010
0000
,  // measure 25
1000
0000
0000
0001
,  // measure 26
0100
0000
0010
0000
,  // measure 27
0001
0000
0000
0100
,  // measure 28
0010
0000
1000
0000
,  // measure 29
0001
0000
0000
1000
,  // measure 30
0100
0000
0001
0000
,  // measure 31
0010
0000
1000
0000
,  // measure 32
0100
0000
1000
0000
,  // measure 33
0010
0000
0000
1000
,  // measure 34
0001
0000
0100
0000
,  // measure 35
0010
0000
0000
1000
,  // measure 36
0001
0000
1000
0000
,  // measure 37
0100
0000
0000
0001
,  // measure 38
0010
0000
0100
0000
,  // measure 39
0010
0000
0000
0100
,  // measure 40
0001
0000
0100
0000
,  // measure 41
0010
0000
0000
0010
,  // measure 42
1000
0000
0001
0000
,  // measure 43
0010
0000
0000
0010
,  // measure 44
1000
0000
0100
0000
,  // measure 45
1000
0000
0000
0001
,  // measure 46
0100
0000
0010
0000
,  // measure 47
1000
0000
0000
0100
,  // measure 48
0001
0000
0100
0000
,  // measure 49
1000
0000
0001
0000
,  // measure 50
1000
0000
0100
0000
,  // measure 51
0001
0000
0010
0000
,  // measure 52
0100
0000
1000
0000
,  // measure 53
0001
0000
0100
0000
,  // measure 54
0010
0000
1000
0000
,  // measure 55
0010
0000
0100
0000
,  // measure 56
0010
0000
0001
0000
,  // measure 57
1000
0000
0010
0000
,  // measure 58
0100
0000
0010
0000
,  // measure 59
1000
0000
0000
0001
,  // measure 60
0100
0000
0001
0000
,  // measure 61
1000
0000
0000
0100
,  // measure 62
0010
0000
1000
0000
,  // measure 63
0001
0000
0000
0010
,  // measure 64
0100
0000
1000
0000
,  // measure 65
0100
0000
1000
0000
,  // measure 66
0010
0000
0001
0000
,  // measure 67
0100
0000
1000
0000
,  // measure 68
0010
0000
0001
0000
,  // measure 69
0100
0000
0010
0000
,  // measure 70
1000
0000
0100
0000
,  // measure 71
0010
0000
0001
0000
,  // measure 72
1000
0000
0100
0000
,  // measure 73
0001
0000
0100
0000
,  // measure 74
1000
0000
0010
0000
,  // measure 75
1000
0000
0001
0000
,  // measure 76
0100
0000
0010
0000
,  // measure 77
1000
0000
0001
0000
,  // measure 78
0100
0000
0010
0000
,  // measure 79
0100
0000
0001
0000
,  // measure 80
1000
0000
0010
0000
,  // measure 81
1000
0000
0001
0000
,  // measure 82
0100
0000
1000
0000
,  // measure 83
0001
0000
0100
0000
,  // measure 84
0010
0000
1000
0000
,  // measure 85
0010
0000
0100
0000
,  // measure 86
0001
0000
1000
0000
,  // measure 87
0001
0000
0010
0000
,  // measure 88
0100
0000
1000
0000
,  // measure 89
0100
0000
0010
0000
,  // measure 90
0001
0000
0010
0000
,  // measure 91
1000
0000
0010
0000
,  // measure 92
0100
0000
0010
0000
,  // measure 93
0001
0000
0100
0000
,  // measure 94
1000
0000
0001
0000
,  // measure 95
0100
0000
0010
0000
,  // measure 96
0100
0000
1000
0000
,  // measure 97
0001
0000
1000
0000
,  // measure 98
0001
0000
0100
0000
,  // measure 99
1000
0000
0001
0000
,  // measure 100
0010
0000
0100
0000
,  // measure 101
0001
0000
0000
1000
,  // measure 102
0001
0000
0010
0000
,  // measure 103
0010
0000
0000
0100
,  // measure 104
1000
0000
0001
0000
,  // measure 105
0100
0000
0000
1000
,  // measure 106
0010
0000
0001
0000
,  // measure 107
1000
0000
0000
0001
,  // measure 108
0100
0000
0010
0000
,  // measure 109
1000
0000
0000
0001
,  // measure 110
0010
0000
0100
0000
,  // measure 111
1000
0000
0000
0001
,  // measure 112
0100
0000
0001
0000
,  // measure 113
1000
0000
0000
0010
,  // measure 114
0001
0000
0010
0000
,  // measure 115
0100
0000
0000
1000
,  // measure 116
0001
0000
1000
0000
,  // measure 117
0001
0000
0100
0000
,  // measure 118
0001
0000
0100
0000
,  // measure 119
0010
0000
1000
0000
,  // measure 120
0001
0000
0100
0000
,  // measure 121
1000
0000
0100
0000
,  // measure 122
0001
0000
0100
0000
,  // measure 123
0010
0000
1000
0000
,  // measure 124
0001
0000
0100
0000
,  // measure 125
1000
0000
0000
0100
,  // measure 126
1000
0000
0010
0000
,  // measure 127
0001
0000
0000
1000
,  // measure 128
0100
0000
0001
0000
,  // measure 129
0100
0000
0000
1000
,  // measure 130
0010
0000
0100
0000
,  // measure 131
0001
0000
0000
0001
,  // measure 132
1000
0000
0000
0000
;
