#TITLE:U.L.S.I;
#SUBTITLE:;
#ARTIST:Cranky;
#TITLETRANSLIT:;
#SUBTITLETRANSLIT:;
#ARTISTTRANSLIT:;
#GENRE:;
#CREDIT:;
#BANNER:U.L.S.I.png;
#BACKGROUND:U.L.S.I-BG.png;
#LYRICSPATH:;
#CDTITLE:;
#MUSIC:U.L.S.I.ogg;
#OFFSET:-0.451000;
#SAMPLESTART:24.451000;
#SAMPLELENGTH:12.000000;
#SELECTABLE:YES;
#BPMS:0.000000=160.000000
;
#STOPS:
;
#BGCHANGES:0.000=U.L.S.I.avi=1.000=0=0=1=====,
99999=-nosongbg-=1.000=0=0=0 // don't automatically add -songbackground-
;
#KEYSOUNDS:;
#ATTACKS:;

//---------------dance-single - ----------------
#NOTES:
     dance-single:
     :
     Hard:
     11:
     0.603884,0.828843,0.043669,0.000000,0.729277,484.000000,479.000000,5.000000,0.000000,18.000000,0.000000,0.603884,0.828843,0.043669,0.000000,0.729277,484.000000,479.000000,5.000000,0.000000,18.000000,0.000000:
// measure 0
0000
0000
0000
0000
,  // measure 1
0000
0000
0000
0000
,  // measure 2
0000
0000
0000
0000
,  // measure 3
0000
0000
0000
0000
,  // measure 4
0000
0000
0000
0000
,  // measure 5
0000
0000
0000
0000
,  // measure 6
0000
0000
0000
0000
,  // measure 7
0001
0000
0000
0000
,  // measure 8
1000
0000
0000
0000
0001
0000
0010
0100
0000
0000
0000
0000
1000
0000
0000
0000
,  // measure 9
0100
0000
0010
0000
0001
0000
1000
0001
,  // measure 10
0100
0000
0000
0000
0010
0000
1000
0001
0000
0000
0000
0000
0100
0000
0000
0000
,  // measure 11
0001
0000
1000
0000
0010
0000
0100
0010
,  // measure 12
0010
0000
0000
0000
0100
0000
0001
1000
0000
0000
0000
0000
0010
0000
0000
0000
,  // measure 13
1000
0000
0000
0000
0001
0000
0000
0000
0100
0000
0000
0010
0000
0000
1000
0000
,  // measure 14
0001
0010
0100
0010
,  // measure 15
1000
0000
0000
0000
0001
0000
0000
0000
0100
0000
0000
0000
0010
0000
0000
1000
,  // measure 16
0010
0000
0010
0100
0000
0000
0100
0000
0000
0001
0000
0001
1000
0000
0100
0000
,  // measure 17
1000
0000
1000
0001
0000
0000
0001
0000
0000
0010
0000
0010
0100
0000
0001
0000
,  // measure 18
0001
0000
0001
1000
0000
0000
1000
0000
0000
0100
0000
0100
0010
0000
1000
0000
,  // measure 19
0100
0000
0100
0010
0000
0000
0010
0000
0000
1000
0000
1000
0001
0000
0010
0000
,  // measure 20
1000
0000
1000
0001
0000
0000
0001
0000
0000
0010
0000
0010
0100
0000
0001
0000
,  // measure 21
0001
0000
0001
1000
0000
0000
1000
0000
0000
0100
0000
0100
0010
0000
1000
0000
,  // measure 22
1000
0000
1000
0001
0000
0000
0001
0000
0000
0010
0000
0010
0100
0000
0001
0000
,  // measure 23
1000
0000
0100
0000
0010
0000
0000
0001
0000
1000
0001
1000
0001
0000
0100
0010
,  // measure 24
0100
0000
0010
0000
0000
0001
1000
0000
1000
0000
0100
0000
0010
0000
0001
0000
,  // measure 25
1000
0000
0010
0000
0000
1000
0010
0000
0100
0000
0001
0000
1000
0000
0010
0000
,  // measure 26
0001
0000
1000
0000
0000
0010
0100
0000
0100
0000
0001
0000
1000
0000
0010
0000
,  // measure 27
0100
0000
1000
0000
0000
0100
1000
0000
0001
0000
0010
0000
0100
0000
1000
0000
,  // measure 28
1000
0000
0001
0000
0000
0100
0010
0000
0010
0000
1000
0000
0001
0000
0100
0000
,  // measure 29
0010
0000
0001
0000
0000
0010
0001
0000
1000
0000
0100
0000
0010
0000
0001
0000
,  // measure 30
0010
0000
0100
0000
0000
1000
0001
0000
0001
0000
0010
0000
0100
0000
1000
0000
,  // measure 31
0001
0100
0001
0000
0000
1000
0010
0000
0100
0000
0010
0000
0001
0000
0010
0000
,  // measure 32
0100
0100
0100
0100
,  // measure 33
0100
0100
0100
0100
,  // measure 34
0110
0010
0010
0010
,  // measure 35
0010
0010
0010
0010
,  // measure 36
1010
1000
1000
1000
,  // measure 37
1000
1000
1000
1000
,  // measure 38
1001
0001
0001
0001
,  // measure 39
0001
0000
0001
0000
0001
0000
0001
0010
,  // measure 40
1000
0000
0000
0001
0000
0000
0010
0000
0000
0100
0000
0010
0000
1000
0001
0000
,  // measure 41
0100
0000
0000
0010
0000
0000
0001
0000
1000
0000
0000
0000
1100
0000
0000
0000
,  // measure 42
0100
0000
0000
0010
0000
0000
1000
0000
0000
0001
0000
1000
0000
0100
0010
0000
,  // measure 43
0001
0000
0000
1000
0000
0000
0010
0000
0100
0000
0000
0000
0100
0001
0100
0000
,  // measure 44
0010
0000
0000
0100
0000
0000
0001
0000
0000
1000
0000
0001
0000
0010
0100
0000
,  // measure 45
1000
0000
0000
0001
0000
0000
0100
0000
0010
0000
0000
0000
1010
0000
0000
0000
,  // measure 46
0001
0000
0000
1000
0000
0000
0100
0000
0000
0010
0000
0100
0000
0001
1000
0000
,  // measure 47
0010
0000
0000
0100
0000
0000
1000
0000
0000
0001
0000
1000
0100
0010
0001
0000
,  // measure 48
1000
0100
1000
0000
0010
0100
0000
0001
0000
1000
0000
0010
0000
0100
0001
0000
,  // measure 49
1000
0010
1000
0000
0001
0100
0000
0010
0000
0100
0000
0001
0010
0100
1000
0000
,  // measure 50
0100
0001
0100
0000
1000
0001
0000
0010
0000
0100
0000
1000
0000
0001
0010
0000
,  // measure 51
0100
1000
0100
0000
0010
0001
0000
1000
0100
0001
0000
0010
1000
0001
0100
0000
,  // measure 52
0010
1000
0010
0000
0001
1000
0000
0100
0000
0010
0000
0001
0000
1000
0100
0000
,  // measure 53
0010
0001
0010
0000
0100
1000
0000
0001
0000
1000
0000
0100
0001
1000
0010
0000
,  // measure 54
0001
0010
0001
0000
0100
0010
0000
1000
0000
0001
0000
0100
0000
0010
1000
0000
,  // measure 55
0001
0100
0001
0000
1000
0010
0000
0100
0000
0010
0000
1000
0100
0010
0001
0000
,  // measure 56
1000
0000
0000
0000
M00M
0MM0
M00M
0MM0
M00M
0MM0
M00M
0MM0
M00M
0000
0000
0000
,  // measure 57
0001
0000
0000
0000
1000
0000
0100
0010
0000
0000
0000
0000
0001
0000
0000
0000
,  // measure 58
0010
0000
0100
0000
1000
0000
0001
1000
,  // measure 59
0010
0000
0000
0000
0100
0000
0001
1000
0000
0000
0000
0000
0010
0000
0000
0000
,  // measure 60
1000
0000
0001
0000
0100
0000
0010
0100
,  // measure 61
0100
0000
0000
0000
0010
0000
1000
0001
0000
0000
0000
0000
0100
0000
0000
0000
,  // measure 62
0001
0000
0000
0000
1000
0000
0000
0000
0010
0000
0000
0100
0000
0000
0001
0000
,  // measure 63
1000
0100
0010
0100
,  // measure 64
0001
0000
0000
0000
1000
0000
0000
1000
0010
0000
0000
0000
0100
0000
0000
0000
,  // measure 65
1000
0000
1000
0010
0000
0100
0001
0100
0001
0000
1000
0100
0000
0010
0001
0010
,  // measure 66
0001
0000
0001
0100
0000
0010
1000
0010
1000
0000
0001
0010
0000
0100
1000
0100
,  // measure 67
0010
0000
0100
1000
0000
0001
0010
0001
0010
0000
0100
0001
0000
1000
0010
1000
,  // measure 68
0010
0000
0010
0001
0000
1000
0100
1000
0100
0000
0010
1000
0000
0001
0100
0001
,  // measure 69
0010
0000
0010
0001
0000
1000
0100
1000
0100
0000
0010
1000
0000
0001
0100
0001
,  // measure 70
0100
0000
0100
1000
0000
0001
0010
0001
0010
0000
0100
0001
0000
1000
0010
1000
,  // measure 71
0001
0000
0001
0100
0000
0010
1000
0010
1000
0000
0001
0010
0000
0100
1000
0100
,  // measure 72
1000
0000
1000
0001
1000
0001
1000
0001
1000
0000
0100
0010
0000
0100
0010
0000
,  // measure 73
0100
0000
0000
0000
;

//---------------dance-single - ----------------
#NOTES:
     dance-single:
     :
     Medium:
     6:
     0.326896,0.350664,0.026202,0.000000,0.000000,262.000000,259.000000,3.000000,0.000000,0.000000,0.000000,0.326896,0.350664,0.026202,0.000000,0.000000,262.000000,259.000000,3.000000,0.000000,0.000000,0.000000:
0000
0000
0000
0000
,
0000
0000
0000
0000
,
0000
0000
0000
0000
,
0000
0000
0000
0000
,
0000
0000
0000
0000
,
0000
0000
0000
0000
,
0000
0000
0000
0000
,
0100
0000
0000
0000
,
1000
0100
0001
1000
,
0001
0010
0100
1000
,
0001
0010
1000
0001
,
0100
0000
1000
0000
0010
0000
0001
0100
,
0010
0001
1000
0010
,
1000
0100
0001
0010
,
0100
0010
0001
0010
,
1000
0100
0001
0010
,
0010
0001
0100
1000
,
1000
0010
0001
0100
,
0100
0010
0001
1000
,
0001
0010
0100
0100
,
1000
0010
0100
0001
,
0100
0010
0001
0010
,
1000
0100
0010
0001
,
1000
0010
0100
0100
,
0001
0100
1000
0010
,
1000
0100
0001
1000
,
0100
0010
0001
1000
,
0001
0010
0100
0001
,
1000
0100
0010
0100
,
0010
0100
1000
0010
,
0010
1000
0100
0001
,
0100
1000
0001
0100
,
0001
0001
0001
0001
,
0001
0001
0001
0001
,
0010
0010
0010
0010
,
0010
0010
0010
0010
,
1000
1000
1000
1000
,
1000
1000
1000
1000
,
0100
0100
0100
0100
,
0100
0100
0100
0100
,
1000
0100
0001
0010
,
0001
0100
1000
1001
,
0001
0010
0100
1000
,
0100
1000
0001
0101
,
0010
0001
0010
0100
,
1000
0100
0010
1010
,
0100
1000
0001
0100
,
0010
0000
0000
0000
,
1000
0010
0100
0010
,
1000
0100
0001
0010
,
0001
1000
0100
0010
,
0001
0010
0001
1000
,
0010
0100
0001
1000
,
0010
0001
0010
0100
,
0100
0001
1000
0010
,
0100
1000
0100
0001
,
1000
0000
0000
0000
,
0100
1000
0010
0100
,
0010
0000
0001
0000
1000
0000
0100
1000
,
0010
0001
0100
0010
,
1000
0000
0100
0000
0001
0000
0010
1000
,
0001
0010
0100
0001
,
0100
1000
0010
0001
,
1000
0001
0010
0001
,
0100
1000
0010
0001
,
1000
0010
0100
1000
,
0100
0001
1000
0100
,
0010
0001
0010
1000
,
0010
0100
0001
1000
,
0010
0100
0001
0010
,
0001
1000
0010
0100
,
0100
0001
1000
0010
,
1000
0100
1000
0010
,
0001
0000
0000
0000
;

//---------------dance-single - ----------------
#NOTES:
     dance-single:
     :
     Easy:
     2:
     0.158457,0.191271,0.000000,0.000000,0.000000,127.000000,127.000000,0.000000,0.000000,0.000000,0.000000,0.158457,0.191271,0.000000,0.000000,0.000000,127.000000,127.000000,0.000000,0.000000,0.000000,0.000000:
0000
0000
0000
0000
,
0000
0000
0000
0000
,
0000
0000
0000
0000
,
0000
0000
0000
0000
,
0000
0000
0000
0000
,
0000
0000
0000
0000
,
0000
0000
0000
0000
,
0100
0000
0000
0000
,
1000
0100
0001
0000
,
0000
0000
0000
0000
,
0001
0010
1000
0000
,
0000
0000
0000
0000
,
0010
0001
1000
0000
,
0000
0000
0001
0010
,
0100
0000
0001
0000
,
1000
0000
0001
0000
,
0010
0000
0100
0000
,
1000
0000
0001
0000
,
0100
0000
0001
0000
,
0001
0000
0100
0000
,
1000
0000
0100
0000
,
0100
0000
0001
0000
,
1000
0000
0010
0000
,
1000
0000
0100
0000
,
0001
0000
1000
0000
,
1000
0000
0001
0000
,
0100
0000
0001
0000
,
0001
0000
0100
0000
,
1000
0000
0010
0000
,
0010
0000
1000
0000
,
0010
0000
0100
0000
,
0100
0000
0001
0000
,
0001
0000
0001
0000
,
0001
0000
0001
0000
,
0010
0000
0010
0000
,
0010
0000
0010
0000
,
1000
0000
1000
0000
,
1000
0000
1000
0000
,
0100
0000
0100
0000
,
0100
0000
0100
0000
,
1000
0000
0001
0000
,
0001
0000
1000
0000
,
0001
0000
0100
0000
,
0100
0000
0001
0000
,
0010
0000
0010
0000
,
1000
0000
0010
0000
,
0100
0000
0001
0000
,
0010
0000
0000
0000
,
1000
0000
0100
0000
,
1000
0000
0001
0000
,
0001
0000
0100
0000
,
0001
0000
0001
0000
,
0010
0000
0001
0000
,
0010
0000
0010
0000
,
0100
0000
1000
0000
,
0100
0000
0100
0000
,
1000
0000
0000
0000
,
0100
1000
0010
0000
,
0000
0000
0000
0000
,
0010
0001
0100
0000
,
0000
0000
0000
0000
,
0001
0010
0100
0000
,
0000
0000
0010
0001
,
1000
0000
0000
0000
,
0100
0000
0010
0000
,
1000
0000
0100
0000
,
0100
0000
1000
0000
,
0010
0000
0010
0000
,
0010
0000
0001
0000
,
0010
0000
0001
0000
,
0001
0000
0010
0000
,
0100
0000
1000
0000
,
0001
0000
1000
0000
,
0001
0000
0000
0000
;
