#TITLE:Turndup;
#SUBTITLE:;
#ARTIST:Iriss;
#TITLETRANSLIT:;
#SUBTITLETRANSLIT:;
#ARTISTTRANSLIT:;
#GENRE:;
#CREDIT:;
#BANNER:Turndup.png;
#BACKGROUND:Turndup-BG.png;
#LYRICSPATH:;
#CDTITLE:;
#MUSIC:Turndup.ogg;
#OFFSET:-0.043000;
#SAMPLESTART:26.365999;
#SAMPLELENGTH:24.000000;
#SELECTABLE:YES;
#BPMS:0.000000=155.000000
;
#STOPS:
;
#BGCHANGES:0.000=Turndup.avi=1.000=1=0=1===CrossFade==,
99999=-nosongbg-=1.000=0=0=0 // don't automatically add -songbackground-
;
#KEYSOUNDS:;
#ATTACKS:;

//---------------dance-single - ----------------
#NOTES:
     dance-single:
     :
     Hard:
     11:
     0.772286,0.887008,0.368769,0.478615,0.592385,689.000000,642.000000,47.000000,61.000000,0.000000,0.000000,0.772286,0.887008,0.368769,0.478615,0.592385,689.000000,642.000000,47.000000,61.000000,0.000000,0.000000:
0000
0000
0000
0000
,
1000
0000
0100
1000
0100
0000
1000
0100
1000
0000
0100
1000
0100
0000
0000
0000
,
0010
0000
1000
0010
1000
0000
0010
1000
0010
0000
1000
0010
1000
0000
0000
0000
,
0100
0000
0001
0100
0001
0000
0100
0001
0100
0000
0001
0100
0001
0000
0000
0000
,
0001
0000
0010
0001
0010
0000
0001
0010
0001
0000
0010
0001
0010
0000
0000
0000
,
1000
0000
0100
1000
0100
0000
0010
0100
0010
0000
0001
0010
0001
0000
0000
0000
,
0010
0000
1000
0010
1000
0000
0001
1000
0001
0000
0100
0001
0100
0000
0000
0000
,
0100
0000
0001
0100
0001
0000
1000
0001
1000
0000
0010
1000
0010
0000
0000
0000
,
0001
0000
0010
0001
0010
0000
0100
0010
0100
0000
1000
0000
1002
0000
0000
0000
,
1003
0000
0100
0000
0010
0000
0100
0000
1000
0000
0001
0010
0100
0000
0010
0000
,
0001
0000
0010
0000
0100
0000
0010
0000
0001
0000
1000
0100
0010
0000
0100
0000
,
0010
0000
1000
0000
0001
0000
1000
0000
0010
0000
0100
0001
1000
0000
0001
0000
,
1000
0100
0010
0100
0010
0001
2001
0000
,
3001
0000
0010
0000
0100
0000
0000
0000
0010
0000
0100
1000
0100
0000
0000
0000
,
0001
0100
0010
1000
0001
0100
0001
0000
,
1000
0000
0100
1000
0100
0000
1000
0000
0001
0010
0100
0010
0002
0000
0000
0000
,
1003
0000
0000
0100
0000
0000
0010
0000
0001
0000
2000
0000
0000
0000
0000
0000
,
3001
0000
0100
0000
0010
0000
0100
0000
0001
0000
0000
1000
0000
0000
0010
0000
,
0100
0000
0001
0000
1000
0000
0010
0000
0100
0000
0000
0001
1000
0000
0010
0000
,
0100
0000
1000
0000
0010
0000
0001
0000
0100
0000
0000
0001
0010
0100
1000
0100
,
0010
1000
0001
0100
0010
0000
1000
0000
,
0001
0000
1000
0100
1000
0000
0010
0000
0100
0000
0000
0001
1000
0000
0010
0000
,
0100
0001
0010
0001
1000
0100
1000
0010
,
0100
0000
0010
0000
0001
0000
1000
0000
0100
0000
0000
0000
0001
0010
0100
0010
,
0001
0000
0100
1000
0000
0001
0010
0100
1000
0000
0001
0000
0010
0000
0001
0000
,
0100
0000
0000
0000
0010
0000
0000
0000
1000
0000
0000
0001
1000
0000
0010
0000
,
0100
0000
0001
0000
1000
0000
0010
0000
0001
0000
0000
1000
0100
0000
0010
0000
,
0001
0000
1000
0100
1000
0000
0001
0000
0010
0000
0000
0001
0010
0000
0100
0000
,
1000
0000
0010
0001
0000
0100
0010
1000
0001
0100
0001
1000
,
0010
0000
0000
0000
0000
0000
0100
0000
0010
0000
0000
0000
1000
0000
0000
0000
0000
0000
0100
0000
0000
0000
0000
0000
0001
0000
0000
0000
0000
0000
0000
0000
0000
0001
0000
0000
0100
0000
0000
0000
0000
0000
0010
0000
0000
0000
0000
0000
,
1000
0100
0010
0100
1000
0001
0010
0100
,
1000
0000
0100
0000
0010
0000
0001
0000
0010
0100
1000
0100
0010
0001
0010
0100
,
2000
0000
0000
0000
0000
0000
0000
0000
0000
0000
0000
0000
0000
0000
0000
0000
0000
0000
0000
0000
0000
0000
0000
3000
0001
0000
0000
0000
0000
0000
0000
0000
,
0100
1000
0010
0100
0001
0010
0001
1000
,
0010
0100
0010
0001
1000
0100
1000
0001
,
0010
0001
0100
0010
1000
0001
0010
0100
,
1000
0100
0010
0001
1000
0100
1000
0010
,
0100
0010
0001
0100
0001
1000
0010
1000
,
0100
0001
0100
0010
1000
0100
0010
0100
,
1000
0001
0010
0100
0010
0001
1000
0001
,
1000
0010
0100
0001
,
2020
0000
3030
0202
0303
0000
0001
2002
,
0000
3003
1000
0000
2002
0000
0000
0000
3003
0000
0000
0000
0010
0000
0000
0000
,
0220
0000
0330
0110
0000
0000
1000
2020
,
0000
3030
1010
0000
0202
0000
0000
0000
0000
0000
0000
0303
0101
0000
0000
0000
,
0220
0000
0330
0110
0000
0000
0000
2200
,
0000
3300
1100
0000
0022
0000
0000
0000
0033
0000
0000
0000
0000
0000
0000
0000
,
0202
0000
0303
0101
0000
0000
0000
0022
,
0000
0033
0011
0000
2200
0000
0000
0000
3300
1000
0100
0010
0001
0010
0100
1000
,
0100
0010
0001
1000
0100
1000
0001
0010
,
0001
0000
0100
0000
0010
0000
1000
0000
0100
0000
1000
0000
0002
0000
0000
0003
,
1001
0100
1000
0010
0100
0001
0010
0001
,
1000
0000
0010
0000
0100
0000
0001
0000
0010
0000
0100
0000
2000
0000
0000
3000
,
1001
0010
0100
1000
0001
0100
0010
1000
,
0001
0010
0001
1000
0100
1000
0010
0100
,
0010
0100
0010
0100
0010
0100
0010
0100
0001
1000
0001
1000
0001
1000
0001
1000
,
0001
0000
0100
0000
0010
0000
1000
0001
0000
0000
0100
0000
1000
0000
0000
0000
,
0010
0000
0000
0010
0100
0010
0100
0000
0001
0010
0100
1000
0100
0010
0001
0010
,
0100
0000
0000
0100
0010
0100
0010
0000
1000
0100
0010
0001
0010
0100
1000
0100
,
0010
0000
0000
0010
0100
0010
0100
0000
0001
0010
0100
1000
0100
0010
0001
0010
,
1000
0000
0000
0100
1000
0100
1000
0000
0100
0000
0010
0000
0001
0000
0010
0000
,
0100
0000
0000
0001
0100
0001
0100
0000
0010
0100
1000
0100
0010
0001
0010
0100
,
1000
0000
0000
0010
1000
0010
1000
0000
0100
0010
0001
0010
0100
1000
0100
0010
,
0001
0100
1020
0000
1030
0001
0102
0000
,
0103
0000
0000
0010
0000
1000
0010
0000
0100
0000
0010
0000
0001
0000
0000
0000
,
1000
0000
0000
0010
1000
0010
1000
0000
0001
0010
0001
0010
0001
0010
0001
0010
,
0001
0000
0000
0100
0001
0100
0001
0000
1000
0100
1000
0100
1000
0100
1000
0100
,
0010
0000
0000
0001
0010
0001
0010
0000
0100
0001
0100
0001
0100
0001
0100
0001
,
0100
0000
0000
0010
1000
0010
1000
0000
0100
0000
0010
0000
0100
0000
0001
0000
,
0010
0000
0000
1000
0001
1000
0001
0000
1000
0010
1000
0010
1000
0010
1000
0010
,
0100
0000
0000
0001
1000
0001
1000
0000
0001
0100
0001
0100
0001
0100
0001
0100
,
0001
0000
0000
1000
0000
0010
0100
0000
1000
0100
0010
0100
1000
0100
0010
0100
,
1000
0000
0000
0001
0000
0100
0010
0000
0001
0010
0100
0010
0001
0010
0100
0010
,
2002
0000
3003
2020
3030
0000
0001
0220
,
0000
0330
0110
0000
0022
0000
0000
0000
0033
0000
0000
0000
1000
0000
0000
0000
,
2200
0000
3300
1100
0000
0000
0001
0202
,
0000
0303
0101
0000
2020
0000
0000
0000
0000
0000
0000
3030
1010
0000
0000
0000
,
0220
0000
0330
0110
0000
0000
0000
2020
,
0000
3030
1010
0000
0202
0000
0000
0000
0303
0000
0000
0000
0220
0000
0000
0000
,
0330
0110
0000
0000
0000
0000
0000
2002
,
0000
3003
1001
2002
0000
0000
0000
0000
0000
0000
0000
0000
3003
0000
0000
0000
;

//---------------dance-single - ----------------
#NOTES:
     dance-single:
     :
     Medium:
     7:
     0.434901,0.506862,0.000000,0.274615,0.003923,388.000000,388.000000,0.000000,35.000000,0.000000,0.000000,0.434901,0.506862,0.000000,0.274615,0.003923,388.000000,388.000000,0.000000,35.000000,0.000000,0.000000:
0000
0000
0000
0000
,
0001
1000
0010
0100
0001
0100
0010
0000
,
0100
1000
0001
0010
0100
0010
0001
0000
,
0010
0100
1000
0001
0010
0100
1000
0000
,
1000
0010
0100
1000
0100
0010
0100
0000
,
0001
0100
0010
0001
0100
0010
1000
0000
,
0100
0010
0001
0100
1000
0100
0010
0000
,
0010
0001
1000
0100
0001
0010
0100
0000
,
1000
0010
0100
1000
0010
0001
2000
0000
,
3001
0000
0100
0000
0001
1000
0010
0000
,
1000
0000
0010
0000
1000
0001
0100
0000
,
0100
0000
1000
0000
0100
0010
0001
0000
,
0001
0100
0100
0002
,
1003
0000
0010
0000
0100
0010
0010
0000
,
1000
0100
1000
1000
,
0001
0010
0010
0000
1000
0010
2000
0000
,
3001
0000
0010
0000
1000
0002
0000
0000
,
1003
0100
1000
0100
,
0010
0001
0010
0001
,
0010
0000
0100
0000
0010
0000
0100
0001
,
0100
1000
0100
0001
,
1000
0001
0001
0000
0010
0000
0001
0000
,
0010
0100
0001
0001
,
0010
0000
1000
0000
0010
0000
1000
0010
,
1000
0010
0000
0100
0001
0000
0100
0000
,
0010
0100
0001
0001
,
0010
0001
1000
0010
,
1000
0001
0001
0000
0100
0000
0100
0000
,
0001
1000
0100
0010
,
0100
0010
0001
0000
1000
0000
0010
0000
,
0001
0100
0001
0100
,
0001
0000
0100
0000
0100
0001
0100
0100
,
0002
0000
0000
0000
0000
0000
0000
0000
0000
0000
0000
0000
0000
0000
0000
0000
0000
0000
0000
0000
0000
0000
0000
0003
1000
0000
0000
0000
0000
0000
0000
0000
,
0010
0100
1000
1000
,
0100
0100
0001
0001
,
0100
0010
0001
0100
,
0001
0100
0001
0001
,
0010
1000
1000
0100
,
0010
0010
0001
0100
,
0001
0100
0100
0001
,
0001
0100
0010
1000
,
0002
0000
0003
2000
3000
0000
1000
0002
,
0000
0003
0001
0000
2000
0000
0000
0000
3000
0000
0000
0000
0100
0000
0000
0000
,
0020
0000
0030
0100
0000
0000
0001
0200
,
0000
0300
0001
0000
2000
0000
0000
0000
0000
0000
0000
3000
0010
0000
0000
0000
,
0200
0000
0300
0010
0000
0000
0000
0002
,
0000
0003
0010
0000
0200
0000
0000
0000
0300
0000
0000
0000
0000
0000
0000
0000
,
2000
0000
3000
0010
0000
0000
0000
2000
,
0000
3000
0100
0000
0020
0000
0000
0000
0030
0000
0010
0000
1000
0000
0010
0000
,
0010
1000
0010
1000
,
1000
0000
0000
0000
0100
0000
0000
0000
0010
0000
0000
0000
2000
0000
0000
3000
,
0001
0001
0010
0100
,
0001
0000
0000
0000
0010
0000
0000
0000
0100
0000
0000
0000
0002
0000
0000
0003
,
1000
0010
1000
0100
,
1000
1000
0010
0100
,
0100
0010
0100
0010
1000
0001
1000
0001
,
1000
0100
0010
0001
,
0100
0000
0010
0100
1000
0001
0010
1000
,
0010
0000
0100
1000
0001
0010
0100
0001
,
0100
0000
0010
0100
1000
0100
0010
1000
,
0001
0000
0001
0100
0010
0100
1000
0100
,
0010
0000
0010
0001
0100
0001
0100
1000
,
0001
0000
0001
0100
0010
1000
0010
0001
,
1000
0010
0200
0000
0301
0010
2000
0000
,
3010
0100
0010
1000
,
0001
0000
0001
0100
1000
0010
1000
0010
,
1000
0000
1000
0100
0001
0010
0001
0010
,
0100
0000
0100
0001
0010
1000
0010
1000
,
0010
0000
0001
1000
0010
0100
0010
1000
,
0100
0000
1000
0100
0001
0010
0001
0100
,
0010
0000
0001
0100
1000
0010
1000
0010
,
1000
0000
0010
0000
0001
0100
0001
0100
,
0001
0000
0100
0000
1000
0010
1000
0010
,
0002
0000
0003
0200
0300
0000
1000
0020
,
0000
0030
0100
0000
2000
0000
0000
0000
3000
0000
0000
0000
0001
0000
0000
0000
,
0020
0000
0030
0001
0000
0000
1000
0020
,
0000
0030
1000
0000
0002
0000
0000
0000
0000
0000
0000
0003
0100
0000
0000
0000
,
0020
0000
0030
0100
0000
0000
0000
0002
,
0000
0003
0100
0000
0020
0000
0000
0000
0030
0000
0000
0000
0200
0000
0000
0000
,
0300
0010
0000
0000
0000
0000
0000
0002
,
0000
0003
0000
2000
0000
0000
0000
0000
0000
0000
0000
0000
3000
0000
0000
0000
;

//---------------dance-single - ----------------
#NOTES:
     dance-single:
     :
     Easy:
     4:
     0.227538,0.285110,0.000000,0.204000,0.000000,203.000000,203.000000,0.000000,26.000000,0.000000,0.000000,0.227538,0.285110,0.000000,0.204000,0.000000,203.000000,203.000000,0.000000,26.000000,0.000000,0.000000:
// measure 0
0000
0000
0000
0000
,  // measure 1
1000
0100
1000
0100
,  // measure 2
0010
1000
0010
1000
,  // measure 3
0100
0001
0100
0001
,  // measure 4
0001
0010
0010
0010
,  // measure 5
1000
0100
0010
0001
,  // measure 6
0010
1000
0001
0100
,  // measure 7
0100
0001
1000
0010
,  // measure 8
0001
0010
0100
0002
,  // measure 9
0003
0010
1000
0100
,  // measure 10
0000
0100
0001
0010
,  // measure 11
0010
0000
0010
1000
,  // measure 12
0000
0010
0000
2000
,  // measure 13
3000
0100
0010
0100
,  // measure 14
0001
0000
0001
0000
,  // measure 15
1000
0100
0001
0002
,  // measure 16
0003
0000
0100
0000
0000
2000
0000
0000
,  // measure 17
3000
0010
0000
0010
,  // measure 18
0000
1000
0000
1000
,  // measure 19
0000
0010
0000
0010
,  // measure 20
1000
0000
0010
0000
,  // measure 21
0001
1000
0000
1000
,  // measure 22
0000
0010
0000
1000
,  // measure 23
0000
0001
0000
0001
,  // measure 24
0001
0000
1000
0010
,  // measure 25
0000
0010
0000
1000
,  // measure 26
0000
1000
0000
0100
,  // measure 27
0001
1000
0010
0000
,  // measure 28
1000
0000
0010
0000
,  // measure 29
0010
1000
0001
0000
,  // measure 30
1000
0000
1000
0000
,  // measure 31
1000
0000
0010
0010
,  // measure 32
2000
0000
0000
0000
0000
0000
0000
0000
0000
0000
0000
0000
0000
0000
0000
0000
0000
0000
0000
0000
0000
0000
0000
3000
0000
0000
0000
0000
0000
0000
0000
0000
,  // measure 33
0100
0000
0001
0000
,  // measure 34
0010
0000
1000
0000
,  // measure 35
0010
0000
1000
0000
,  // measure 36
1000
0000
1000
0000
,  // measure 37
0100
0000
0001
0000
,  // measure 38
0100
0000
1000
0000
,  // measure 39
1000
0000
0010
0000
,  // measure 40
1000
0000
0100
0000
,  // measure 41
2000
0000
0000
0000
3000
0000
0000
0002
,  // measure 42
0000
0000
0003
0000
,  // measure 43
0200
0000
0300
0000
0000
0000
0000
0020
,  // measure 44
0000
0000
0000
0000
0000
0000
0000
0000
0000
0000
0000
0030
0000
0000
0000
0000
,  // measure 45
0020
0000
0030
0000
0000
0000
0000
0200
,  // measure 46
0000
0000
0300
0000
,  // measure 47
0002
0000
0003
0000
0000
0000
0000
2000
,  // measure 48
0000
0000
3000
0001
,  // measure 49
0100
0000
0100
0000
,  // measure 50
0001
0000
0000
0000
0000
0000
0000
0000
0100
0000
0000
0000
0002
0000
0000
0003
,  // measure 51
0000
1000
0000
0010
,  // measure 52
0000
0000
0000
0000
0100
0000
0000
0000
0000
0000
0000
0000
2000
0000
0000
3000
,  // measure 53
0000
0100
0000
0010
,  // measure 54
0000
0001
0000
0010
,  // measure 55
0010
0010
0001
0001
,  // measure 56
0001
0000
0100
0000
,  // measure 57
0010
0100
0001
0100
,  // measure 58
0100
0010
1000
0010
,  // measure 59
0010
0100
0001
0100
,  // measure 60
1000
1000
0100
0001
,  // measure 61
0100
0100
0010
0010
,  // measure 62
1000
1000
0100
0100
,  // measure 63
0001
0020
0030
0002
,  // measure 64
0003
0010
0000
0001
,  // measure 65
0000
1000
0001
0001
,  // measure 66
0001
0001
1000
1000
,  // measure 67
0010
0010
0100
0100
,  // measure 68
0100
1000
0100
0100
,  // measure 69
0010
0001
1000
1000
,  // measure 70
0100
1000
0001
0001
,  // measure 71
0001
0100
1000
1000
,  // measure 72
1000
0010
0001
0001
,  // measure 73
2000
0000
0000
0000
3000
0000
0000
0002
,  // measure 74
0000
0000
0003
0000
,  // measure 75
0200
0000
0300
0000
0000
0000
0000
2000
,  // measure 76
0000
0000
0000
0000
0000
0000
0000
0000
0000
0000
0000
3000
0000
0000
0000
0000
,  // measure 77
0200
0000
0300
0000
0000
0000
0000
2000
,  // measure 78
0000
3000
0000
0000
0200
0000
0000
0000
0300
0000
0000
0000
0020
0000
0000
0000
,  // measure 79
0030
0000
0000
0000
0000
0000
0000
0002
,  // measure 80
0000
0000
0000
0003
;
