#TITLE:Turndown;
#SUBTITLE:;
#ARTIST:Ras;
#TITLETRANSLIT:;
#SUBTITLETRANSLIT:;
#ARTISTTRANSLIT:;
#GENRE:;
#CREDIT:;
#BANNER:Turndown.png;
#BACKGROUND:Turndown-BG.png;
#LYRICSPATH:;
#CDTITLE:;
#MUSIC:Turndown.ogg;
#OFFSET:-0.491000;
#SAMPLESTART:78.858002;
#SAMPLELENGTH:24.000000;
#SELECTABLE:YES;
#BPMS:0.000000=147.000000
;
#STOPS:
;
#BGCHANGES:0.000=Turndown.avi=1.000=1=0=1===CrossFade==,
99999=-nosongbg-=1.000=0=0=0 // don't automatically add -songbackground-
;
#KEYSOUNDS:;
#ATTACKS:;

//---------------dance-single - ----------------
#NOTES:
     dance-single:
     :
     Hard:
     12:
     0.748839,0.855316,0.008679,0.000000,0.867860,604.000000,603.000000,1.000000,0.000000,0.000000,0.000000,0.748839,0.855316,0.008679,0.000000,0.867860,604.000000,603.000000,1.000000,0.000000,0.000000,0.000000:
0000
0000
0000
0000
,
0000
0000
0000
0000
,
0000
0000
0000
0000
,
0000
0000
0000
0000
,
1000
0000
0000
0100
1000
0000
0100
0000
1000
0000
0100
1000
0100
0000
1000
0000
,
0010
0000
0000
1000
0010
0000
1000
0000
0010
0000
1000
0010
1000
0000
0010
0000
,
0001
0000
0000
0010
0001
0000
0010
0000
0001
0000
0010
0001
0010
0000
0001
0000
,
0100
0000
0100
0001
0000
0100
0000
0001
0000
0100
0001
0100
0001
0000
0000
0000
,
1000
0000
0000
0010
1000
0010
0000
0100
1000
0100
0000
1000
0100
1000
0000
0000
,
0100
0000
0000
1000
0100
1000
0000
0001
0100
0001
0000
0100
0001
0100
0000
0000
,
0010
0000
0000
0001
0010
0001
0000
1000
0010
1000
0000
0010
1000
0010
0000
0000
,
0001
0000
0000
0100
0001
0100
0000
0010
0001
0010
0000
0001
0010
0001
0000
0000
,
1000
0000
0100
1000
0100
1000
0100
0000
1000
0100
1000
0000
0000
0100
1000
0000
,
0001
0000
0010
0001
0010
0001
0010
0000
0001
0010
0001
0000
0000
0010
0001
0000
,
0100
0000
0010
0100
0010
0100
0010
0000
0100
0010
0100
0000
0000
0010
0100
0000
,
1000
0000
0001
1000
0001
1000
0001
1000
0001
0000
1000
0001
0000
0001
1000
0000
,
1001
0000
0100
0000
1000
0000
0100
1000
0100
0000
1000
0000
0100
0000
1000
0000
,
0010
0000
1000
0000
0010
0000
1000
0010
1000
0000
0010
0000
1000
0000
0010
0000
,
0100
0000
0001
0000
0100
0000
0001
0100
0001
0000
0100
0000
0001
0000
0100
0000
,
1000
0000
0010
0000
0001
0000
0010
0001
0010
0000
0001
0000
0010
0000
0001
0000
,
1000
0000
1000
0100
0010
0100
1000
0100
0010
0100
1000
0100
0010
0100
1000
0000
,
0001
0000
0001
0010
0100
0010
0001
0010
0100
0010
0001
0010
0100
0010
0001
0000
,
1000
0000
0001
0010
0100
1000
0100
0010
0001
0010
0100
1000
0100
0010
0001
0000
,
1000
0000
0000
0000
0000
0000
0000
0000
0000
0000
1000
0000
0100
1000
0100
1000
,
0001
0010
0100
1000
0100
0010
0001
0100
,
0010
1000
0100
1000
0001
0010
0001
1000
,
0010
0100
0001
1000
0100
1000
0001
0010
,
0001
0100
0010
0100
1000
0001
0010
0100
,
0010
0000
0001
0000
1000
0000
0010
0100
1000
0100
0010
0000
0100
0000
0001
0000
,
0010
0000
0100
0000
1000
0000
0001
0010
0100
0010
0001
0000
0100
0000
0010
0000
,
1000
0000
0010
0000
0001
0000
1000
0010
0001
0010
1000
0000
0100
0000
0010
0000
,
0001
0100
0100
0010
0010
1000
1000
0001
,
0001
0000
0000
1000
0100
0010
0100
1000
0000
0000
0001
0000
0001
1000
0000
0000
,
1000
0000
0000
0010
0000
0000
0100
0000
0000
0010
0000
0000
1000
0000
0001
0000
,
1000
0000
0000
0001
0010
0100
0010
0001
0000
0000
1000
0000
1000
0001
0000
0000
,
0001
0000
0000
0100
0000
0000
0010
0000
0000
0100
0000
0000
0001
0000
1000
0000
,
0100
0000
0000
0010
1000
0001
1000
0010
0000
0000
0100
0000
0100
0010
0000
0000
,
0010
0000
0000
0001
0000
0000
1000
0000
0000
0001
0000
0000
0010
0000
0100
0000
,
1000
0000
0000
0010
0000
0000
0100
0000
0000
0000
0001
0000
0000
1000
0010
1000
,
0010
0000
0000
0100
0000
0000
0001
0000
0000
1000
0000
0000
0010
0000
0100
0000
,
0001
0000
0000
1000
0100
0010
0100
1000
0000
0000
0001
0000
0001
1000
0000
0000
,
1000
0000
0000
0010
0000
0000
0100
0000
0000
0010
0000
0000
1000
0000
0001
0000
,
0010
0000
0000
0100
0001
1000
0001
0100
0000
0000
0010
0000
0010
0100
0000
0000
,
0100
0000
0000
1000
0000
0000
0001
0000
0000
1000
0000
0000
0100
0000
0010
0000
,
1000
0000
0000
0001
0010
0100
0010
0001
0000
0000
1000
0000
1000
0001
0000
0000
,
0001
0000
0000
0100
0000
0000
0010
0000
0000
0100
0000
0000
0001
0000
1000
0000
,
0010
0000
0000
0100
0000
0000
0010
0000
0000
0000
1000
0000
0000
0001
0100
0001
,
0100
0000
0000
0010
0000
0000
1000
0000
0001
0000
0100
0000
0010
0000
1000
0000
,
0001
0000
0100
1000
0100
1000
0000
0001
0010
0001
0000
0100
0010
0000
0100
0000
,
1000
0000
0001
0010
0100
0010
0001
0000
1000
0100
0010
0100
1000
0000
0010
0000
,
0100
0000
0001
0000
1000
0000
0001
0010
0100
1000
0100
0010
0001
0000
0100
0000
,
0010
0000
1000
0100
1000
0000
0001
0010
0001
0000
1000
0000
0100
0000
0010
0000
,
0001
0000
1000
0100
1000
0100
0000
0001
0010
0001
0000
0100
0010
0000
0000
0000
,
1000
0000
0001
0100
1000
0100
0001
0000
1000
0010
0001
0010
1000
0000
0001
0000
,
1000
0000
0001
0000
0100
0000
1000
0100
0010
0001
0010
0100
1000
0000
0001
0000
,
0100
0000
0010
0100
0010
0000
0100
0010
0100
0000
0001
0000
1000
0000
0001
0000
,
1000
0000
0001
0010
0001
0010
0000
1000
0100
1000
0000
0010
0100
0000
0000
0000
,
0001
0000
1000
0010
0001
0010
1000
0000
0001
0100
1000
0100
0001
0000
1000
0000
,
0001
0000
1000
0000
0010
0000
0001
0010
0100
1000
0100
0010
0001
0000
1000
0000
,
0010
0000
0100
0010
0100
0000
0010
0100
0010
0000
1000
0000
0001
0000
1000
0000
,
0100
0000
0010
1000
0010
1000
0000
0100
0001
0100
0000
1000
0001
0000
0000
0000
,
0010
0000
0100
1000
0010
1000
0100
0000
0010
0001
0100
0001
0010
0000
0100
0000
,
0010
0000
0100
0000
1000
0000
0010
1000
0001
0100
0001
1000
0010
0000
0100
0000
,
1000
0000
0000
0001
0000
0000
0100
0000
0010
0000
1000
0000
0001
0000
0100
0000
,
0010
0000
1000
0001
0000
0001
0000
0100
0000
0010
0000
1000
0001
0000
0100
0000
,
0010
0000
1000
0001
0000
1000
0001
0000
0100
0010
0001
0010
0100
0000
1000
0000
,
0001
0000
0100
0000
0010
0000
1000
0001
0000
1000
0001
0000
0100
0000
0010
0000
,
0100
0000
0000
0000
0000
0000
0010
0000
0000
0000
0000
0000
1000
0000
0000
0000
0000
0000
0001
0000
1000
0000
0001
0000
1000
0000
0001
0000
1000
0100
0010
0001
;

//---------------dance-single - ----------------
#NOTES:
     dance-single:
     :
     Medium:
     6:
     0.316149,0.293987,0.008679,0.000000,0.000000,255.000000,254.000000,1.000000,0.000000,0.000000,0.000000,0.316149,0.293987,0.008679,0.000000,0.000000,255.000000,254.000000,1.000000,0.000000,0.000000,0.000000:
// measure 0
0000
0000
0000
0000
,  // measure 1
0000
0000
0000
0000
,  // measure 2
0000
0000
0000
0000
,  // measure 3
0000
0000
0000
0000
,  // measure 4
1000
1000
1000
0100
,  // measure 5
0010
0010
0010
1000
,  // measure 6
0001
0001
0001
0010
,  // measure 7
0100
0001
0100
0001
,  // measure 8
1000
1000
1000
0100
,  // measure 9
0100
0100
0100
0001
,  // measure 10
0010
0010
0010
1000
,  // measure 11
0001
0001
0001
0010
,  // measure 12
1000
0100
1000
0100
,  // measure 13
0001
0010
0001
0010
,  // measure 14
0100
0010
0100
0000
,  // measure 15
1000
0001
0001
1000
,  // measure 16
1001
1000
0100
0100
,  // measure 17
0010
0010
1000
1000
,  // measure 18
0100
0100
0001
0001
,  // measure 19
1000
0001
0010
0010
,  // measure 20
1000
0010
0010
0010
,  // measure 21
0001
0100
0100
0100
,  // measure 22
1000
0100
0001
0100
,  // measure 23
1000
0000
0000
0000
0000
1000
0100
0000
,  // measure 24
0001
0100
0100
0001
,  // measure 25
0010
0100
0001
0001
,  // measure 26
0010
0001
0100
0001
,  // measure 27
0001
0010
1000
0010
,  // measure 28
0010
1000
1000
0100
,  // measure 29
0010
1000
0100
0100
,  // measure 30
1000
0001
0001
0100
,  // measure 31
0001
0100
0010
1000
,  // measure 32
0001
0100
0010
0001
,  // measure 33
1000
0100
0010
1000
,  // measure 34
1000
0010
0100
1000
,  // measure 35
0001
0100
0010
0001
,  // measure 36
0100
1000
0010
0100
,  // measure 37
0010
0001
1000
0010
,  // measure 38
1000
0100
0001
1000
,  // measure 39
0010
0100
0001
0010
,  // measure 40
0001
0100
1000
0001
,  // measure 41
1000
0010
0001
1000
,  // measure 42
0010
0001
0100
0010
,  // measure 43
0100
1000
0001
0100
,  // measure 44
1000
0010
0001
1000
,  // measure 45
0001
0100
0010
0001
,  // measure 46
0010
1000
0001
0010
,  // measure 47
0100
0010
0001
0010
,  // measure 48
0001
0100
0010
0010
,  // measure 49
1000
0100
1000
1000
,  // measure 50
0100
1000
0100
0001
,  // measure 51
0010
1000
0001
0100
,  // measure 52
0001
1000
0010
0010
,  // measure 53
1000
1000
1000
1000
,  // measure 54
1000
0100
0010
1000
,  // measure 55
0100
0010
0100
1000
,  // measure 56
1000
0001
0100
0100
,  // measure 57
0001
0001
0001
0001
,  // measure 58
0001
0010
0100
0001
,  // measure 59
0010
0100
0010
0001
,  // measure 60
0100
0010
0001
0001
,  // measure 61
0010
0010
0010
0010
,  // measure 62
0010
1000
0001
0010
,  // measure 63
1000
0001
0010
0001
,  // measure 64
0010
0010
0100
0001
,  // measure 65
0010
1000
0100
0100
,  // measure 66
0001
0010
1000
0100
,  // measure 67
0100
0010
0001
1000
;

//---------------dance-single - ----------------
#NOTES:
     dance-single:
     :
     Easy:
     2:
     0.159934,0.146994,0.000000,0.000000,0.000000,129.000000,129.000000,0.000000,0.000000,0.000000,0.000000,0.159934,0.146994,0.000000,0.000000,0.000000,129.000000,129.000000,0.000000,0.000000,0.000000,0.000000:
0000
0000
0000
0000
,
0000
0000
0000
0000
,
0000
0000
0000
0000
,
0000
0000
0000
0000
,
1000
0000
1000
0000
,
0010
0000
0010
0000
,
0001
0000
0001
0000
,
0100
0000
0100
0000
,
1000
0000
1000
0000
,
0100
0000
0100
0000
,
0010
0000
0010
0000
,
0001
0000
0001
0000
,
1000
0000
1000
0000
,
0001
0000
0001
0000
,
0100
0000
0100
0000
,
1000
0000
0001
0000
,
1000
0000
0100
0000
,
0010
0000
1000
0000
,
0100
0000
0001
0000
,
1000
0000
0010
0000
,
1000
0000
0010
0000
,
0001
0000
0100
0000
,
1000
0000
0001
0000
,
1000
0000
0000
0000
0000
1000
0100
0000
,
0000
0100
0000
0001
,
0000
0100
0000
0001
,
0000
0001
0000
0001
,
0000
0010
0000
0010
,
0000
1000
0000
0100
,
0000
1000
0000
0100
,
0000
0001
0000
0100
,
0000
0100
0000
1000
,
0000
0100
0000
0001
,
0000
0100
0000
1000
,
0000
0010
0000
1000
,
0000
0100
0000
0001
,
0000
1000
0000
0100
,
0000
0001
0000
0010
,
0000
0100
0000
1000
,
0000
0100
0000
0010
,
0000
0100
0000
0001
,
0000
0010
0000
1000
,
0000
0001
0000
0010
,
0000
1000
0000
0100
,
0000
0010
0000
1000
,
0000
0100
0000
0001
,
0000
1000
0000
0010
,
0000
0010
0000
0010
,
0000
0100
0000
0010
,
0000
0100
0000
1000
,
0000
1000
0000
0001
,
0000
1000
0000
0100
,
0000
1000
0000
0010
,
0000
1000
0000
1000
,
0000
0100
0000
1000
,
0000
0010
0000
1000
,
0000
0001
0000
0100
,
0000
0001
0000
0001
,
0000
0010
0000
0001
,
0000
0100
0000
0001
,
0000
0010
0000
0001
,
0000
0010
0000
0010
,
0000
1000
0000
0010
,
0000
0001
0000
0001
,
0000
0010
0000
0001
,
0000
1000
0000
0100
,
0000
0010
0000
0100
,
0000
0010
0000
1000
;
