#TITLE:Time to Air;
#SUBTITLE:Fly High Remix;
#ARTIST:xi;
#TITLETRANSLIT:;
#SUBTITLETRANSLIT:;
#ARTISTTRANSLIT:;
#GENRE:;
#CREDIT:;
#BANNER:Time To Air Fly High Remix.png;
#BACKGROUND:Time To Air Fly High Remix-BG.png;
#LYRICSPATH:;
#CDTITLE:;
#MUSIC:Time To Air Fly High Remix.ogg;
#OFFSET:-0.673000;
#SAMPLESTART:39.584000;
#SAMPLELENGTH:12.000000;
#SELECTABLE:YES;
#DISPLAYBPM:202.000000;
#BPMS:0.000000=202.000000
,115.000000=404.000000
,139.000000=202.000000
;
#STOPS:
;
#BGCHANGES:;
#KEYSOUNDS:;
#ATTACKS:;

//---------------dance-single - ----------------
#NOTES:
     dance-single:
     :
     Hard:
     12:
     0.794663,1.007030,0.383631,0.066718,0.241854,667.000000,621.000000,46.000000,8.000000,0.000000,0.000000,0.794663,1.007030,0.383631,0.066718,0.241854,667.000000,621.000000,46.000000,8.000000,0.000000,0.000000:
0000
0000
0000
0000
0000
0000
0000
0000
0000
1001
0000
1010
,
0000
0101
0000
1001
0000
0000
1000
0100
0010
0001
0000
0000
,
0101
0000
1010
0000
0110
0000
1001
0000
0000
1100
0000
0110
,
0000
0011
0000
1001
0000
0000
1001
0000
0000
0101
0000
1010
,
0000
0000
0110
0000
0000
0000
1001
0000
0000
0000
0000
0000
1001
0000
0000
0000
0000
0000
1000
0000
0000
0100
0000
0000
,
0010
0000
0001
0000
1000
0000
0010
0000
0100
0000
0001
0000
1000
0010
1000
0010
,
1000
0010
1000
0010
0100
0001
0100
0001
0100
0001
0100
0001
0000
0000
0000
0000
,
0000
0000
0000
0000
,
0000
0000
0000
0000
1001
0000
1000
0100
,
0010
0100
1000
0000
0001
0010
0000
0100
,
0010
0000
1000
0001
1000
0000
0001
0010
,
0100
0010
0001
0000
1000
0001
0000
0001
,
0100
0000
0010
0100
1000
0000
0001
0010
,
0100
0010
0001
0000
1000
0100
0000
0010
,
0100
0000
0001
1000
0001
0000
1000
0100
,
0010
0100
1000
0000
0001
1000
0000
1000
,
0010
0000
0100
0010
0001
0000
0100
0001
,
1000
0001
0100
0000
0010
1000
0000
0001
,
1000
0000
0100
0010
0100
0000
0010
1000
,
0001
1000
0010
0000
0100
0010
0000
0010
,
0001
0000
1000
0001
0100
0000
0010
1000
,
0001
1000
0010
0000
0100
0001
0000
1000
,
0001
0000
0010
0100
0010
0000
0100
0001
,
1000
0001
0100
0000
0010
0100
0000
0100
,
1000
0000
0001
1000
0010
0000
1000
0100
,
0010
0100
1000
0000
0001
0010
0000
0100
,
0010
0000
1000
0001
1000
0000
0001
0010
,
0100
0010
0001
0000
1000
0001
0000
0001
,
0100
0000
0010
0100
1000
0000
2002
0000
,
0000
0000
0000
0000
,
0000
0000
0000
0000
,
0000
0000
0000
0000
,
0000
0000
0000
0000
,
0000
0000
0000
0000
,
0000
0000
0000
3003
,
0000
0000
0000
0000
0000
0000
1000
0010
,
0100
0001
0010
0100
0010
0001
1000
0100
,
0010
0100
1000
0001
0100
0010
1000
0001
,
0010
0001
0010
0100
1000
0100
1000
0001
,
0100
0001
0100
0010
1000
0010
1000
0001
,
0010
0100
0010
0001
1000
0100
0010
0100
,
1000
0100
0010
0001
0010
0100
0010
0001
,
0010
0100
1000
0001
0100
0010
1000
0100
,
1000
0100
0010
0001
0010
0001
0010
0100
,
0010
1000
0100
0010
0100
1000
0001
0010
,
0100
0010
0001
1000
0010
0100
0001
1000
,
0100
1000
0100
0010
0001
0010
0001
1000
,
0010
1000
0010
0100
0001
0100
0001
1000
,
0100
0010
0100
1000
0001
0010
0100
0010
,
0001
0010
0100
1000
0100
0010
0100
1000
,
0100
0010
0001
1000
0010
0100
0001
0010
,
0001
0010
0100
1000
0100
1000
0100
1000
,
0001
0010
1000
0001
1000
0010
0100
0001
,
1000
0001
0100
0010
0001
1000
0100
0010
,
1000
0010
1000
0001
0100
0001
0100
0010
,
0001
0010
0001
1000
0100
1000
0100
0010
,
1000
0001
1000
0010
0100
0001
1000
0001
,
0100
0001
1000
0010
1000
0001
1000
0010
,
1000
0001
0100
0010
0001
1000
0100
0001
,
0100
0001
1000
0010
1000
0001
2002
0000
,
0000
0000
0000
0000
,
0000
0000
0000
0000
0000
0000
3003
0000
0000
1010
0000
1010
,
0000
1010
0000
1010
0000
1010
0000
0000
0000
0101
0000
0101
,
0000
0101
0000
0101
0000
0101
0000
0000
0000
0110
0000
0110
,
0000
0110
0000
0110
0000
0110
0000
0110
0000
1001
0000
1001
,
0000
1001
0000
1001
0000
0000
1001
0000
0000
1000
0100
0010
,
0001
1000
0010
0100
0001
1000
0010
1000
0010
1000
0010
0100
,
0001
0100
0001
0100
0001
1000
0100
0000
0000
0001
0010
0100
,
1000
0001
0100
0010
1000
0001
0100
0001
0100
0001
0100
0010
,
1000
0010
1000
0010
1000
0001
0010
0000
0000
2002
0000
0000
,
0000
0000
0000
0000
,
0000
0000
0000
0000
,
0000
0000
0000
3003
,
0000
0000
0000
1000
0100
0010
0001
0010
,
0100
1000
0001
0010
0100
1000
0100
0010
,
0001
1000
0010
1000
0010
0100
0001
0100
,
0001
1000
0100
1000
0100
0010
0001
0010
,
0001
1000
0010
0100
0001
1000
0010
0001
,
0010
0100
1000
0100
0010
0001
1000
0100
,
0010
0001
0010
0100
1000
0001
0100
0001
,
0100
0010
1000
0010
1000
0001
0010
0001
,
0010
0100
1000
0100
1000
0001
0100
0010
,
1000
0001
1000
0100
0001
1000
0010
1000
,
0001
0100
0010
1000
0001
0100
0001
1000
,
0010
0100
1000
0100
1000
0001
0010
0001
,
0010
0100
0001
0100
0001
1000
0010
1000
,
0010
0100
1000
0001
0010
0100
0010
0100
,
1000
0001
0100
0001
1000
0010
0100
0001
,
1000
0010
1000
0001
0100
0010
0001
0010
,
0001
1000
0100
1000
0100
0010
1000
0100
,
0001
0000
0001
0000
0010
0100
0000
0100
,
0010
0000
0001
0010
1000
0000
1000
0100
,
0001
0000
1000
0000
0010
1000
0000
1000
,
0001
0000
0001
0100
0010
0000
0001
0010
,
0100
0010
0001
0010
0100
0000
1000
0100
,
0010
0100
1000
0100
0010
0000
1000
0100
,
0010
0001
0010
0000
0001
0010
0100
1000
,
0100
0000
0010
0100
0010
0000
1000
0100
,
0010
0001
1000
0000
1001
1001
0000
0001
,
0010
0100
1000
0001
0010
2002
0000
0000
,
0000
0000
0000
0000
0000
3003
0000
0000
;

//---------------dance-single - ----------------
#NOTES:
     dance-single:
     :
     Medium:
     8:
     0.427712,0.545475,0.108417,0.066718,0.000000,359.000000,346.000000,13.000000,8.000000,0.000000,0.000000,0.427712,0.545475,0.108417,0.066718,0.000000,359.000000,346.000000,13.000000,8.000000,0.000000,0.000000:
0000
0000
0000
0001
,
0001
0001
1001
0010
,
0010
0010
0110
0100
,
0100
0100
0101
1000
,
1000
1000
1001
1000
,
0010
0000
1000
0000
0001
0000
1000
0010
,
1000
0010
0001
0100
0001
0100
0000
0000
,
0000
0000
0000
0000
,
0000
0000
1100
1000
,
0001
0010
0100
0001
,
0010
1000
1000
0100
,
0001
0100
1000
0100
,
0001
0010
1000
0100
,
0001
0100
1000
0010
,
0001
0100
0100
1000
,
0010
1000
0100
0001
,
0010
0001
0100
0001
,
1000
0001
0010
0100
,
1000
0001
0001
0010
,
0100
0010
0001
1000
,
0100
1000
0001
0010
,
0100
0010
0001
0010
,
0100
0010
0010
0001
,
1000
0001
0010
0001
,
1000
0100
0010
1000
,
0010
1000
0100
0001
,
0010
1000
1000
0100
,
0001
0100
1000
0100
,
0001
0010
1000
2002
,
0000
0000
0000
0000
,
0000
0000
0000
0000
,
0000
0000
0000
0000
,
0000
0000
0000
0000
,
0000
0000
0000
0000
,
0000
0000
0000
3003
,
0000
0000
0000
1000
,
0001
0010
0100
1000
,
0010
1000
0001
1000
,
0010
0010
1000
1000
,
0001
0001
0100
0100
,
0010
0010
1000
0010
,
1000
0010
0001
0010
,
0100
1000
0001
1000
,
1000
0010
0001
0010
,
0100
1000
0001
0100
,
0001
0100
0010
0100
,
0001
1000
0010
0100
,
0010
0010
0100
0100
,
1000
1000
0100
0001
,
0100
0001
1000
0001
,
0010
0100
0010
0100
,
0100
0001
0010
0001
,
0100
1000
0100
0001
,
0010
0001
0100
0001
,
1000
1000
0001
0010
,
0100
0100
0001
0001
,
0010
0010
0001
1000
,
0001
0100
1000
0010
,
1000
0001
0100
0001
,
0001
1000
1000
2002
,
0000
0000
0000
0000
,
0000
0000
3003
0010
,
0010
0010
1010
0100
,
0100
0100
0101
0010
,
0010
0010
0110
0001
,
0001
0001
1001
1000
,
0100
0001
0010
1000
,
0100
0001
0001
0100
,
1000
0010
0001
0100
,
1000
0010
0010
2002
,
0000
0000
0000
0000
,
0000
0000
0000
0000
,
0000
0000
0000
3003
,
0000
0000
0001
0100
,
1000
0010
0001
1000
,
0100
0010
0010
1000
,
0100
0001
0001
0100
,
0100
0010
0001
0010
,
0100
1000
0001
0010
,
0100
0010
1000
0001
,
0001
1000
1000
0010
,
0010
1000
0100
0001
,
0010
1000
0100
0010
,
0001
0010
0100
0100
,
0010
1000
0001
0010
,
0001
0100
0100
0010
,
0001
1000
0001
0010
,
0100
0001
1000
0001
,
1000
1000
0001
0100
,
0010
0001
0001
1000
,
0100
0100
0010
0001
,
0010
0100
1000
0001
,
0100
1000
0010
0001
,
0100
1000
0010
0100
,
0010
0100
0001
1000
,
0010
1000
0001
0100
,
0001
0010
0100
1000
,
0001
0010
0001
1000
,
0010
1000
0100
1000
,
0010
0000
1000
0000
0001
2002
0000
0000
,
0000
0000
0000
0000
0000
3003
0000
0000
;

//---------------dance-single - ----------------
#NOTES:
     dance-single:
     :
     Easy:
     4:
     0.208495,0.293717,0.000000,0.100078,0.000000,175.000000,175.000000,0.000000,12.000000,0.000000,0.000000,0.208495,0.293717,0.000000,0.100078,0.000000,175.000000,175.000000,0.000000,12.000000,0.000000,0.000000:
// measure 0
0000
0000
0000
0001
,  // measure 1
0000
0001
0001
0010
,  // measure 2
0000
0010
0010
0100
,  // measure 3
0100
0000
0100
1000
,  // measure 4
1000
0000
1000
0010
,  // measure 5
0000
0100
0000
1000
,  // measure 6
1000
0001
0001
0000
,  // measure 7
0000
0000
0000
0000
,  // measure 8
0000
0000
0100
0010
,  // measure 9
0000
0001
0000
0100
,  // measure 10
0000
0010
0000
1000
,  // measure 11
0000
0100
0000
0010
,  // measure 12
0000
0001
0000
1000
,  // measure 13
0000
0010
0000
0100
,  // measure 14
0000
0001
0000
0100
,  // measure 15
0000
0010
0000
1000
,  // measure 16
0000
0010
0000
0100
,  // measure 17
0000
0001
0000
0010
,  // measure 18
0000
0100
0000
1000
,  // measure 19
0000
0010
0000
0100
,  // measure 20
0000
0001
0000
0010
,  // measure 21
0000
0100
0000
1000
,  // measure 22
0000
0010
0000
0100
,  // measure 23
0000
0001
0000
0010
,  // measure 24
0000
0100
0000
1000
,  // measure 25
0000
0010
0000
0100
,  // measure 26
0000
0001
0000
1000
,  // measure 27
0000
0001
0000
1000
,  // measure 28
0000
0010
0000
0002
,  // measure 29
0000
0000
0000
0000
,  // measure 30
0000
0000
0000
0000
,  // measure 31
0000
0000
0000
0000
,  // measure 32
0000
0000
0000
0000
,  // measure 33
0000
0000
0000
0000
,  // measure 34
0000
0000
0000
0003
,  // measure 35
0000
0000
0000
1000
,  // measure 36
0000
0010
0000
0100
,  // measure 37
0000
0001
0000
0010
,  // measure 38
0000
0100
0000
0001
,  // measure 39
0000
1000
0000
0100
,  // measure 40
0000
0010
0000
0001
,  // measure 41
0000
0010
0000
0100
,  // measure 42
0000
1000
0000
0010
,  // measure 43
0000
0100
0000
0002
,  // measure 44
0000
0000
0000
0000
,  // measure 45
0000
0000
0000
0000
,  // measure 46
0000
0003
0000
0020
,  // measure 47
0000
0230
0000
2300
,  // measure 48
0000
0000
0000
0000
,  // measure 49
0000
0000
3000
0200
,  // measure 50
0000
0320
0000
0032
,  // measure 51
0000
0023
0000
0130
,  // measure 52
0000
1000
0000
0100
,  // measure 53
0000
0010
0000
0100
,  // measure 54
0000
1000
0000
0010
,  // measure 55
0000
0100
0000
0001
,  // measure 56
0000
0010
0000
1000
,  // measure 57
0000
0100
0000
0010
,  // measure 58
0000
0001
0000
0001
,  // measure 59
0000
1000
0000
0002
,  // measure 60
0000
0000
0000
0000
,  // measure 61
0000
0000
0003
0010
,  // measure 62
0000
0010
0010
0100
,  // measure 63
0000
0100
0100
0010
,  // measure 64
0000
0010
0010
0001
,  // measure 65
0000
0001
0001
1000
,  // measure 66
0000
0001
0000
1000
,  // measure 67
0000
0001
0000
0100
,  // measure 68
0000
0010
0000
0100
,  // measure 69
0000
0010
0000
0002
,  // measure 70
0000
0000
0000
0000
,  // measure 71
0000
0000
0000
0000
,  // measure 72
0000
0000
0000
0003
,  // measure 73
0000
0000
0000
0100
,  // measure 74
0000
0010
0000
1000
,  // measure 75
0000
0010
0000
1000
,  // measure 76
0000
0001
0000
0100
,  // measure 77
0000
0010
0000
0001
,  // measure 78
0000
1000
0000
0010
,  // measure 79
0000
0010
0000
0001
,  // measure 80
0000
1000
0000
0010
,  // measure 81
0000
1000
0000
0001
,  // measure 82
0000
1000
0000
0001
,  // measure 83
0000
0010
0000
0100
,  // measure 84
0000
1000
0000
0010
,  // measure 85
0000
0100
0000
0010
,  // measure 86
0000
1000
0000
0010
,  // measure 87
0000
0001
0000
0001
,  // measure 88
0000
1000
0000
0100
,  // measure 89
0000
0010
0000
0001
,  // measure 90
0000
0100
0000
0010
,  // measure 91
0000
0100
0000
1000
,  // measure 92
0000
0100
0000
0001
,  // measure 93
0000
1000
0000
0100
,  // measure 94
0000
0010
0000
0001
,  // measure 95
0000
1000
0000
0010
,  // measure 96
0000
0100
0000
0001
,  // measure 97
0000
0010
0000
0100
,  // measure 98
0000
1000
0000
0010
,  // measure 99
0000
0000
0100
0000
0000
2000
0000
0000
,  // measure 100
0000
0000
0000
0000
0000
3000
0000
0000
;
