#TITLE:Symbolic Gear;
#SUBTITLE:;
#ARTIST:TaQ Remixed by siromaru;
#TITLETRANSLIT:;
#SUBTITLETRANSLIT:;
#ARTISTTRANSLIT:;
#GENRE:;
#CREDIT:;
#BANNER:symbolic gear.png;
#BACKGROUND:symbolic gear-BG.png;
#LYRICSPATH:;
#CDTITLE:;
#MUSIC:symbolic gear.ogg;
#OFFSET:-0.079000;
#SAMPLESTART:14.014000;
#SAMPLELENGTH:12.000000;
#SELECTABLE:YES;
#BPMS:0.000000=155.000000
;
#STOPS:
;
#BGCHANGES:0.000=symbolic gear.avi=1.000=1=0=1===CrossFade==,
99999=-nosongbg-=1.000=0=0=0 // don't automatically add -songbackground-
;
#KEYSOUNDS:;
#ATTACKS:;

//---------------dance-single - ----------------
#NOTES:
     dance-single:
     :
     Hard:
     13:
     0.912619,0.794926,0.201207,0.033535,0.955734,762.000000,738.000000,24.000000,4.000000,0.000000,0.000000,0.912619,0.794926,0.201207,0.033535,0.955734,762.000000,738.000000,24.000000,4.000000,0.000000,0.000000:
0000
0000
0000
0000
,
1000
0010
0100
0001
,
1000
0000
0000
0000
0001
0000
0000
0000
0100
0000
0000
0000
0010
0000
0000
0010
,
1000
0100
0010
0001
,
1000
0000
0001
0000
0100
0000
0000
0010
0100
0000
0000
0000
0001
0000
0000
1000
,
0001
0100
0010
0001
,
1000
0000
0000
0000
0100
0000
0000
0000
1000
0000
0000
0000
0010
0000
0000
0010
,
0100
0001
0010
0001
,
1000
0000
0000
0000
,
1000
0000
0001
1000
0001
0000
1000
0010
1000
0000
0010
0100
0010
0000
0100
0001
,
0100
0000
0001
1000
0001
0000
1000
0010
1000
0000
0001
0010
0100
1000
0100
0010
,
0001
0000
1000
0010
1000
0000
0001
0100
0001
0000
0100
0001
0100
0000
0010
1000
,
0010
0000
0001
0010
0100
0000
0010
0100
1000
0000
0001
0100
0001
0100
0001
0100
,
0001
0000
1000
0001
1000
0000
0001
0100
0001
0000
0100
0010
0100
0000
0010
1000
,
0010
0000
1000
0001
1000
0000
0001
0100
0001
0000
1000
0100
0010
0001
0010
0100
,
1000
0000
0001
0100
0001
0000
1000
0010
1000
0000
0010
1000
0010
0000
0100
0001
,
0100
0000
1000
0100
0010
0000
0100
0010
0001
0000
1000
0010
1000
0010
1000
0010
,
0100
0000
0010
0100
0010
0000
0100
1000
0100
0000
1000
0001
1000
0000
0001
0010
,
0001
0000
0010
0100
0010
0000
0100
1000
0100
0000
0010
1000
0001
0100
0001
1000
,
0010
0000
0100
1000
0100
0000
0010
0001
0010
0000
0001
0010
0001
0000
1000
0100
,
1000
0000
0010
1000
0001
0000
1000
0001
0100
0000
0010
0001
0010
0001
0010
0001
,
0010
0000
0100
0010
0100
0000
0010
0001
0010
0000
0001
1000
0001
0000
1000
0100
,
1000
0000
0100
0010
0100
0000
0010
0001
0010
0000
0100
0001
1000
0010
1000
0001
,
0100
0000
0010
0001
0010
0000
0100
1000
0100
0000
1000
0100
1000
0000
0001
0010
,
0001
0000
0100
0001
1000
0000
0001
1000
0010
0000
0100
1000
0100
1000
0100
1000
,
0100
0101
0011
0110
,
1100
1010
0101
0011
,
0001
0011
1010
1001
,
0101
1100
0011
1010
,
1000
1100
0101
1001
,
1010
0011
1100
0101
,
0010
1010
1100
0110
,
0002
0000
0000
0003
2000
0000
0000
3000
0020
0000
0000
0030
0200
0000
0000
0000
,
0301
0010
0100
1000
0100
0010
0001
1000
,
0100
1000
0001
0010
0001
0100
0010
0100
,
1000
0001
0010
0100
0010
0001
1000
0010
,
1000
0100
0001
0100
0010
0001
1000
0100
,
0010
0000
1000
0010
1000
0000
0001
0100
0001
0000
0100
0001
0100
0000
0010
1000
,
0010
0000
1000
0100
0010
0000
0100
0010
0001
0000
0001
0010
0100
0000
0010
0100
,
1000
0000
0001
0100
0001
0000
1000
0010
1000
0000
0010
1000
0010
0000
0100
0001
,
0100
0000
0001
0010
0100
0000
0010
0100
1000
0000
1000
0100
0010
0000
0100
0010
,
0001
0000
0010
0001
0010
0000
0100
1000
0100
0000
1000
0100
1000
0000
0001
0010
,
0001
0000
0010
1000
0001
0000
1000
0001
0100
0000
0100
0001
1000
0000
0001
1000
,
0010
0000
0100
1000
0100
0000
0010
0001
0010
0000
0001
0010
0001
0000
1000
0100
,
1000
0000
0100
0001
1000
0000
0001
1000
0010
0000
0010
1000
0001
0000
1000
0001
,
1000
0000
0100
1000
0100
0000
0010
0001
0010
0000
0001
0010
0001
0000
1000
0100
,
1000
0000
0100
0001
1000
0000
0001
1000
0010
0000
0010
1000
0001
0000
1000
0001
,
0100
0000
0010
0001
0010
0000
0100
1000
0100
0000
1000
0100
1000
0000
0001
0010
,
0001
0000
0010
1000
0001
0000
1000
0001
0100
0000
0100
0001
1000
0000
0001
1000
,
0001
0000
0010
0001
0010
0000
0100
1000
0100
0000
1000
0100
1000
0000
0001
0010
,
0001
0000
0010
1000
0001
0000
1000
0001
0100
0000
0100
0001
1000
0000
0001
1000
,
0010
0000
0100
1000
0100
0000
0010
0001
0010
0000
0001
0010
0001
0000
1000
0100
,
1000
0000
0100
0001
1000
0000
0001
1000
0010
0000
0010
1000
0001
0000
1000
0001
,
1000
0000
0100
1000
0100
0000
0010
0001
0010
0000
0001
0010
0001
0000
1000
0100
,
1000
0000
0100
0001
1000
0000
0001
1000
0010
0000
0010
1000
0001
0000
1000
0001
,
0100
0000
0010
0001
0010
0000
0100
1000
0100
0000
1000
0100
1000
0000
0001
0010
,
0001
0000
0010
1000
0001
0000
1000
0001
0100
0000
0100
0001
1000
0000
0001
1000
,
0010
0000
0001
1000
0001
0000
1000
0010
1000
0000
0010
0100
0010
0000
0100
0001
,
0100
0000
0001
1000
0001
0000
1000
0010
1000
0000
0001
0010
0100
1000
0100
0010
,
0001
0000
1000
0010
1000
0000
0001
0100
0001
0000
0100
0001
0100
0000
0010
1000
,
0010
0000
0001
0010
0100
0000
0010
0100
1000
0000
0001
0100
0001
0100
0001
0100
,
0001
0000
1000
0001
1000
0000
0001
0100
0001
0000
0100
0010
0100
0000
0010
1000
,
0010
0000
1000
0001
1000
0000
0001
0100
0001
0000
1000
0100
0010
0001
0010
0100
,
1000
0000
0001
0100
0001
0000
1000
0010
1000
0000
0010
1000
0010
0000
0100
0001
,
0100
0000
1000
0100
0010
0000
0100
0010
0001
0000
1000
0010
1000
0010
1000
0010
,
0100
0000
0010
0100
0010
0000
0100
1000
0100
0000
1000
0001
1000
0000
0001
0010
,
0001
0000
0010
0100
0010
0000
0100
1000
0100
0000
0010
1000
0001
0100
0001
1000
,
0010
0000
0100
1000
0100
0000
0010
0001
0010
0000
0001
0010
0001
0000
1000
0100
,
1000
0000
0010
1000
0001
0000
1000
0001
0100
0000
0010
0001
0010
0001
0010
0001
,
0010
0000
0100
0010
0100
0000
0010
0001
0010
0000
0001
1000
0001
0000
1000
0100
,
1000
0000
0100
0010
0100
0000
0010
0001
0010
0000
0100
0001
1000
0010
1000
0001
,
0100
0000
0010
0001
0010
0000
0100
1000
0100
0000
1000
0100
1000
0000
0001
0010
,
0001
0000
0100
0001
1000
0000
0001
1000
0010
0000
0100
1000
0100
1000
0100
1000
;

//---------------dance-single - ----------------
#NOTES:
     dance-single:
     :
     Medium:
     6:
     0.350915,0.367203,0.058685,0.033535,0.000000,293.000000,286.000000,7.000000,4.000000,0.000000,0.000000,0.350915,0.367203,0.058685,0.033535,0.000000,293.000000,286.000000,7.000000,4.000000,0.000000,0.000000:
0000
0000
0000
0000
,
1000
0001
0010
0100
,
1000
0100
0010
0001
,
1000
0010
0001
0100
,
1000
0010
0010
0100
,
0100
0010
0001
0100
,
1000
0010
1000
0001
,
0010
0100
0001
0100
,
1000
0000
0000
0000
,
1000
0100
0010
0001
,
1000
0100
0010
1000
,
0010
1000
0001
0100
,
0001
0010
0001
0100
,
0001
0010
1000
0010
,
0001
0010
1000
0001
,
0010
0100
1000
0001
,
1000
0001
0010
0100
,
0010
0100
0010
0100
,
0001
0010
1000
0001
,
0010
0100
1000
0010
,
1000
0100
0001
0100
,
0010
0001
0010
0100
,
1000
0100
1000
0001
,
1000
0001
0010
0100
,
0010
0100
1000
0010
,
0101
0100
0010
0001
,
1001
0010
0001
0100
,
0011
0010
1000
0100
,
1001
0010
0001
0100
,
1100
0010
0001
0100
,
0101
0100
0001
0010
,
1001
0001
0010
0100
,
0200
0000
0000
0300
2000
0000
0000
3000
0002
0000
0000
0003
0020
0000
0000
0000
,
0130
0001
0010
0001
,
0010
0001
0100
1000
,
0010
0001
0010
0001
,
0010
1000
0001
0100
,
0001
1000
0010
0100
,
0010
1000
0100
0001
,
0100
0001
0010
1000
,
0010
1000
0100
0001
,
0010
1000
0010
0001
,
0100
0010
0100
0010
,
0001
1000
0001
1000
,
0010
1000
0001
0010
,
0001
0100
0001
0100
,
1000
0100
1000
0001
,
0100
0001
0010
0001
,
0010
1000
0010
1000
,
0100
1000
0100
1000
,
0010
0001
0010
1000
,
0010
0001
0100
0001
,
0010
0001
0100
1000
,
0100
0001
0100
1000
,
0010
1000
0100
0100
,
0010
0100
0010
1000
,
0001
1000
0001
1000
,
0010
1000
0010
0001
,
0100
0001
0100
1000
,
0001
1000
0100
0010
,
0100
0010
0001
0010
,
0001
0010
0001
0010
,
0100
1000
0100
1000
,
0100
1000
0001
0010
,
1000
0010
0001
0010
,
0001
0100
0001
0010
,
0100
0001
0010
1000
,
0010
0001
0100
1000
,
0010
0001
0100
0001
,
0010
1000
0100
0010
,
0100
0010
0001
1000
,
0001
1000
0100
0001
,
0010
1000
0010
0001
,
0100
0000
0000
0000
;

//---------------dance-single - ----------------
#NOTES:
     dance-single:
     :
     Easy:
     3:
     0.174859,0.214202,0.000000,0.000000,0.000000,146.000000,146.000000,0.000000,0.000000,0.000000,0.000000,0.174859,0.214202,0.000000,0.000000,0.000000,146.000000,146.000000,0.000000,0.000000,0.000000,0.000000:
// measure 0
0000
0000
0000
0000
,  // measure 1
1000
0000
0100
0000
,  // measure 2
0010
0000
0100
0000
,  // measure 3
1000
0000
0010
0000
,  // measure 4
1000
0000
0100
0000
,  // measure 5
0001
0000
0010
0000
,  // measure 6
1000
0000
1000
0000
,  // measure 7
0100
0000
0010
0000
,  // measure 8
1000
0000
0000
0000
,  // measure 9
1000
0000
0100
0000
,  // measure 10
1000
0000
0100
0000
,  // measure 11
0100
0000
0001
0000
,  // measure 12
0010
0000
0001
0000
,  // measure 13
0010
0000
1000
0000
,  // measure 14
0010
0000
1000
0000
,  // measure 15
0100
0000
1000
0000
,  // measure 16
1000
0000
0100
0000
,  // measure 17
0001
0000
0100
0000
,  // measure 18
0010
0000
1000
0000
,  // measure 19
0100
0000
0010
0000
,  // measure 20
1000
0000
0010
0000
,  // measure 21
0100
0000
0001
0000
,  // measure 22
0010
0000
1000
0000
,  // measure 23
1000
0000
0100
0000
,  // measure 24
0100
0000
1000
0000
,  // measure 25
0001
0000
0100
0000
,  // measure 26
1000
0000
0010
0000
,  // measure 27
0100
0000
1000
0000
,  // measure 28
0010
0000
0010
0000
,  // measure 29
1000
0000
0010
0000
,  // measure 30
0001
0000
0010
0000
,  // measure 31
1000
0000
0100
0000
,  // measure 32
0001
1000
0010
0100
,  // measure 33
0001
0000
0100
0000
,  // measure 34
0010
0000
0001
0000
,  // measure 35
1000
0000
0100
0000
,  // measure 36
0001
0000
0010
0000
,  // measure 37
0100
0000
0001
0000
,  // measure 38
1000
0000
0001
0000
,  // measure 39
0100
0000
0010
0000
,  // measure 40
0001
0000
0001
0000
,  // measure 41
0100
0000
0100
0000
,  // measure 42
1000
0000
1000
0000
,  // measure 43
0010
0000
0010
0000
,  // measure 44
0100
0000
0010
0000
,  // measure 45
1000
0000
0001
0000
,  // measure 46
1000
0000
0001
0000
,  // measure 47
0100
0000
0010
0000
,  // measure 48
0100
0000
0001
0000
,  // measure 49
1000
0000
0001
0000
,  // measure 50
0100
0000
0001
0000
,  // measure 51
0100
0000
0010
0000
,  // measure 52
0100
0000
0001
0000
,  // measure 53
1000
0000
0001
0000
,  // measure 54
0100
0000
0001
0000
,  // measure 55
0100
0000
0100
0000
,  // measure 56
0010
0000
0010
0000
,  // measure 57
0100
0000
1000
0000
,  // measure 58
0001
0000
0010
0000
,  // measure 59
1000
0000
0001
0000
,  // measure 60
0100
0000
0010
0000
,  // measure 61
0100
0000
0001
0000
,  // measure 62
1000
0000
0100
0000
,  // measure 63
0001
0000
0010
0000
,  // measure 64
1000
0000
0001
0000
,  // measure 65
0100
0000
0010
0000
,  // measure 66
0001
0000
1000
0000
,  // measure 67
0100
0000
0001
0000
,  // measure 68
0010
0000
1000
0000
,  // measure 69
0100
0000
0001
0000
,  // measure 70
0001
0000
0010
0000
,  // measure 71
0010
0000
0100
0000
,  // measure 72
0010
0000
1000
0000
,  // measure 73
0001
0000
0000
0000
;
