#TITLE:Stager;
#SUBTITLE:;
#ARTIST:Ras;
#TITLETRANSLIT:;
#SUBTITLETRANSLIT:;
#ARTISTTRANSLIT:;
#GENRE:;
#CREDIT:;
#BANNER:Stager.png;
#BACKGROUND:Stager-BG.png;
#LYRICSPATH:;
#CDTITLE:;
#MUSIC:Stager.ogg;
#OFFSET:-0.298000;
#SAMPLESTART:39.790001;
#SAMPLELENGTH:12.000000;
#SELECTABLE:YES;
#BPMS:0.000000=146.000000
,192.000000=73.000000
,208.000000=146.000000
;
#STOPS:
;
#BGCHANGES:-0.500=Stager.avi=1.000=0=0=1=====,
99999=-nosongbg-=1.000=0=0=0 // don't automatically add -songbackground-
;
#KEYSOUNDS:;
#ATTACKS:;

//---------------dance-single - ----------------
#NOTES:
     dance-single:
     :
     Hard:
     12:
     0.800382,0.924898,0.147633,0.369083,0.907943,759.000000,739.000000,20.000000,50.000000,0.000000,0.000000,0.800382,0.924898,0.147633,0.369083,0.907943,759.000000,739.000000,20.000000,50.000000,0.000000,0.000000:
// measure 0
1000
0000
0000
0001
0000
0000
0100
0000
0000
0000
0010
0000
0000
0000
0001
0000
,  // measure 1
1000
0000
0000
0010
0000
0000
0100
0000
0001
1000
0001
0000
0010
0100
0010
0000
,  // measure 2
0001
0000
0000
1000
0000
0000
0010
0000
0000
0000
0100
0000
0000
0000
1000
0000
,  // measure 3
0001
0000
0000
0100
0000
0000
0010
0000
1000
0001
1000
0000
0100
0010
0100
0000
,  // measure 4
1000
0000
0000
0010
1000
0000
0100
0000
0000
0000
0001
0000
0100
0010
0000
0000
,  // measure 5
1000
0000
0000
0001
0100
0000
0010
0000
1000
0100
1000
0000
0001
0010
0001
0000
,  // measure 6
0100
0000
0000
0010
0100
0000
0001
0000
0000
0000
1000
0000
0010
0100
0000
0000
,  // measure 7
0020
0000
0130
0010
0100
0000
0001
0010
0100
1000
0100
0010
0001
0010
0100
0000
,  // measure 8
0010
0000
0000
0001
0010
0000
1000
0000
0000
0000
0100
0000
1000
0001
0000
0000
,  // measure 9
0010
0000
0000
0100
1000
0000
0001
0000
0010
1000
0010
0000
0100
0001
0100
0000
,  // measure 10
1000
0000
0000
0001
1000
0000
0100
0000
0000
0000
0010
0000
0001
1000
0000
0000
,  // measure 11
0002
0000
1003
0001
1000
0000
0100
0001
1000
0010
1000
0001
0100
0001
1000
0000
,  // measure 12
0100
0000
0000
1000
0100
0000
0001
0000
0000
0000
0010
0000
0001
1000
0000
0000
,  // measure 13
0100
0000
0000
0010
0001
0000
1000
0000
0100
0001
0100
0000
0010
1000
0010
0000
,  // measure 14
0001
0000
0000
1000
0001
0000
0010
0000
0000
0000
0100
0000
1000
0001
0000
0000
,  // measure 15
2000
0000
3001
0010
0100
0010
0001
2000
0000
3020
0000
0230
0000
0300
0002
0000
,  // measure 16
1003
0000
1000
0010
0000
0100
0010
0100
0010
2000
0000
3002
0000
0003
0200
0000
,  // measure 17
0310
0000
1000
0100
0000
0010
0001
0010
0001
2000
0000
3002
0000
0003
0200
0000
,  // measure 18
0310
0000
0010
1000
0000
0001
0100
0001
0100
0020
0000
2030
0000
3000
0002
0000
,  // measure 19
0103
0010
0001
0000
1000
0100
0010
0000
1000
0100
1000
0000
2020
3030
0202
0303
,  // measure 20
0010
0000
0001
0100
0000
0010
0100
0010
0100
0002
0000
2003
0000
3000
0020
0000
,  // measure 21
0130
0000
0001
0010
0000
0100
1000
0100
1000
0002
0000
2003
0000
3000
0020
0000
,  // measure 22
0130
0000
0100
0001
0000
1000
0010
1000
0010
0200
0000
0302
0000
0003
2000
0000
,  // measure 23
3010
0100
1000
0000
0001
0010
0100
0000
0001
0010
0001
0010
0002
0000
2003
0000
,  // measure 24
3001
0000
1000
0100
0010
0100
1000
0100
0010
0000
0000
0000
1000
0100
0010
0000
,  // measure 25
1000
0000
0001
0010
0100
1000
0100
0010
0001
0000
0000
0000
0001
0010
0100
0000
,  // measure 26
0010
0000
1000
0010
1000
0010
1000
0010
1000
0000
0000
0000
0100
0010
0100
0000
,  // measure 27
0001
0100
0001
0000
1000
0010
1000
0000
0100
0010
0100
0010
0200
0000
0320
0000
,  // measure 28
1030
0000
0100
0001
1000
0001
0100
0001
1000
0000
0000
0000
0100
0001
1000
0000
,  // measure 29
0100
0000
0010
1000
0001
0100
0001
1000
0010
0000
0000
0000
0010
1000
0001
0000
,  // measure 30
1000
0000
0100
1000
0100
1000
0100
1000
0100
0000
0000
0000
0001
1000
0001
0000
,  // measure 31
0010
0001
0010
0000
0100
1000
0100
0000
0001
1000
0001
1000
0002
0000
2003
0000
,  // measure 32
3100
0000
0010
1000
0001
1000
0010
1000
0001
0000
0000
0000
0010
1000
0001
0000
,  // measure 33
0010
0000
0100
0001
1000
0010
1000
0001
0100
0000
0000
0000
0100
0001
1000
0000
,  // measure 34
0001
0000
0010
0001
0010
0001
0010
0001
0010
0000
0000
0000
1000
0001
1000
0000
,  // measure 35
0100
1000
0100
0000
0010
0001
0010
0000
1000
0001
1000
0001
2000
0000
3002
0000
,  // measure 36
1003
0000
0001
0010
0100
0010
0001
0010
0100
0000
0000
0000
0001
0010
0100
0000
,  // measure 37
0001
0000
1000
0100
0010
0001
0010
0100
1000
0000
0000
0000
1000
0100
0010
0000
,  // measure 38
0100
0000
0001
0100
0001
0100
0001
0100
0001
0000
0000
0000
0010
0100
0010
0000
,  // measure 39
1000
0010
1000
0000
0001
0100
0001
0000
0010
0100
0010
0100
0020
0000
0200
0000
,  // measure 40
0330
0000
0000
1000
0100
0000
0001
0000
0000
0000
0010
0000
0001
1000
0000
0000
,  // measure 41
0100
0000
0000
0010
0001
0000
1000
0000
0100
0001
0100
0000
0010
1000
0010
0000
,  // measure 42
0001
0000
0000
1000
0001
0000
0010
0000
0000
0000
0100
0000
1000
0001
0000
0000
,  // measure 43
2000
0000
3001
1000
0001
0000
0010
1000
0001
0100
0001
1000
0010
1000
0001
0000
,  // measure 44
0010
0000
0000
0001
0010
0000
1000
0000
0000
0000
0100
0000
1000
0001
0000
0000
,  // measure 45
0010
0000
0000
0100
1000
0000
0001
0000
0010
1000
0010
0000
0100
0001
0100
0000
,  // measure 46
1000
0000
0000
0001
1000
0000
0100
0000
0000
0000
0010
0000
0001
1000
0000
0000
,  // measure 47
1010
0000
0000
0101
0000
0000
1001
0000
0000
0110
0000
0000
1000
0001
1000
0001
,  // measure 48
1000
0000
0010
0000
0100
0000
0010
0000
0001
0000
0100
0000
0001
0000
1000
0100
,  // measure 49
0010
0100
0001
1000
0010
0100
0001
0010
,  // measure 50
0001
0000
1000
0000
0000
0100
0000
0000
0010
0000
0100
0010
0000
0000
0001
0000
0000
1000
0000
0000
0010
0000
0000
0100
0000
0000
0001
0000
1000
0000
0001
0100
,  // measure 51
0001
0000
0010
0000
0000
1000
0000
0000
0001
0000
0100
0010
0000
0000
0100
0000
0000
0001
0000
0000
0010
0000
0000
0100
1000
0001
0010
0100
1000
0001
0010
0100
,  // measure 52
1000
0000
0001
0000
0010
0100
0010
0000
1000
0000
0001
0100
0001
0000
0010
0000
,  // measure 53
0100
0010
0100
0000
1000
0000
0010
1000
0010
0000
0100
0000
0001
0000
0100
0001
,  // measure 54
0100
0000
1000
0000
0100
1000
0100
0000
0010
0000
0001
0010
0001
0000
0100
0000
,  // measure 55
0001
0000
1000
0000
0100
0010
0100
0000
0001
0000
1000
0010
1000
0000
0100
0000
,  // measure 56
0010
0100
0010
0000
0001
0000
0100
0001
0100
0000
0010
0000
1000
0000
0010
1000
,  // measure 57
0010
0000
0001
0000
0010
0001
0010
0000
0100
0000
1000
0100
1000
0000
0010
0000
,  // measure 58
0100
0000
0010
0000
1000
0001
1000
0000
0100
0000
0010
0001
0010
0000
1000
0000
,  // measure 59
0001
1000
0001
0000
0100
0000
1000
0100
1000
0000
0001
0000
0010
0000
0001
0010
,  // measure 60
0001
0000
0100
0000
0001
0100
0001
0000
1000
0000
0010
1000
0010
0000
0001
0000
,  // measure 61
0010
0000
0100
0000
0001
1000
0001
0000
0010
0000
0100
1000
0100
0000
0001
0000
,  // measure 62
1000
0001
1000
0000
0010
0000
0001
0010
0001
0000
1000
0000
0100
0000
1000
0100
,  // measure 63
1000
0000
0010
0000
1000
0010
1000
0000
0001
0000
0100
0001
0100
0000
1000
0000
,  // measure 64
0001
0000
1000
0000
0100
0010
0100
0000
0001
0000
1000
0010
1000
0000
0100
0000
,  // measure 65
0010
0100
0010
0000
0001
0000
0100
0001
0100
0000
0010
0000
1000
0000
0010
1000
,  // measure 66
0010
0000
0001
0000
0010
0001
0010
0000
0100
0000
1000
0100
1000
0000
0010
0000
,  // measure 67
1000
0001
0000
0000
0010
0000
0000
0100
0010
0000
1000
0000
0001
0000
1000
0001
,  // measure 68
2000
0000
3020
0000
0000
0030
0000
0000
1000
0000
0010
0100
0001
0000
1000
0000
,  // measure 69
0201
0000
0302
0000
0000
0003
0000
0000
1000
0000
0001
1000
0000
0000
0010
0000
,  // measure 70
1000
0000
0100
0000
0010
0100
0010
0000
1000
0000
0001
1000
0001
0000
0010
0000
,  // measure 71
0000
0100
0010
0001
0010
0000
1000
0100
0010
0100
0000
0001
0000
0100
0010
0000
,  // measure 72
1002
0000
0203
0000
0000
0300
0000
0000
0001
0000
0100
0010
1000
0000
0001
0000
,  // measure 73
1020
0000
2030
0000
0000
3000
0000
0000
0001
0000
1000
0001
0100
0000
0010
0000
,  // measure 74
0000
0000
1010
0000
0000
0101
0000
0000
1010
0000
0000
0110
0000
0000
0101
0000
,  // measure 75
0000
1010
0000
0000
0110
0000
0000
1001
0000
0000
1010
0000
1010
0000
2020
3030
;

//---------------dance-single - ----------------
#NOTES:
     dance-single:
     :
     Medium:
     7:
     0.344829,0.448435,0.051672,0.191923,0.059053,327.000000,320.000000,7.000000,26.000000,0.000000,0.000000,0.344829,0.448435,0.051672,0.191923,0.059053,327.000000,320.000000,7.000000,26.000000,0.000000,0.000000:
0001
0100
1000
0010
,
0001
0010
0100
0010
,
0100
0001
0010
1000
,
0100
1000
0001
1000
,
0001
0000
0001
0000
0100
0010
1000
0000
,
0001
0000
0010
0000
0001
1000
0100
0010
,
1000
0000
1000
0000
0100
1000
0010
0000
,
0010
1000
0010
0100
0010
1000
0001
1000
,
0010
0010
1000
0001
,
0100
0001
0010
1000
,
0001
0001
0000
0100
,
0010
1000
0001
1000
0010
0100
0010
1000
,
0010
1000
0010
0100
,
1000
0100
0001
0010
,
0100
0100
0010
0001
,
1000
0000
0100
0000
1000
0000
0100
0002
0000
0000
0000
0203
0000
0000
0000
0000
,
0301
0000
0000
0000
0010
0000
0000
0000
0000
0200
0000
0000
0000
0000
0000
0000
,
0301
0000
0000
0000
1000
0000
0000
0000
0000
0020
0000
0000
0000
0000
0000
0000
,
0031
0000
0000
0000
0010
0000
0000
0000
0000
2000
0000
0000
0000
0000
0000
0000
,
3100
0000
0000
0000
0001
0000
0000
0000
0001
0000
0000
0000
0002
0003
0200
0300
,
0010
0000
0000
0000
0000
0000
0000
0000
0000
0002
0000
0000
0000
0000
0000
0000
,
0103
0000
0000
0000
0010
0000
0000
0000
0000
2000
0000
0000
0000
0000
0000
0000
,
3100
0000
0000
0000
0001
0000
0000
0000
0000
0200
0000
0000
0000
0000
0000
0000
,
0310
0000
0001
0000
0100
0000
0200
0302
,
0003
0010
0010
0001
,
0001
1000
0100
0100
,
0010
0001
0001
1000
,
0100
0000
0001
0000
1000
0000
2000
3020
,
0031
0100
0001
1000
,
1000
0100
0010
0010
,
0001
1000
0010
0100
,
0010
0000
1000
0000
0010
0000
0200
0302
,
0003
0100
0100
0010
,
0010
0001
1000
1000
,
0100
0010
0010
0001
,
1000
0000
0010
0000
0001
0000
0002
0203
,
0300
1000
1000
0100
,
0100
0010
0001
0001
,
1000
0100
0100
0010
,
0001
0000
0100
0000
0010
0000
0020
2000
,
3030
1000
0010
0100
,
1000
0100
0001
0010
,
1000
0100
0010
0001
,
1000
0010
0100
0010
1000
0001
1000
0010
,
1000
0010
1000
0001
,
0010
0001
0010
0100
,
1000
0001
0010
0100
,
1000
0000
0000
1100
0000
0000
0100
0000
0000
1010
0000
0000
0001
0000
0100
0000
,
0001
1000
0100
0100
,
0010
0100
0010
0100
,
0100
0010
0001
0010
,
0100
0000
0000
0000
0100
0000
0000
0000
1000
0000
0000
0000
0001
1000
0010
1000
,
0001
0010
0001
0100
,
1000
0001
0010
0100
,
1000
0010
0001
0100
,
0100
1000
0100
0001
,
0010
0100
1000
0001
,
0010
0010
1000
0001
,
0100
0001
1000
0010
,
0100
1000
0001
0010
,
0100
0100
0001
0010
,
0010
0100
0010
1000
,
0001
0010
0100
1000
,
0001
0001
0100
1000
,
0100
1000
0100
0001
,
0010
0100
1000
0001
,
0010
0010
1000
0001
,
0001
0010
0010
0100
,
0020
0000
0000
0000
0000
0030
0000
0000
0001
0000
0000
0000
0100
0000
0000
0000
,
0200
0000
0000
0000
0000
0300
0000
0000
0001
0000
0000
0000
0010
0000
0000
0000
,
0001
0100
0001
0100
,
1000
0010
0010
0100
,
2000
0000
0000
0000
0000
3000
0000
0000
0100
0000
0000
0000
0001
0000
0000
0000
,
0002
0000
0000
0000
0000
0003
0000
0000
0100
0000
0000
0000
1000
0000
0000
0000
,
0000
0000
0001
0000
0000
1100
0000
0000
0010
0000
0000
1010
0000
0000
1000
0000
,
0000
0011
0000
0000
0010
0000
0000
0101
0000
0000
0001
0000
0010
0000
0022
0033
;

//---------------dance-single - ----------------
#NOTES:
     dance-single:
     :
     Easy:
     4:
     0.178214,0.364354,0.022145,0.132870,0.025836,169.000000,166.000000,3.000000,18.000000,0.000000,0.000000,0.178214,0.364354,0.022145,0.132870,0.025836,169.000000,166.000000,3.000000,18.000000,0.000000,0.000000:
0100
0000
0001
0000
,
0100
0000
1000
0000
,
1000
0000
0010
0000
,
1000
0000
0100
0000
,
0100
0000
1000
0000
,
0100
0000
0100
0000
,
0001
0000
1000
0000
,
0010
0000
0010
0000
,
0010
0000
0001
0000
,
1000
0000
0010
0000
,
0100
0000
0010
0000
,
0010
0000
0010
0000
,
0010
0000
0010
0000
,
0001
0000
0100
0000
,
1000
0000
0010
0000
,
0001
0000
0000
0000
0001
0000
0000
2000
0000
0000
0000
0000
0000
0000
0000
0000
,
3100
0000
2000
0000
,
3100
0000
0020
0000
,
1030
0000
0002
0000
,
0103
0000
0000
0000
0000
0000
0000
0000
0100
0000
0000
0000
2000
0000
0000
3000
,
0010
0000
0200
0000
,
1300
0000
0002
0000
,
1003
0000
2000
0000
,
3010
0000
1000
0020
,
0030
0000
0010
0000
,
0100
0000
1000
0000
,
0010
0000
0100
0000
,
1000
0000
0001
0020
,
0030
0000
0100
0000
,
0001
0000
0010
0000
,
0100
0000
0010
0000
,
0010
0000
0010
0200
,
0300
0000
1000
0000
,
0010
0000
0001
0000
,
1000
0000
0010
0000
,
0001
0000
0100
2000
,
3000
0000
0001
0000
,
1000
0000
0100
0000
,
0001
0000
1000
0000
,
0100
0000
0010
0020
,
0030
0000
0010
0000
,
0001
0000
0100
0000
,
0001
0000
0010
0000
,
0001
0000
0001
0000
,
0001
0000
0001
0000
,
0010
0000
0010
0000
,
0001
0000
0010
0000
,
0001
0000
0000
0010
0000
0000
1000
0000
0000
1100
0000
0000
0100
0000
0000
0000
,
0100
0000
1000
0000
,
0010
0000
0010
0000
,
1000
0000
0100
0000
,
1000
0000
0000
0000
0001
0000
0100
0001
,
0100
0000
0100
0000
,
0001
0000
0010
0000
,
0001
0000
0100
0000
,
1000
0000
1000
0000
,
0010
0000
0001
0000
,
0010
0000
0001
0000
,
1000
0000
0001
0000
,
1000
0000
0100
0000
,
1000
0000
0100
0000
,
0010
0000
0010
0000
,
0100
0000
1000
0000
,
0100
0000
1000
0000
,
1000
0000
1000
0000
,
0010
0000
0001
0000
,
0010
0000
0001
0000
,
0100
0000
0010
0000
,
0020
0000
0000
0000
0000
0030
0000
0000
0100
0000
0000
0000
0000
0000
0000
0000
,
2000
0000
0000
0000
0000
3000
0000
0000
0100
0000
0000
0000
0000
0000
0000
0000
,
0100
0000
0100
0000
,
0001
0000
0010
0000
,
0002
0000
0000
0000
0000
0003
0000
0000
1000
0000
0000
0000
0000
0000
0000
0000
,
0200
0000
0000
0000
0000
0300
0000
0000
1000
0000
0000
0000
0000
0000
0000
0000
,
0000
0000
0100
0000
0000
0001
0000
0000
0010
0000
0000
0011
0000
0000
0001
0000
,
0000
0100
0000
0000
0010
0000
0000
1100
0000
0000
0100
0000
0010
0000
0200
0300
;
