#VERSION:0.83;
#TITLE:Scorpion Dance;
#SUBTITLE:;
#ARTIST:Litmus*;
#TITLETRANSLIT:;
#SUBTITLETRANSLIT:;
#ARTISTTRANSLIT:;
#GENRE:;
#ORIGIN:;
#CREDIT:;
#BANNER:Scorpion Dance.png;
#BACKGROUND:Scorpion Dance-BG.png;
#PREVIEWVID:;
#JACKET:Scorpion Dance-Jacket.png;
#CDIMAGE:;
#DISCIMAGE:;
#LYRICSPATH:;
#CDTITLE:;
#MUSIC:Scorpion Dance.ogg;
#OFFSET:-0.097000;
#SAMPLESTART:80.694000;
#SAMPLELENGTH:24.000000;
#SELECTABLE:YES;
#BPMS:0.000=134.000;
#STOPS:;
#DELAYS:;
#WARPS:;
#TIMESIGNATURES:0.000=4=4;
#TICKCOUNTS:0.000=4;
#COMBOS:0.000=1;
#SPEEDS:0.000=1.000=0.000=0;
#SCROLLS:0.000=1.000;
#FAKES:;
#LABELS:0.000=Song Start;
#BGCHANGES:0.000=Scorpion Dance.avi=1.000=0=0=1=====,
99999=-nosongbg-=1.000=0=0=0 // don't automatically add -songbackground-
;
#KEYSOUNDS:;
#ATTACKS:
;

//---------------dance-single - ----------------
#NOTEDATA:;
#CHARTNAME:;
#STEPSTYPE:dance-single;
#DESCRIPTION:;
#CHARTSTYLE:;
#DIFFICULTY:Hard;
#METER:10;
#RADARVALUES:0.680961,0.728367,0.379651,0.168734,0.622205,678.000000,624.000000,54.000000,24.000000,0.000000,0.000000,0.000000,0.000000,0.000000,0.680961,0.728367,0.379651,0.168734,0.622205,678.000000,624.000000,54.000000,24.000000,0.000000,0.000000,0.000000,0.000000,0.000000;
#CREDIT:;
#NOTES:
// measure 0
0000
0000
0000
0000
,  // measure 1
1001
0000
0000
0000
1000
0000
0100
0000
0010
0000
0000
0010
0000
0000
0100
0000
,  // measure 2
0010
0000
0000
0001
0000
0000
0010
0000
0001
0000
0000
1000
0000
0000
1000
0000
,  // measure 3
0001
0000
0000
0000
0010
0000
0100
0000
0010
0000
0000
1000
0000
0000
0001
0000
,  // measure 4
0100
0000
0000
0010
0000
0000
0100
0000
0010
0000
0001
0000
1000
0000
0100
0000
,  // measure 5
1100
0000
0000
0000
0010
0000
0100
0000
0001
0000
0000
1000
0000
0000
0010
0000
,  // measure 6
0100
0000
0000
0001
0000
0000
0010
0000
0001
0000
0000
1000
0000
0000
1000
0000
,  // measure 7
0100
0000
0000
0000
0010
0000
1000
0000
0001
0000
0000
0100
0000
0000
0010
0000
,  // measure 8
1000
0000
0000
0001
0000
0000
0010
0000
0001
0000
1000
0000
0100
0000
0010
0000
,  // measure 9
0001
0010
0100
1000
0100
0010
0001
0010
,  // measure 10
0100
1000
0100
0010
0001
0010
0100
1000
,  // measure 11
1000
0100
0010
0001
1000
0100
0010
0001
1000
0100
0010
0001
1000
0100
0010
0001
,  // measure 12
2000
0000
3002
0000
0203
0000
0020
0330
,  // measure 13
0110
0000
0000
0000
1000
0000
1000
0100
1000
0000
0001
0000
0100
0010
0100
0000
,  // measure 14
0010
0000
1000
0000
0000
0000
1000
0001
1000
0000
0001
0000
1000
0100
0010
0000
,  // measure 15
0001
0000
0010
0000
0000
0000
0010
0100
0010
0000
1000
0000
0000
0000
0001
0010
,  // measure 16
0100
1000
0001
0010
0100
0010
0001
1000
0100
0010
0100
1000
0001
0010
0100
0010
,  // measure 17
0001
0000
0000
0000
1001
0000
1000
0100
1000
0000
0010
0000
0100
0010
0100
0000
,  // measure 18
0001
0000
1000
0000
0000
0000
0001
1000
0001
0000
0100
0000
0010
0100
1000
0000
,  // measure 19
0001
0000
0010
0000
0000
0000
0010
0100
1000
0000
0001
0000
1000
0100
1000
0000
,  // measure 20
0101
0000
0000
1010
0000
0000
1100
0000
0101
0000
0000
1000
0001
0000
0001
0000
,  // measure 21
1001
0000
0000
0000
0001
0000
0001
0010
0001
0000
1000
0000
0010
0100
0010
0000
,  // measure 22
0100
0000
0001
0000
0000
0000
0001
1000
0001
0000
1000
0000
0001
0010
0100
0000
,  // measure 23
1000
0000
0100
0000
0000
0000
0100
0010
0100
0000
0001
0000
0000
0000
1000
0100
,  // measure 24
0010
0001
1000
0100
0010
0100
1000
0001
0010
0100
0010
0001
1000
0100
0010
0100
,  // measure 25
1000
0000
0000
0000
1001
0000
0001
0010
0001
0000
0100
0000
0010
0100
0010
0000
,  // measure 26
1000
0000
0001
0000
0000
0000
1000
0001
1000
0000
0010
0000
0100
0010
0001
0000
,  // measure 27
1000
0000
0100
0000
0000
0000
0100
0010
0001
0000
1000
0000
0001
0010
0001
0000
,  // measure 28
1010
0000
0000
0110
0000
0000
0101
0000
0101
0000
0000
1000
0001
0000
0001
0000
,  // measure 29
2002
0000
0000
3003
1000
0000
0100
0000
0010
0000
0001
0000
0000
0000
1000
0001
,  // measure 30
1000
0000
0000
1010
0000
0000
0010
0100
0010
0000
0000
0101
0000
0000
1000
0100
,  // measure 31
0010
0000
0000
1010
0000
0000
0001
0100
0001
0000
0000
0101
0000
0000
0010
0100
,  // measure 32
0010
0000
0000
0110
0000
0000
1000
0100
1000
0000
0000
1100
0000
0000
0001
0010
,  // measure 33
0001
0000
0000
0011
0000
0000
0100
0010
1000
0000
0000
1010
0000
0000
0100
0001
,  // measure 34
0010
0000
0000
0101
0000
0000
1000
0001
1000
0000
0000
1001
0000
0000
1000
0100
,  // measure 35
0010
0000
0000
0011
0000
0000
0001
0010
0100
0000
0000
1100
0000
0000
1000
0100
,  // measure 36
0010
0100
1000
0001
0010
0100
1000
0001
0010
0100
1000
0100
0010
0001
1000
0100
,  // measure 37
0010
0000
0010
0100
0010
0000
1000
0001
,  // measure 38
1000
0010
0100
0001
0010
0001
1000
0010
,  // measure 39
0100
0001
1000
0100
0010
0001
1000
0010
,  // measure 40
1000
0001
0100
0001
0010
0100
0010
1000
,  // measure 41
0002
0000
0000
0000
1003
0000
1000
0020
0000
0030
0100
0000
2000
0000
3001
0020
,  // measure 42
0000
0030
0100
0000
2000
0000
3010
0200
0000
0300
0001
0000
0020
0000
1030
0200
,  // measure 43
0000
0300
0001
0000
2000
0000
3010
0002
0000
0003
0100
0000
0020
0000
0031
0200
,  // measure 44
0000
0300
0001
0000
2000
0000
3010
0200
0000
0000
0020
0000
0330
0000
0000
0000
,  // measure 45
1001
0000
0000
0000
0001
0000
0010
0000
0100
0000
0000
0100
0000
0000
0010
0000
,  // measure 46
0100
0000
0000
1000
0000
0000
0100
0000
1000
0000
0000
0001
0000
0000
0001
0000
,  // measure 47
1000
0000
0000
0000
0100
0000
0010
0000
0100
0000
0000
0001
0000
0000
1000
0000
,  // measure 48
0010
0000
0000
0100
0000
0000
0010
0000
0100
0000
1000
0000
0001
0000
0010
0000
,  // measure 49
0011
0000
0000
0000
0100
0000
0010
0000
1000
0000
0000
0001
0000
0000
0100
0000
,  // measure 50
0010
0000
0000
1000
0000
0000
0100
0000
1000
0000
0000
0001
0000
0000
0001
0000
,  // measure 51
0010
0000
0000
0000
0100
0000
0001
0000
1000
0000
0000
0010
0000
0000
0100
0000
,  // measure 52
0001
0000
0000
1000
0000
0000
0100
0000
1000
0000
0001
0000
0010
0000
0100
0000
,  // measure 53
1000
0100
0010
0001
0010
0100
1000
0100
,  // measure 54
0010
0001
0010
0100
1000
0100
0010
0001
,  // measure 55
0001
0010
0100
1000
0001
0010
0100
1000
0001
0010
0100
1000
0001
0010
0100
1000
,  // measure 56
0002
0000
0000
0000
1003
0001
1000
0001
0000
1000
0001
1000
0001
0000
0000
0000
,  // measure 57
0110
0000
0000
0000
1000
0100
1000
0100
1000
0000
0000
0000
0001
0000
1000
0000
,  // measure 58
1001
0000
0000
0000
0001
0010
0001
0010
0001
0000
0000
0000
0010
0000
0100
0000
,  // measure 59
0110
0000
0000
0000
0100
0010
0100
0010
0100
0000
0000
0000
0010
0000
0100
0000
,  // measure 60
0010
0100
1000
0100
0010
0001
0010
0100
1000
0100
0010
0001
0010
0100
1000
0100
,  // measure 61
0010
0000
0000
0000
1000
0010
1000
0010
1000
0000
0000
0000
0010
0000
1000
0000
,  // measure 62
1001
0000
0000
0000
0001
0100
0001
0100
0001
0000
0000
0000
0001
0000
0100
0000
,  // measure 63
0110
0000
0000
0000
0010
0100
0010
0100
0010
0000
0000
0000
0010
0000
0100
0000
,  // measure 64
1001
0000
0000
0101
0000
0000
1010
0000
0110
0000
0000
0101
0000
0000
1010
0000
,  // measure 65
2002
0000
0000
3003
0010
0100
0010
0000
1000
0001
1000
0000
0001
0100
0001
0000
,  // measure 66
1000
0010
1000
0000
0100
0010
0100
0000
0001
0010
0001
0000
1000
0100
1000
0000
,  // measure 67
0010
0100
1000
0000
0001
0010
0100
0000
1000
0001
1000
0000
0001
1000
0001
0000
,  // measure 68
0010
0100
0001
0000
1000
0010
0100
0000
0010
0100
0001
0000
0001
0010
0100
0000
,  // measure 69
0010
0100
1000
0000
0001
1000
0100
0000
0010
1000
0001
0000
0100
0010
1000
0000
,  // measure 70
0001
0010
0001
0000
1000
0010
1000
0000
0100
0010
1000
0000
0001
0100
0010
0000
,  // measure 71
1000
0100
1000
0000
0001
0010
0001
0000
1000
0010
1000
0000
0001
0100
0001
0000
,  // measure 72
1010
0000
0000
0110
0000
0000
0101
0000
0110
0000
0000
1100
0000
0000
0011
0000
,  // measure 73
1010
0000
0000
0110
0000
0000
0011
0000
0110
0000
0000
1010
0000
0000
1100
0000
,  // measure 74
1001
0000
0000
0000
;

//---------------dance-single - ----------------
#NOTEDATA:;
#CHARTNAME:;
#STEPSTYPE:dance-single;
#DESCRIPTION:;
#CHARTSTYLE:;
#DIFFICULTY:Medium;
#METER:6;
#RADARVALUES:0.335459,0.416210,0.246070,0.140611,0.021092,334.000000,299.000000,35.000000,20.000000,0.000000,0.000000,0.000000,0.000000,0.000000,0.335459,0.416210,0.246070,0.140611,0.021092,334.000000,299.000000,35.000000,20.000000,0.000000,0.000000,0.000000,0.000000,0.000000;
#CREDIT:;
#NOTES:
0000
0000
0000
0000
,
0011
0001
1000
0001
,
1000
0100
0010
1000
,
0010
1000
1000
0001
,
0100
0010
1000
0001
,
0101
1000
0010
0001
,
0100
1000
0010
1000
,
0100
1000
0010
0001
,
0001
1000
0010
0100
,
0010
0100
0100
0010
,
0100
0100
0010
0100
,
0001
1000
0001
1000
0001
1000
0001
1000
,
0200
0000
0000
0000
2000
0000
0000
3300
,
1100
0001
0001
0100
,
1000
0100
0001
0001
,
0010
1000
1000
0001
,
0100
0100
0100
0010
,
0010
0011
0001
0100
,
0010
1000
0010
1000
,
0010
0100
0001
0001
,
0110
1000
0110
0010
,
0011
0010
0010
1000
,
0100
0001
0010
0010
,
0001
1000
0100
0001
,
1000
1000
1000
0001
,
0001
0011
0010
1000
,
0001
0100
0001
0100
,
0001
0100
0010
0010
,
1001
1000
0110
0010
,
0002
0000
0000
0003
0010
0000
0000
0000
1000
0000
0000
0000
0100
0000
0000
0000
,
0001
0010
1000
0100
,
1000
0001
0010
0100
,
1000
0010
0001
0100
,
0010
0100
0001
0010
,
1000
0100
0001
1000
,
1000
0001
0100
0010
,
1000
1000
1000
1000
,
1000
1000
1000
0001
,
0001
0100
1000
0001
,
0100
0001
1000
0001
,
0001
0100
1000
1000
,
0020
0000
0000
0000
0030
0000
0000
2000
0000
3000
0000
0000
0002
0000
0003
2000
,
0000
3000
0000
0000
0002
0000
0003
0200
0000
0300
0000
0000
2000
0000
3000
0000
,
0000
0000
0000
0000
0002
0000
0003
0020
0000
0030
0000
0000
2000
0000
3000
0200
,
0000
0300
0000
0000
0002
0000
0003
0200
0000
0000
2000
0000
3300
0000
0000
0000
,
0011
0010
0100
1000
,
0100
0010
0001
1000
,
0001
0100
0100
0010
,
1000
1000
0100
0010
,
1010
0100
0001
0010
,
1000
0100
0001
0010
,
1000
0100
0001
1000
,
0010
0001
0001
1000
,
0001
1000
1000
0001
,
1000
1000
0001
1000
,
0010
0100
0010
0100
0010
0100
0010
0100
,
0020
0000
0031
0100
0001
0010
1000
0000
,
1100
0001
0101
0010
,
0011
0010
1010
1000
,
1100
0100
1100
1000
,
1000
1100
0001
1010
,
0100
0001
1001
1000
,
0011
0010
0110
0010
,
1100
1000
1100
1000
,
0011
0110
1100
0110
,
0022
0033
1000
0000
0001
0000
0010
0000
,
0001
0100
0010
0001
,
1000
0010
0001
0010
,
1000
0001
1000
0010
,
1000
0010
1000
0100
,
0010
0001
0100
0010
,
0001
0010
0001
0010
,
1001
1000
1100
0001
,
1001
1000
1100
0001
,
1001
0000
0000
0000
;

//---------------dance-single - ----------------
#NOTEDATA:;
#CHARTNAME:;
#STEPSTYPE:dance-single;
#DESCRIPTION:;
#CHARTSTYLE:;
#DIFFICULTY:Easy;
#METER:3;
#RADARVALUES:0.189825,0.234118,0.014061,0.028122,0.000000,189.000000,187.000000,2.000000,4.000000,0.000000,0.000000,0.000000,0.000000,0.000000,0.189825,0.234118,0.014061,0.028122,0.000000,189.000000,187.000000,2.000000,4.000000,0.000000,0.000000,0.000000,0.000000,0.000000;
#CREDIT:;
#NOTES:
0000
0000
0000
0000
,
0010
1000
0000
1000
,
0000
0001
0000
0010
,
0000
0010
0000
1000
,
0000
0100
0000
1000
,
1010
0001
0000
0001
,
0000
1000
0000
1000
,
0000
0001
0000
0010
,
0000
1000
0000
0001
,
0000
0010
0000
0010
,
0000
0001
0000
1000
,
1000
1000
1000
0100
,
0020
0000
0000
0000
0000
0000
0000
0030
,
0001
0000
0001
0000
,
1000
0000
0001
0000
,
1000
0000
0001
0000
,
0010
0000
0001
0000
,
0100
0000
1000
0000
,
1000
0000
0001
0000
,
0010
0000
0100
0000
,
0010
1000
0001
0100
,
0010
0000
1000
0000
,
0010
0000
1000
0000
,
0001
0000
1000
0000
,
1000
0000
0001
0000
,
0001
0000
0010
0000
,
0100
0000
0001
0000
,
1000
0000
0010
0000
,
1000
0000
0100
0100
,
2000
0000
0000
3000
0010
0000
0000
0000
0000
0000
0000
0000
1000
0000
0000
0000
,
0000
0100
0000
0001
,
0000
0001
0000
1000
,
0000
0001
0000
0010
,
0000
1000
0000
1000
,
0000
0010
0000
0001
,
0000
0100
0000
1000
,
0001
0010
1000
1000
,
0100
0000
1000
0000
,
1000
0000
0001
0000
,
1000
0000
1000
0000
,
0001
0000
0010
0000
,
0001
0000
1000
1000
,
1000
0100
0010
1000
,
0000
1000
0010
1000
,
1000
0100
1000
0000
,
1001
0010
0000
0001
,
0000
0001
0000
0100
,
0000
1000
0000
0100
,
0000
0010
0000
0001
,
0000
0100
0000
1000
,
0000
0001
0000
0100
,
0000
0001
0000
0001
,
0000
1000
0000
0001
,
0000
0100
0000
0010
,
0000
0001
0000
0010
,
0001
0001
0100
0100
,
0200
1300
0010
0010
,
0001
0001
1000
0001
,
0100
0010
1000
0001
,
1000
1000
0001
0010
,
0010
0001
1000
1000
,
0010
1000
1000
1000
,
1000
0001
1000
0010
,
1000
0010
0001
0001
,
0001
0010
1000
1000
,
2000
3000
1000
0000
0000
0000
1000
0000
,
0000
1000
0000
0100
,
0000
0001
0000
1000
,
0000
0001
0000
0001
,
0000
0010
0000
0001
,
0000
1000
0000
1000
,
0000
1000
0000
0100
,
0100
0001
0010
0100
,
0100
0010
0010
0100
,
0001
0000
0000
0000
;
