#TITLE:Red Face Sausage;
#SUBTITLE:;
#ARTIST:StripE;
#TITLETRANSLIT:;
#SUBTITLETRANSLIT:;
#ARTISTTRANSLIT:;
#GENRE:;
#CREDIT:;
#BANNER:Red Face Sausage.png;
#BACKGROUND:Red Face Sausage-BG.png;
#LYRICSPATH:;
#CDTITLE:;
#MUSIC:Red Face Sausage.ogg;
#OFFSET:-0.286000;
#SAMPLESTART:54.630001;
#SAMPLELENGTH:12.000000;
#SELECTABLE:YES;
#BPMS:0.000000=148.000000
;
#STOPS:
;
#BGCHANGES:;
#KEYSOUNDS:;
#ATTACKS:;

//---------------dance-single - ----------------
#NOTES:
     dance-single:
     :
     Hard:
     11:
     0.622671,0.848294,0.035727,0.285816,0.629689,488.000000,484.000000,4.000000,32.000000,0.000000,0.000000,0.622671,0.848294,0.035727,0.285816,0.629689,488.000000,484.000000,4.000000,32.000000,0.000000,0.000000:
// measure 0
0000
0000
0000
0000
,  // measure 1
0000
0000
0000
0000
1000
0100
0010
0001
,  // measure 2
0000
1000
0200
0000
0000
0000
0000
0300
,  // measure 3
0000
0000
0001
0000
0001
0100
0010
1000
,  // measure 4
0000
0001
2000
0000
0000
0000
0000
3000
,  // measure 5
0000
0000
0001
0000
1000
0010
0100
0001
,  // measure 6
0000
1000
0020
0000
0000
0000
0000
0030
,  // measure 7
0000
0000
0100
0000
0001
0010
0100
1000
,  // measure 8
0000
0100
0002
0000
0000
0000
0000
0003
,  // measure 9
0000
0000
0000
0000
0100
0001
1000
0010
,  // measure 10
0000
0100
0002
0000
0000
0000
0000
0003
,  // measure 11
0000
0000
0010
0000
0010
0001
1000
0100
,  // measure 12
0000
0010
0200
0000
0000
0000
0000
0300
,  // measure 13
0000
0000
0010
0000
0100
1000
0001
0010
,  // measure 14
0000
0100
2000
0000
0000
0000
0000
3000
,  // measure 15
0000
0000
0001
0000
0010
1000
0001
0100
,  // measure 16
0000
0001
0020
0000
0000
0000
0000
0030
,  // measure 17
0000
0000
0000
0000
0010
1000
0001
0100
,  // measure 18
0000
0010
2000
0000
0000
0000
0000
3000
,  // measure 19
0000
0000
0100
0000
0100
1000
0001
0010
,  // measure 20
0000
0100
0020
0000
0000
0000
0000
0030
,  // measure 21
0000
0000
0100
0000
0010
0001
1000
0100
,  // measure 22
0000
0010
0002
0000
0000
0000
0000
0003
,  // measure 23
0000
0000
1000
0000
0100
0001
1000
0010
,  // measure 24
0000
1000
0200
0000
0000
0000
0000
0300
,  // measure 25
0000
0000
0000
0000
0000
0000
0000
0000
1001
0000
0000
1000
0001
0000
0100
0000
,  // measure 26
0000
0010
0000
0000
0100
0000
0010
0001
1000
0000
0000
0010
0000
0000
1000
0000
,  // measure 27
0000
0001
0000
0000
1000
0000
0100
1000
0100
0000
0000
0010
0000
0000
0100
0000
,  // measure 28
0000
0001
0000
0000
1000
0000
0001
0100
0001
0000
0000
0010
0000
0000
1000
0000
,  // measure 29
0000
0001
0000
0000
0100
0000
0010
0100
0010
0000
0001
0100
0001
0000
1000
0010
,  // measure 30
1000
0000
0001
1000
0001
0000
1000
0100
1000
0000
0010
0001
0010
0000
1000
0010
,  // measure 31
1000
0000
0001
0100
0001
0000
1000
0100
0010
0001
0010
0100
1000
0100
0010
0001
,  // measure 32
0010
0100
1000
0100
0010
0001
0010
0000
0000
0000
0000
0000
0000
0000
0000
0000
,  // measure 33
0000
0000
1010
0000
1010
0000
0000
0000
0001
0000
0100
0000
0010
0100
1000
0000
,  // measure 34
0001
0010
0100
0010
0001
0000
1000
0010
1000
0010
1000
0000
0000
0000
0001
0100
,  // measure 35
0001
0000
0100
0000
0001
2000
0000
0000
3001
0000
0010
0000
0100
0010
0001
0010
,  // measure 36
0100
0000
1000
0000
0010
0100
0010
0100
0000
0000
0001
0100
0000
0000
0001
0010
,  // measure 37
0100
1000
0100
0010
0001
0000
2000
0000
3100
0000
0000
0000
0001
1000
0010
0000
,  // measure 38
0100
0001
1000
0001
0100
0000
0010
0001
0010
0001
0010
0000
0000
0000
0100
1000
,  // measure 39
0100
0000
1000
0000
0100
0020
0000
0000
0130
0000
0001
0000
1000
0001
0100
0001
,  // measure 40
1000
0000
0010
0000
0001
1000
0001
1000
0000
0000
1000
0100
1000
0100
1000
0100
,  // measure 41
0010
0001
0010
0100
1000
0100
0020
0000
0030
0000
1000
0000
1000
0001
0100
0000
,  // measure 42
0010
1000
0001
1000
0010
0000
0100
1000
0100
1000
0100
0000
0000
0000
0010
0001
,  // measure 43
0010
0000
0001
0000
0010
0200
0000
0000
0310
0000
1000
0000
0001
1000
0010
1000
,  // measure 44
0001
0000
0100
0000
1000
0001
1000
0001
0000
0000
0010
0001
0000
0000
0010
1000
,  // measure 45
0001
0100
0001
1000
0010
0000
0200
0000
1300
0000
0000
0000
0100
0010
0001
0000
,  // measure 46
1000
0100
0010
0100
1000
0000
0001
0100
0001
0100
0001
0000
0000
0000
1000
0010
,  // measure 47
1000
0000
0010
0000
1000
0002
0000
0000
1003
0000
0000
1000
0100
0000
0100
0010
,  // measure 48
0001
2000
3010
0100
0010
0001
0010
0100
,  // measure 49
1000
0000
0001
0000
1001
0000
0000
0000
0010
0000
0001
0000
1000
0001
0100
0000
,  // measure 50
0010
1000
0001
1000
0010
0000
0100
1000
0100
1000
0100
0000
0000
0000
0010
0001
,  // measure 51
0010
0000
0001
0000
0010
0200
0000
0000
0310
0000
1000
0000
0001
1000
0010
1000
,  // measure 52
0001
0000
0100
0000
1000
0001
1000
0001
0000
0000
0010
0001
0000
0000
0010
1000
,  // measure 53
0001
0100
0001
1000
0010
0000
0200
0000
0301
0000
0000
0000
0010
0100
1000
0000
,  // measure 54
0001
0010
0100
0010
0001
0000
1000
0010
1000
0010
1000
0000
0000
0000
0001
0100
,  // measure 55
0001
0000
0100
0000
0001
2000
0000
0000
3001
0000
0010
0000
0100
0010
0001
0010
,  // measure 56
0100
0000
1000
0000
0010
0100
0010
0100
0000
0000
0002
0000
0103
0001
0100
0001
,  // measure 57
2000
0000
0000
0000
0020
0000
0000
3030
1000
0000
0100
0000
0001
1000
0010
0000
,  // measure 58
0100
0001
1000
0001
0100
0000
0010
0001
0010
0001
0010
0000
0000
0000
0100
1000
,  // measure 59
0100
0000
1000
0000
0100
0020
0000
0000
0130
0000
0001
0000
1000
0001
0100
0001
,  // measure 60
1000
0000
0010
0000
0001
1000
0001
1000
0000
0000
0100
1000
0000
0000
0100
0001
,  // measure 61
2000
0000
3000
0001
0100
0000
0020
0000
1030
0000
0000
0000
0100
0010
0001
0000
,  // measure 62
1000
0100
0010
0100
1000
0000
0001
0100
0001
0100
0001
0000
0000
0000
1000
0010
,  // measure 63
1000
0000
0010
0000
1000
0002
0000
0000
1003
0000
0100
0000
0010
0100
1000
0100
,  // measure 64
0010
0000
0001
0000
0100
0010
0100
0010
0000
0000
0010
1000
0010
1000
0010
1000
,  // measure 65
0001
0100
0001
1000
0020
0000
0032
0000
0003
0000
0000
0000
0000
0000
0000
0000
;

//---------------dance-single - ----------------
#NOTES:
     dance-single:
     :
     Medium:
     5:
     0.276885,0.292515,0.026795,0.089318,0.000000,217.000000,214.000000,3.000000,10.000000,0.000000,0.000000,0.276885,0.292515,0.026795,0.089318,0.000000,217.000000,214.000000,3.000000,10.000000,0.000000,0.000000:
0000
0000
0000
0000
,
0000
0000
0010
1000
,
0000
0001
1000
0000
0000
0000
0000
0000
,
0000
0001
0001
1000
,
0000
0001
0010
0000
0000
0000
0000
0000
,
0000
0001
0010
0100
,
0000
0010
1000
0000
0000
0000
0000
0000
,
0000
0100
0001
0100
,
0000
0100
0001
0000
0000
0000
0000
0000
,
0000
0000
0100
0010
,
0000
0100
0001
0000
0000
0000
0000
0000
,
0000
1000
1000
0010
,
0000
1000
0100
0000
0000
0000
0000
0000
,
0000
1000
0100
0001
,
0000
0100
0010
0000
0000
0000
0000
0000
,
0000
0001
1000
0001
,
0000
0001
1000
0000
0000
0000
0000
0000
,
0000
0000
1000
0001
,
0000
1000
0010
0000
0000
0000
0000
0000
,
0000
0100
0100
0001
,
0000
0100
1000
0000
0000
0000
0000
0000
,
0000
0100
1000
0010
,
0000
1000
0001
0000
0000
0000
0000
0000
,
0000
0010
0100
0010
,
0000
0010
0100
0000
0000
0000
0000
0000
,
0000
0000
0011
0001
,
0100
0100
0010
0001
,
0100
0010
1000
0001
,
1000
0010
0100
1000
,
0001
0010
0100
1000
,
0100
0010
1000
0001
,
0100
0001
1000
0100
,
0001
0100
0000
0000
,
0000
1000
1010
0000
0001
0000
1000
0000
,
0001
0001
0010
1000
,
0001
0020
0031
0100
,
0010
0001
1000
0001
,
0010
1000
0100
0001
,
0010
0100
1000
0001
,
0100
2000
3100
0010
,
0010
0001
1000
0100
,
1000
0010
0100
0010
,
1000
0100
0010
0100
,
1000
0200
1300
0001
,
0001
0010
0100
1000
,
0001
1000
0010
0100
,
0010
0010
0001
1000
,
0010
0002
0013
0100
,
0001
0100
0010
1000
,
0010
0011
1000
0010
,
0100
1000
0100
0010
,
1000
0200
1300
0001
,
0001
0010
0001
1000
,
0001
0010
0001
1000
,
0001
0001
0010
0100
,
0001
0020
0031
0100
,
0100
1000
0001
0100
,
0020
0000
1030
0001
,
0010
0100
1000
0001
,
0100
0010
1000
0001
,
0010
0001
1000
0100
,
0020
0130
0001
0100
,
0010
0100
0001
1000
,
0010
0002
0013
1000
,
0100
0001
0010
1000
,
0001
0002
0003
0000
;

//---------------dance-single - ----------------
#NOTES:
     dance-single:
     :
     Easy:
     3:
     0.162048,0.175509,0.008932,0.008932,0.000000,127.000000,126.000000,1.000000,1.000000,0.000000,0.000000,0.162048,0.175509,0.008932,0.008932,0.000000,127.000000,126.000000,1.000000,1.000000,0.000000,0.000000:
0000
0000
0000
0000
,
0000
0000
1000
0010
,
0000
0010
0000
0000
,
0000
0001
0001
0010
,
0000
1000
0000
0000
,
0000
0001
1000
0100
,
0000
0010
0000
0000
,
0000
0100
0001
0100
,
0000
0001
0000
0000
,
0000
0000
0100
1000
,
0000
0001
0000
0000
,
0000
0010
0010
1000
,
0000
0100
0000
0000
,
0000
0010
0100
0001
,
0000
1000
0000
0000
,
0000
0001
0010
0001
,
0000
0010
0000
0000
,
0000
0000
0010
0001
,
0000
1000
0000
0000
,
0000
0100
0100
0001
,
0000
0010
0000
0000
,
0000
0100
0010
1000
,
0000
0001
0000
0000
,
0000
1000
0100
1000
,
0000
0100
0000
0000
,
0000
0000
1001
0000
,
0100
0000
1000
0000
,
0100
0000
0010
0000
,
0010
0000
0100
0000
,
0001
0000
0100
0000
,
0100
0000
0010
0000
,
0100
0000
0010
0000
,
0001
0000
0000
0000
,
0000
0010
1000
0000
0001
0000
0000
0000
,
0001
0000
1000
0000
,
0001
0000
0001
0000
,
1000
0000
0010
0000
,
1000
0000
0100
0000
,
1000
0000
0010
0000
,
0100
0000
0100
0000
,
1000
0000
0010
0000
,
0010
0000
0001
0000
,
0010
0000
1000
0000
,
0010
0000
0010
0000
,
0001
0000
0100
0000
,
0001
0000
1000
0000
,
1000
0000
0001
0000
,
1000
0000
1000
0000
,
0001
0000
1000
0000
,
1000
0000
0100
0000
,
1000
0000
0010
0000
,
0001
0000
0010
0000
,
0001
0000
0100
0000
,
0001
0000
0100
0000
,
0001
0000
1000
0000
,
0001
0000
0001
0000
,
0100
0000
0001
0000
,
2000
0000
3000
0001
,
0000
0100
0000
0001
,
0000
1000
0000
0001
,
0000
0001
0000
0100
,
0000
0010
0000
0001
,
0000
0100
0000
0010
,
1000
0000
1000
0000
,
0100
0000
1000
0000
,
0001
0000
0001
0000
;
