#TITLE:ROTAT!ON;
#SUBTITLE:;
#ARTIST:JointPocket;
#TITLETRANSLIT:;
#SUBTITLETRANSLIT:;
#ARTISTTRANSLIT:;
#GENRE:;
#CREDIT:;
#BANNER:ROTATION.png;
#BACKGROUND:ROTATION-BG.png;
#LYRICSPATH:;
#CDTITLE:;
#MUSIC:ROTATION.ogg;
#OFFSET:-3.677000;
#SAMPLESTART:17.436001;
#SAMPLELENGTH:12.000000;
#SELECTABLE:YES;
#BPMS:0.000000=133.000000
,256.000000=170.000000
;
#STOPS:
;
#BGCHANGES:;
#KEYSOUNDS:;
#ATTACKS:;

//---------------dance-single - ----------------
#NOTES:
     dance-single:
     :
     Hard:
     11:
     0.599022,0.732710,0.094077,0.134396,0.305751,624.000000,610.000000,14.000000,20.000000,0.000000,0.000000,0.599022,0.732710,0.094077,0.134396,0.305751,624.000000,610.000000,14.000000,20.000000,0.000000,0.000000:
1000
0000
0010
0100
0001
0000
0010
0100
,
1000
0000
0000
0001
0100
0000
0010
0000
1000
0000
0002
0000
1003
0000
2000
0000
,
3010
0000
0100
0010
1000
0000
0001
0100
,
0010
0000
0000
1000
0010
0000
0100
0000
0001
2000
3000
0020
0032
0003
0200
0000
,
0310
0000
1000
0100
0010
0000
0100
0001
,
0010
0000
0000
0000
1000
0000
0001
0000
0100
0001
0000
0000
1000
0000
0000
0000
,
0010
0000
0000
0000
0100
0000
0000
0000
0001
1000
0000
0000
0010
0000
0000
0000
,
0100
0000
0001
0010
1000
0000
0000
0000
,
1000
0001
0100
0010
1000
0100
1000
0001
,
0010
0001
0100
0010
0001
1000
0010
0100
,
1000
0000
0001
0000
0100
0001
0100
0001
0100
0000
0010
0000
1000
0010
1000
0010
,
1000
0000
0001
0000
1000
0100
0010
0001
0010
0100
1000
0000
0002
0000
0000
0000
,
1003
1010
0010
0110
,
0100
0000
0101
0000
0001
0000
1000
0100
,
0010
0001
1000
0010
0100
0001
1000
0001
,
1000
0001
1000
0001
1000
0001
1000
0001
1000
0000
0000
0000
0000
0000
0000
0000
,
0001
1000
0010
0100
0001
0010
0100
1000
,
0000
0001
0000
1000
0001
0000
0100
0000
0000
0010
0000
0100
0001
0000
1000
0000
,
0000
0000
0010
0100
0000
0000
0001
0000
1000
0000
0100
0010
0001
0010
0100
0000
,
0000
0010
1000
0001
0200
0000
0301
0000
,
1000
0010
0100
0010
0001
1000
0100
0010
,
0100
1000
0001
0010
0100
1000
0001
0000
,
1001
0000
1000
0010
0100
0000
0001
0000
,
0010
1000
0010
0100
0001
0100
0000
0000
,
0100
0010
0001
1000
0100
0001
0100
0010
,
1000
0010
0001
1000
0010
0100
1000
0001
,
0100
0000
0010
0000
0001
0010
0001
0010
0001
0000
1000
0000
0100
1000
0100
1000
,
0100
0000
0010
0000
0100
0001
1000
0010
1000
0001
0100
0000
0020
0000
0000
0000
,
0130
1100
1000
1001
,
0001
0000
0011
0000
0010
0000
0100
0001
,
1000
0010
0100
1000
0001
0010
0100
0010
,
0100
0010
0100
0010
0100
0010
0100
0010
0100
0000
0000
0000
0000
0000
0000
0000
,
0001
0100
0001
1000
0010
0100
1000
0000
,
0001
0100
1000
0010
0100
0001
0020
0000
,
1030
0100
1000
0010
0100
0001
0010
0100
,
1000
0100
0010
0001
0020
0000
0030
0000
,
1000
0000
1000
0001
0000
0010
0100
0001
,
0010
0000
0100
0020
1000
0000
1000
0000
,
1030
0100
0002
0000
1000
0000
1003
0000
,
0010
0100
0001
0000
,
1000
0000
0100
1000
0000
0000
0010
0000
0100
0000
0010
0100
0000
0000
0001
0010
,
0001
0000
1000
0000
0100
0000
0010
1000
0010
0000
0100
0001
0000
0000
0010
0100
,
1000
0000
0001
0100
0000
0000
0010
0000
0100
0000
0001
1000
0000
0000
1000
0000
,
0010
0100
0001
0100
1000
0010
0200
0000
,
0301
0000
0010
0100
1000
0000
0001
0100
0001
0000
1000
0010
0000
0100
0000
0000
,
1000
0100
0010
0100
1000
0000
0000
0000
0001
0010
0100
0010
0001
0000
0000
0000
,
1000
0100
0010
0100
1000
0100
0010
0000
0100
0010
0001
0010
0100
0010
0001
0000
,
1001
0000
0000
0000
1001
0000
0000
1001
0000
0000
0000
0000
0000
0000
0000
0000
,
0010
0100
1000
0001
0010
1000
0010
0100
,
0001
0100
1000
0001
0100
0010
0001
1000
,
0010
0000
0100
0000
1000
0100
1000
0100
1000
0000
0001
0000
0010
0001
0010
0001
,
0010
0000
0100
0000
0010
1000
0001
0100
0001
1000
0010
0000
0200
0000
0000
0000
,
0310
0010
0001
1000
0100
0001
0100
0010
,
1000
0010
0001
1000
0010
0100
1000
0001
,
0100
0000
0010
0000
0001
0010
0001
0010
0001
0000
1000
0000
0100
1000
0100
1000
,
0100
0000
0010
0000
0100
0001
1000
0010
1000
0001
0100
0000
0020
0000
0000
0000
,
0130
1000
0010
0100
0001
0010
0001
1000
,
0100
1000
0010
0100
1000
0001
0100
0010
,
0001
0000
1000
0000
0010
1000
0010
1000
0010
0000
0100
0000
0001
0100
0001
0100
,
0001
0000
1000
0000
0001
0010
0100
1000
0100
0010
0001
0000
2000
0000
0000
0000
,
3001
0101
0100
0110
,
0010
0000
1010
0000
1000
0000
0001
0010
,
0100
1000
0001
0100
0010
1000
0001
1000
,
0001
1000
0001
1000
0001
1000
0001
1000
0001
0000
0000
0000
0000
0000
0000
0000
,
1000
0000
0001
0100
0000
0000
0010
0000
1000
0000
0100
0000
0010
0000
0001
0000
,
0000
1000
0000
0001
1000
0000
0010
0000
0000
0100
0000
0010
1000
0000
0001
0000
,
0000
0000
0100
0010
0000
0000
1000
0000
0001
0000
0010
0100
1000
0100
0010
0000
,
0000
0100
0001
1000
0020
0000
1030
0000
,
0001
0100
0010
0100
1000
0001
0010
0100
,
0010
0001
1000
0100
0010
0001
1000
0000
,
1001
0000
0001
0100
0010
0000
1000
0000
,
0100
0001
0100
0010
1000
0010
0000
0000
,
1000
0100
0010
0001
1000
0100
1000
0010
,
0001
0010
0100
1000
0010
0000
0000
0010
,
0100
0001
0010
0100
1000
0100
0001
0010
,
0200
0000
0301
1000
0010
0100
0000
0010
,
0100
0001
0010
0100
1000
0100
0010
0001
,
1000
0010
0100
0001
1000
0100
0000
0010
,
0100
0010
0001
1000
0100
0010
0100
0010
,
0001
0010
0100
1000
0010
0100
0001
0010
,
2000
0000
0000
0000
,
0000
0000
0000
0000
,
0000
0000
0000
0000
,
3000
0000
0000
0000
0000
0010
0100
0001
;

//---------------dance-single - ----------------
#NOTES:
     dance-single:
     :
     Medium:
     6:
     0.306231,0.309993,0.033599,0.060478,0.003360,319.000000,314.000000,5.000000,9.000000,0.000000,0.000000,0.306231,0.309993,0.033599,0.060478,0.003360,319.000000,314.000000,5.000000,9.000000,0.000000,0.000000:
0001
0100
0010
0100
,
0001
1000
0001
0001
,
0100
1000
0001
0010
,
0100
0100
0010
0010
,
0100
0001
0100
0010
,
0100
0001
1000
0001
,
0100
1000
0010
0100
,
1000
0010
0001
0000
,
0001
1000
0100
0010
,
0100
1000
0010
0100
,
0001
1000
1000
0001
,
0010
0001
0100
0020
,
0030
0001
1000
0100
,
0011
0100
1000
0001
,
0100
0010
1000
0001
,
0001
1000
0100
0010
0001
0000
0000
0000
,
0010
0100
0010
1000
,
0001
0010
0100
0010
,
0001
1000
0001
0010
,
0100
0001
2000
3000
,
0001
1000
0010
0100
,
0001
0010
1000
0010
,
0011
0001
1000
0010
,
0100
0100
0010
0000
,
1000
0100
0001
0010
,
0001
0100
0100
0001
,
1000
0010
0010
1000
,
1000
1000
0001
0200
,
0300
0001
0001
0011
,
0010
0100
0100
1000
,
0001
1000
0010
1000
,
1000
0100
1000
0100
1000
0000
0000
0000
,
0010
0010
0100
0001
,
0010
0001
1000
0100
,
0010
0001
1000
0100
,
0001
0100
1000
0010
,
0001
0001
0100
1000
,
0010
1000
0001
0010
,
0001
0100
1000
0001
,
0100
1000
0010
0000
,
0001
1000
1000
0100
,
0010
1000
0100
0010
,
0001
0100
1000
0010
,
0100
0010
0001
1000
,
0010
0001
0100
1000
,
0010
0001
0100
0010
,
0100
0001
0010
1000
,
0001
0000
0000
0000
0010
0000
0000
0011
0000
0000
0000
0000
0000
0000
0000
0000
,
0100
0001
1000
0100
,
0010
0001
1000
0010
,
0100
0001
0001
0100
,
1000
0100
0010
2000
,
3000
0010
1000
1000
,
0001
0010
0100
0001
,
1000
0010
0010
1000
,
1000
1000
0001
0200
,
0300
0100
0010
0010
,
1000
0100
0001
1000
,
0010
0100
0100
0010
,
0010
0010
1000
0002
,
0003
0010
1000
1100
,
0100
0001
0001
0010
,
1000
0010
0100
0010
,
0010
1000
0010
1000
0010
0000
0000
0000
,
0001
0100
0001
0100
,
0010
1000
0100
0001
,
0010
1000
0010
0001
,
0100
0010
0200
0300
,
0010
0100
1000
0100
,
0010
0001
0100
1000
,
0010
0010
0100
0001
,
1000
1000
0001
0000
,
0001
0100
1000
0010
,
0100
1000
0100
0001
,
1000
0100
0001
0010
,
2000
3000
0100
0001
,
1000
0100
0010
0100
,
0001
1000
0001
0010
,
0100
0010
0001
1000
,
0010
1000
0001
0010
,
0002
0000
0000
0000
,
0000
0000
0000
0000
,
0000
0000
0000
0000
,
0003
0000
0000
0000
0000
0100
1000
0010
;

//---------------dance-single - ----------------
#NOTES:
     dance-single:
     :
     Easy:
     2:
     0.161275,0.169087,0.000000,0.006720,0.003360,168.000000,168.000000,0.000000,1.000000,0.000000,0.000000,0.161275,0.169087,0.000000,0.006720,0.003360,168.000000,168.000000,0.000000,1.000000,0.000000,0.000000:
// measure 0
0010
0000
0100
0000
,  // measure 1
0010
0000
0001
0000
,  // measure 2
1000
0000
0010
0000
,  // measure 3
1000
0000
0100
0000
,  // measure 4
1000
0000
0010
0000
,  // measure 5
1000
0000
0001
0000
,  // measure 6
1000
0000
0100
0000
,  // measure 7
0001
0000
0010
0000
,  // measure 8
0010
0000
1000
0000
,  // measure 9
1000
0000
0100
0000
,  // measure 10
0010
0000
0001
0000
,  // measure 11
0100
0000
1000
0000
,  // measure 12
0100
0000
0001
0000
,  // measure 13
0100
0000
0001
0000
,  // measure 14
1000
0000
0001
0000
,  // measure 15
0010
1000
0010
0000
,  // measure 16
0100
0000
0100
0000
,  // measure 17
0010
0000
1000
0000
,  // measure 18
0010
0000
0010
0000
,  // measure 19
1000
0000
0001
0000
,  // measure 20
0010
0000
0100
0000
,  // measure 21
0010
0000
0001
0000
,  // measure 22
0010
0000
0001
0000
,  // measure 23
1000
0000
0100
0000
,  // measure 24
0001
0000
0010
0000
,  // measure 25
0010
0000
1000
0000
,  // measure 26
0001
0000
0100
0000
,  // measure 27
0001
0000
0010
0000
,  // measure 28
1000
0000
0010
0000
,  // measure 29
0100
0000
1000
0000
,  // measure 30
0010
0000
0100
0000
,  // measure 31
0001
0010
0001
0000
,  // measure 32
0100
0000
1000
0000
,  // measure 33
0100
0000
0001
0000
,  // measure 34
0100
0000
0001
0000
,  // measure 35
0010
0000
0001
0000
,  // measure 36
0010
0000
1000
0000
,  // measure 37
0100
0000
0010
0000
,  // measure 38
0010
0000
0001
0000
,  // measure 39
1000
0000
0100
0000
,  // measure 40
0010
0000
0001
0000
,  // measure 41
0100
0000
1000
0000
,  // measure 42
0010
0000
0001
0000
,  // measure 43
1000
0000
0010
0000
,  // measure 44
0100
0000
1000
0000
,  // measure 45
0100
0000
1000
0000
,  // measure 46
1000
0000
0100
0000
,  // measure 47
0010
0000
0000
0000
0100
0000
0000
0010
0000
0000
0000
0000
0000
0000
0000
0000
,  // measure 48
1000
0000
0001
0000
,  // measure 49
0100
0000
0001
0000
,  // measure 50
1000
0000
0010
0000
,  // measure 51
0001
0000
0100
0000
,  // measure 52
0001
0000
0001
0000
,  // measure 53
0010
0000
1000
0000
,  // measure 54
0001
0000
0100
0000
,  // measure 55
0001
0000
0010
0000
,  // measure 56
1000
0000
0100
0000
,  // measure 57
0001
0000
0010
0000
,  // measure 58
0100
0000
1000
0000
,  // measure 59
0100
0000
0001
0000
,  // measure 60
0010
0000
0001
0000
,  // measure 61
1000
0000
0010
0000
,  // measure 62
0001
0000
1000
0000
,  // measure 63
0100
0100
0100
0000
,  // measure 64
0010
0000
0010
0000
,  // measure 65
0100
0000
1000
0000
,  // measure 66
0100
0000
0100
0000
,  // measure 67
1000
0000
1000
0000
,  // measure 68
0100
0000
0001
0000
,  // measure 69
0100
0000
1000
0000
,  // measure 70
0100
0000
1000
0000
,  // measure 71
0001
0000
0010
0000
,  // measure 72
0010
0000
0001
0000
,  // measure 73
1000
0000
0100
0000
,  // measure 74
0001
0000
0010
0000
,  // measure 75
0001
0000
1000
0000
,  // measure 76
0001
0000
0100
0000
,  // measure 77
0010
0000
0010
0000
,  // measure 78
1000
0000
0010
0000
,  // measure 79
0100
0000
0010
0000
,  // measure 80
0020
0000
0000
0000
,  // measure 81
0000
0000
0000
0000
,  // measure 82
0000
0000
0000
0000
,  // measure 83
0030
0000
0000
0000
0000
1000
0001
0100
;
