#TITLE:Presto;
#SUBTITLE:;
#ARTIST:Osamu Kubota;
#TITLETRANSLIT:;
#SUBTITLETRANSLIT:;
#ARTISTTRANSLIT:;
#GENRE:;
#CREDIT:;
#BANNER:Presto.png;
#BACKGROUND:Presto-BG.png;
#LYRICSPATH:;
#CDTITLE:;
#MUSIC:Presto.ogg;
#OFFSET:-0.531000;
#SAMPLESTART:41.118999;
#SAMPLELENGTH:24.000000;
#SELECTABLE:YES;
#BPMS:0.000000=136.000000
;
#STOPS:
;
#BGCHANGES:0.500=Presto.avi=1.000=0=0=1=====,
99999=-nosongbg-=1.000=0=0=0 // don't automatically add -songbackground-
;
#KEYSOUNDS:;
#ATTACKS:;

//---------------dance-single - ----------------
#NOTES:
     dance-single:
     :
     Hard:
     10:
     0.553529,0.840344,0.178375,0.069368,0.812597,391.000000,373.000000,18.000000,7.000000,0.000000,0.000000,0.553529,0.840344,0.178375,0.069368,0.812597,391.000000,373.000000,18.000000,7.000000,0.000000,0.000000:
1000
0000
0001
0000
,
0000
0000
0010
0000
,
0100
0000
0000
0000
,
0000
0000
0010
0000
,
1000
0000
0100
0000
,
0000
0000
0001
0000
,
1000
0000
0000
0000
0000
0000
0010
0100
1000
0000
0001
0000
0100
0000
0010
0000
,
1000
0000
0100
0010
0001
0000
0000
0000
0100
0000
0000
0000
0010
0000
0000
0000
,
1000
0000
0000
0000
0001
0000
0000
0000
0100
0010
0001
0010
0100
1000
0100
0010
,
0001
0000
0000
0000
1000
0000
0000
0000
0001
0000
0000
0000
1000
0000
0010
0000
1000
0000
0000
0000
0000
0001
0010
0100
1000
0000
0000
0000
0100
0000
0000
0000
,
0001
0000
0000
0000
0010
0000
1000
0100
1000
0000
0000
0000
0100
0000
0010
0001
,
0010
0000
0000
0000
1000
0000
0010
0100
0010
0000
0000
0000
1000
0000
0001
0010
,
0100
0010
0000
0100
0000
1000
0000
0001
1000
0010
0000
0100
0000
0000
0000
0000
,
0010
1000
0000
0001
0000
0000
0000
0000
0100
0010
0000
1000
0000
0000
1000
0100
,
0010
0001
0000
0100
0000
0010
0000
1000
0001
0000
0000
0100
0000
0000
0000
0100
,
0010
0000
0000
1000
0000
0000
0000
0001
0100
0000
0000
0010
0000
0000
0000
0000
,
1000
0100
0010
0100
1000
0100
0000
0010
0000
0100
0000
0001
0000
0000
0000
0001
,
1000
0000
0000
0100
0010
0000
0000
1000
0000
0001
0000
0100
0000
0000
0010
0100
,
0001
0010
0100
1000
0010
0100
0001
0000
0000
0010
0000
0000
,
1000
0000
0000
0000
0010
0000
0000
0000
0100
0000
0000
0000
0001
0000
0000
0000
0100
0000
0000
0000
0010
0000
0000
0000
1000
0000
0000
0000
0000
0000
0000
0000
0000
0010
0000
0000
0000
0000
0000
0000
0000
0000
0000
0000
0000
0000
0000
0000
,
0100
0000
0000
0010
0000
0000
0000
0000
0001
0000
0000
0100
0010
0000
1000
0000
,
0010
0100
0001
0010
,
1000
0100
0000
0010
0000
0100
0010
0001
0000
1000
0000
0010
0100
0000
0010
0001
,
1000
0100
0010
0100
1000
0000
0000
0000
1010
0000
0000
0000
0101
0000
0000
0000
,
0110
1100
1010
0101
,
0001
0010
0100
0010
0001
0000
0000
0000
1010
0000
0000
0000
1100
0000
0000
0000
,
0101
0000
0011
0000
0110
0000
1000
0100
,
0001
0010
0100
1000
0000
0100
0010
0001
0000
0000
0000
0000
0000
0000
0000
0000
,
0000
0000
1000
0100
0010
0000
0000
0010
,
0100
0000
0001
0000
,
0000
0001
0000
0100
1000
0000
0000
0010
,
0010
0000
0100
0000
,
0010
0000
1000
0100
1000
0000
0000
0001
,
0001
0000
0010
0000
,
0200
0000
0000
0000
0020
0000
0000
0330
,
2002
0000
0000
0000
0000
0000
0003
0000
0020
0000
0000
0000
3030
1000
0100
0010
,
0001
0010
0000
0100
0000
0010
0000
1000
0010
0100
0001
1000
0000
0010
0000
0000
,
0000
0100
0000
0010
0100
1000
0100
0010
0000
0100
0010
0001
0010
0100
0000
0010
,
1000
0010
1000
0010
0000
0100
0001
0100
0001
0100
0000
1000
0001
1000
0000
0000
,
0000
1000
0100
1000
0010
0100
0010
0001
1000
0100
0010
0000
0001
0000
0000
0000
,
0010
0100
1000
0100
0010
0000
0000
0001
0000
0100
0000
0010
0000
0000
0000
0000
,
0001
0010
0100
0010
0001
0000
0000
1000
0000
0010
0000
0100
0000
0000
0010
0000
,
1000
0100
0010
0100
1000
0001
0010
0100
0010
0001
1000
0100
,
0010
0001
1000
0100
1000
0001
0010
0001
0100
0010
0000
0000
,
1000
0010
1000
0010
1000
0000
0001
0010
0100
0010
0001
0010
0100
1000
0100
0010
,
0100
1000
0100
0010
0001
0010
0100
1000
0100
0010
0001
1000
0100
1000
0100
0010
,
0001
0010
0100
0010
0001
0000
0000
1000
0010
1000
0010
0000
0000
0100
0000
0000
,
0001
0010
0100
0010
0001
0000
0000
1000
0000
0000
0001
0000
1000
0000
0000
0000
,
0001
0010
0100
1000
0100
0010
0001
0010
0100
0010
0001
0010
0100
1000
0100
0010
,
0100
1000
0100
0010
0001
0010
0001
0010
0100
1000
0100
1000
0100
0000
0010
0000
,
0001
0101
1010
0110
,
1001
0000
0000
0000
1100
0000
0000
0000
0011
0000
1000
0100
0010
0002
2000
0000
,
0000
0000
0000
0000
,
3003
0000
0000
0000
;

//---------------dance-single - ----------------
#NOTES:
     dance-single:
     :
     Medium:
     6:
     0.277472,0.341390,0.099097,0.049549,0.004955,196.000000,186.000000,10.000000,5.000000,0.000000,0.000000,0.277472,0.341390,0.099097,0.049549,0.004955,196.000000,186.000000,10.000000,5.000000,0.000000,0.000000:
0001
0000
1000
0000
,
0000
0000
0100
0000
,
0010
0000
0000
0000
,
0000
0000
0100
0000
,
0001
0000
0010
0000
,
0000
0000
1000
0000
,
0001
0100
0001
0010
,
0001
1000
0010
0100
,
0001
1000
0010
0010
,
1000
1000
0001
0001
,
1000
0100
0001
0010
,
0100
0001
0100
0001
,
0010
0100
0001
1000
,
0100
0001
0010
0001
,
0100
0010
1000
0001
,
0100
1000
0010
0100
,
0001
0100
0001
0000
1000
0000
1000
0000
,
0001
0010
0100
0000
0010
0000
0100
0000
,
1000
0001
1000
0100
,
0001
1000
0001
0100
,
0010
0001
1000
0100
,
0100
0010
1000
0100
,
0001
0010
1000
0010
,
0001
0001
0100
1010
,
0100
0011
0100
1010
,
1000
1000
0101
0001
,
1010
0000
1000
0000
0110
0000
0001
0010
,
1000
0010
1000
0000
,
0000
0000
0001
0010
0100
0000
0000
0100
,
0010
0000
1000
0000
,
0000
1000
0000
0010
0001
0000
0000
0100
,
0100
0000
0010
0000
,
0100
0000
0001
0010
0001
0000
0000
1000
,
1000
0000
0100
0000
,
0020
0000
0000
0000
0000
0000
0000
0030
,
0102
0000
0200
0303
,
1000
0100
0100
0001
,
1000
0010
0100
0100
,
0001
1000
0010
1000
,
0100
0100
0001
1000
,
0100
0100
0010
0001
,
1000
1000
0010
0100
,
0001
0010
0100
1000
,
0100
0010
0100
0001
,
1000
0001
0010
0100
,
0010
1000
0010
0010
,
1000
1000
0100
0010
,
1000
1000
0100
0001
,
1000
0010
0100
0001
,
1000
0010
0100
0001
,
1010
0110
0001
0110
,
0001
0000
0000
0000
0010
0000
0000
0000
1000
0000
0001
0000
0000
0002
2000
0000
,
0000
0000
0000
0000
,
3003
0000
0000
0000
;

//---------------dance-single - ----------------
#NOTES:
     dance-single:
     :
     Easy:
     2:
     0.148646,0.183825,0.000000,0.009910,0.000000,105.000000,105.000000,0.000000,1.000000,0.000000,0.000000,0.148646,0.183825,0.000000,0.009910,0.000000,105.000000,105.000000,0.000000,1.000000,0.000000,0.000000:
// measure 0
0001
0000
1000
0000
,  // measure 1
0000
0000
0100
0000
,  // measure 2
0010
0000
0000
0000
,  // measure 3
0000
0000
0100
0000
,  // measure 4
0001
0000
0010
0000
,  // measure 5
0000
0000
1000
0000
,  // measure 6
0001
0000
0001
0000
,  // measure 7
0001
0000
0010
0000
,  // measure 8
0001
0000
0010
0000
,  // measure 9
1000
0000
0001
0000
,  // measure 10
1000
0000
0001
0000
,  // measure 11
0100
0000
0100
0000
,  // measure 12
0010
0000
0001
0000
,  // measure 13
0100
0000
0010
0000
,  // measure 14
0100
0000
1000
0000
,  // measure 15
0100
0000
0010
0000
,  // measure 16
0001
0001
1000
1000
,  // measure 17
0001
0100
0000
0100
,  // measure 18
0000
0001
0000
0100
,  // measure 19
0000
1000
0000
0100
,  // measure 20
0000
0001
0000
0100
,  // measure 21
0000
0010
0000
0100
,  // measure 22
0000
0010
0000
0010
,  // measure 23
0000
0001
0000
1000
,  // measure 24
0000
0001
0000
0010
,  // measure 25
0000
1000
0000
0001
,  // measure 26
0000
1000
0000
0001
,  // measure 27
1000
0010
1000
0000
,  // measure 28
0000
0001
0100
0000
,  // measure 29
0010
0000
1000
0000
,  // measure 30
0000
1000
0000
0000
0001
0000
0000
0000
,  // measure 31
0100
0000
0010
0000
,  // measure 32
0100
0001
0001
0000
,  // measure 33
1000
0000
0100
0000
,  // measure 34
0010
0000
0000
0000
,  // measure 35
0001
0000
0100
0000
,  // measure 36
1000
0000
0001
0000
,  // measure 37
1000
0000
0100
0000
,  // measure 38
0001
0000
0010
0000
,  // measure 39
0100
0000
0001
0000
,  // measure 40
0100
0000
0010
0000
,  // measure 41
1000
0000
0010
0000
,  // measure 42
0001
0000
1000
0000
,  // measure 43
0100
0000
0001
0000
,  // measure 44
1000
0000
0010
0000
,  // measure 45
0100
0000
0010
0000
,  // measure 46
1000
0000
0001
0000
,  // measure 47
0100
0000
0010
0000
,  // measure 48
1000
0000
0001
0000
,  // measure 49
0010
0000
0100
0000
,  // measure 50
1000
0000
0001
0000
,  // measure 51
0001
0000
0000
0000
1000
0000
0000
2000
,  // measure 52
0000
0000
0000
0000
,  // measure 53
3000
0000
0000
0000
;
