#VERSION:0.83;
#TITLE:Party People;
#SUBTITLE:;
#ARTIST:アクジ;
#TITLETRANSLIT:;
#SUBTITLETRANSLIT:;
#ARTISTTRANSLIT:AKUJI;
#GENRE:;
#ORIGIN:;
#CREDIT:;
#BANNER:Party People.png;
#BACKGROUND:Party People-BG.png;
#PREVIEWVID:;
#JACKET:Party People-Jacket.png;
#CDIMAGE:;
#DISCIMAGE:;
#LYRICSPATH:;
#CDTITLE:;
#MUSIC:Party People.ogg;
#OFFSET:-1.433999;
#SAMPLESTART:104.222000;
#SAMPLELENGTH:12.000000;
#SELECTABLE:YES;
#BPMS:0.000=165.000;
#STOPS:;
#DELAYS:;
#WARPS:;
#TIMESIGNATURES:0.000=4=4;
#TICKCOUNTS:0.000=4;
#COMBOS:0.000=1;
#SPEEDS:0.000=1.000=0.000=0;
#SCROLLS:0.000=1.000;
#FAKES:;
#LABELS:0.000=Song Start;
#BGCHANGES:;
#KEYSOUNDS:;
#ATTACKS:
;

//---------------dance-single - ----------------
#NOTEDATA:;
#CHARTNAME:;
#STEPSTYPE:dance-single;
#DESCRIPTION:;
#CHARTSTYLE:;
#DIFFICULTY:Hard;
#METER:9;
#RADARVALUES:0.706553,0.629229,1.454668,0.040595,1.153586,731.000000,516.000000,215.000000,6.000000,0.000000,0.000000,0.000000,0.000000,0.000000,0.706553,0.629229,1.454668,0.040595,1.153586,731.000000,516.000000,215.000000,6.000000,0.000000,0.000000,0.000000,0.000000,0.000000;
#CREDIT:;
#NOTES:
1001
0000
0000
1010
0000
0000
0101
0000
0001
0000
0000
0000
,
1010
0000
0000
0110
0000
0000
0101
0000
0000
1001
0000
0001
,
1000
0000
0000
1010
0000
0000
0101
0000
0000
1001
0000
0001
,
1000
0000
0000
1100
0000
0000
0110
0000
0000
0011
0000
0001
,
1000
0000
0000
0110
0000
0000
1001
0000
1000
0000
0000
0000
,
0110
0000
0000
0101
0000
0000
1010
0000
0000
1001
0000
1000
,
0001
0000
0000
1010
0000
0000
0101
0000
0100
0000
0000
0000
,
1010
0000
0000
0101
0000
0100
0010
0000
0000
1001
0000
1001
,
0000
0000
1000
0000
0000
0100
0000
0010
0100
0000
0100
0001
,
0000
0001
1000
0000
1000
0010
0000
0010
0100
0000
0100
0001
,
0000
0001
1000
0000
1000
0010
0000
0010
0100
0000
0100
0010
,
0000
0010
0001
0000
0001
1000
0000
1000
0100
0000
0100
0010
,
0000
0010
0001
0000
0001
1000
0000
1000
0010
0000
0010
0100
,
0000
0100
0001
0000
0001
0010
0000
0010
0100
0000
0100
1000
,
0000
1000
0001
0000
0001
0100
0000
0100
0010
0000
0010
1000
,
0000
1000
0001
0000
0001
0100
0000
0100
0010
0000
1010
0000
,
0000
0101
0000
0000
1001
0000
0100
0000
0000
0000
1010
0000
,
0000
0101
0000
0000
0110
0000
0000
1001
0000
1000
0001
0000
,
0000
1010
0000
0000
0101
0000
0000
0110
0000
0010
0100
0000
,
0000
1001
0000
0000
0110
0000
0000
1010
0000
1000
0010
0000
,
0000
0101
0000
0000
1010
0000
0010
0000
0000
0000
1010
0000
,
0000
0101
0000
0000
0110
0000
0000
1001
0000
1000
0001
0000
,
0000
1100
0000
0000
0011
0000
0001
0000
0000
0000
1010
0000
,
0000
0101
0000
0001
1000
0000
0000
2020
0000
3030
0101
0000
,
0000
1010
0000
0000
0110
0000
0000
1001
0000
1000
0001
0000
,
0000
0101
0000
0000
0110
0000
0000
1010
0000
0000
1001
0000
,
0000
0110
0000
0000
1010
0000
0000
0101
0000
0000
0110
0000
,
0000
1001
0000
0000
0110
0000
0000
1000
0100
0010
0001
0000
,
0000
1010
0000
0000
0101
0000
0000
0110
0000
0010
0100
0000
,
0000
1010
0000
0000
0101
0000
0000
0110
0000
0000
1001
0000
,
0000
1010
0000
0000
0101
0000
0000
0110
0000
0010
0100
0000
,
0101
0000
0000
1010
0000
1000
0010
0000
0100
0001
0000
0000
,
0101
0000
0000
1010
0000
0000
0110
0000
0100
0010
0000
0000
,
1010
0000
0000
0101
0000
0001
0100
0000
0100
0010
0000
0000
,
1010
0110
0101
1001
,
0110
0000
1000
0100
0010
0000
0100
0000
0010
0001
0000
0000
,
0101
0000
0000
1010
0000
0000
0110
0000
0010
0100
0000
0000
,
0101
0110
1010
1001
,
0101
0000
0000
0110
0000
0000
1010
0000
1000
0010
0000
0000
,
0110
0000
0101
0000
1010
0000
0110
0000
1001
0000
1000
0010
,
0000
0010
0100
0000
0100
0001
0000
0001
0010
0000
0010
0100
,
0000
0100
1000
0000
1000
0010
0000
0010
0100
0000
0100
0001
,
0000
0001
0010
0000
0010
0100
0000
0100
1000
0000
1000
0001
,
0000
0001
0100
0000
0100
0010
0000
0010
1000
0000
1000
0100
,
0000
0100
1000
0000
1000
0010
0000
0010
0100
0000
0100
0010
,
0000
0010
0001
0000
0001
0100
0000
0100
0001
0000
0001
1000
,
0000
1000
0010
0000
0010
1000
0000
1000
0001
0000
0001
0100
,
0000
0100
0010
0000
0010
1000
0000
1001
0000
0000
0110
0000
,
0000
1010
0000
0000
0000
0000
0000
0101
0000
0000
1010
0000
,
0000
0110
0000
0000
0000
0000
0000
1001
0000
0000
0110
0000
,
0000
1001
0000
0000
0000
0000
0000
1100
0000
0000
0110
0000
,
0000
0011
0000
0000
0000
0000
0000
1001
0000
0000
0110
0000
,
0000
1001
0000
0000
0000
0000
0000
1010
0000
0000
0101
0000
,
0000
0110
0000
0000
0000
0000
0000
0000
1010
0000
0000
0101
,
0000
0000
0110
0000
0000
1001
0000
2000
0002
0000
0000
0000
,
0000
3003
1001
0110
,
1010
0101
1001
0110
,
1010
0000
0000
0101
0000
0001
0100
0000
0000
1010
0000
0000
,
0101
0110
1001
1010
,
0001
0100
0000
0100
0000
0010
1000
0000
0000
1010
0000
0000
,
0101
0110
1001
1010
,
0101
0000
0000
0110
0000
0100
0010
0000
0000
1010
0000
0100
,
0001
0000
0000
0110
0000
1000
0001
0010
0100
1000
0000
0001
,
0100
0010
1010
1001
,
0101
0110
1001
1010
,
0101
0000
0100
0010
0000
0010
1000
0000
0000
0110
0000
0000
,
0011
0000
0001
1000
0000
0000
0110
0000
0000
1000
0100
0010
,
0001
0000
0001
1000
0000
0000
1001
0000
0000
1010
0000
0000
,
1100
0110
0011
0101
,
1001
0000
0000
0110
0000
0100
0010
0000
1010
0000
0000
1001
,
0000
0000
0101
0000
0000
0110
0000
0000
1010
0000
1000
0001
,
0000
1001
0000
0110
0000
1010
0000
0000
0101
0000
0000
0110
,
0000
0000
1001
0000
1000
0001
0000
0000
0101
0000
0000
1010
,
0000
0000
0110
0000
0100
0010
0000
0000
1010
0000
0000
0101
,
0000
0000
1001
0000
0000
0110
0000
0000
1010
0000
0000
0001
,
1000
0000
0010
0000
0100
0010
0000
0000
1010
0000
0000
1100
,
0000
0000
1010
0000
0000
0101
0000
0000
0011
0000
0000
0101
,
0000
0000
0110
0000
0100
0010
0000
0000
1010
0000
1000
0010
,
0000
0101
0000
0001
0010
0100
1000
0001
0000
1000
0001
0000
,
0000
2002
0000
3003
1001
0000
0000
0101
0000
0000
1010
0000
,
0000
0110
0000
0000
1001
0000
0000
1010
0000
0000
0101
0000
,
0001
0100
0000
0010
1000
0000
0000
1001
0000
1000
0001
0000
,
0001
0100
0000
0000
0110
0000
0000
0010
1000
0001
0100
0000
,
0010
0100
0000
0000
0101
0000
0000
1010
0000
0000
0110
0000
,
0000
1001
0000
1000
0001
0000
0000
0101
0000
0000
1010
0000
,
0000
0110
0000
0010
0100
0000
0101
0000
0000
1001
0000
0000
,
0110
0000
0000
1001
0000
0000
0110
0000
0100
0010
0000
1010
,
0000
0101
0000
0110
0000
1000
0010
0000
0010
0100
0000
0100
,
0001
0000
0001
1000
0000
1000
0100
0000
0100
0010
0000
0010
,
0001
0000
0001
1000
0000
1000
0001
0000
0001
0100
0000
0100
,
0010
0000
0010
1000
0000
1000
0001
0000
0001
0010
0000
0010
,
0100
0000
0100
1000
0000
1000
0001
0000
0001
1000
0000
1000
,
0010
0000
0010
0100
0000
0100
0001
0000
0001
0010
0000
0010
,
0100
0000
0000
0000
;

//---------------dance-single - ----------------
#NOTEDATA:;
#CHARTNAME:;
#STEPSTYPE:dance-single;
#DESCRIPTION:;
#CHARTSTYLE:;
#DIFFICULTY:Medium;
#METER:7;
#RADARVALUES:0.417553,0.471922,0.000000,0.020298,0.869418,432.000000,432.000000,0.000000,3.000000,0.000000,0.000000,0.000000,0.000000,0.000000,0.417553,0.471922,0.000000,0.020298,0.869418,432.000000,432.000000,0.000000,3.000000,0.000000,0.000000,0.000000,0.000000,0.000000;
#CREDIT:;
#NOTES:
1000
0000
0000
0001
0000
0000
0100
0000
0010
0000
0000
0000
,
0001
0000
0000
0100
0000
0000
1000
0000
0000
0010
0000
1000
,
0010
0000
0000
0001
0000
0000
0100
0000
0000
0001
0000
1000
,
0010
0000
0000
0100
0000
0000
0001
0000
0000
1000
0000
0001
,
0010
0000
0000
0100
0000
0000
1000
0000
0010
0000
0000
0000
,
0010
0000
0000
0100
0000
0000
0001
0000
0000
1000
0000
0010
,
1000
0000
0000
0001
0000
0000
1000
0000
0100
0000
0000
0000
,
0001
0000
0000
1000
0000
0100
0001
0000
0000
1000
0000
1000
,
0000
0000
0010
0000
0000
0100
0000
0000
0100
0000
0000
1000
,
0000
0000
0010
0000
0000
0001
0000
0000
0100
0000
0000
1000
,
0000
0000
0010
0000
0000
0001
0000
0000
0100
0000
0000
0001
,
0000
0000
1000
0000
0000
0010
0000
0000
0100
0000
0000
0001
,
0000
0000
1000
0000
0000
0010
0000
0000
0001
0000
0000
0100
,
0000
0000
1000
0000
0000
0001
0000
0000
0100
0000
0000
0010
,
0000
0000
1000
0000
0000
0100
0000
0000
0001
0000
0000
0010
,
0000
0000
1000
0000
0000
0100
0000
0000
0001
0000
0000
0100
,
0000
0000
1000
0000
0000
1000
0100
0000
0000
0000
0001
0000
,
0000
1000
0000
0000
0001
0000
0000
1000
0000
0010
1000
0000
,
0000
0001
0000
0000
1000
0000
0000
0001
0000
0001
0100
0000
,
0000
1000
0000
0000
0001
0000
0000
0001
0000
0010
0100
0000
,
0000
1000
0000
0000
0100
0000
0010
0000
0000
0000
1000
0000
,
0000
0100
0000
0000
0001
0000
0000
1000
0000
0010
1000
0000
,
0000
0100
0000
0000
1000
0000
1000
0000
0000
0000
0001
0000
,
0000
1000
0000
1000
0010
0000
0000
0002
0000
0003
1000
0000
,
0000
0001
0000
0000
0001
0000
0000
1000
0000
0010
1000
0000
,
0000
1000
0000
0000
0100
0000
0000
0010
0000
0000
1000
0000
,
0000
0100
0000
0000
0001
0000
0000
1000
0000
0000
0100
0000
,
0000
0010
0000
0000
0001
0000
0000
0010
1000
0100
0001
0000
,
0000
0001
0000
0000
1000
0000
0000
0001
0000
1000
0100
0000
,
0000
0010
0000
0000
1000
0000
0000
0100
0000
0000
1000
0000
,
0000
0010
0000
0000
1000
0000
0000
0100
0000
0001
0100
0000
,
1000
0000
0000
0001
0000
0010
0001
0000
0100
1000
0000
0000
,
1000
0000
0000
0010
0000
0000
1000
0000
0100
0001
0000
0000
,
1000
0000
0000
0100
0000
1000
0100
0000
0100
0010
0000
0000
,
1000
0001
1000
0010
,
0001
0000
0010
0100
0001
0000
0100
0000
0001
1000
0000
0000
,
0100
0000
0000
0010
0000
0000
1000
0000
0001
0100
0000
0000
,
1000
0001
0010
0100
,
1000
0000
0000
0100
0000
0000
0001
0000
0010
0001
0000
0000
,
0100
0000
1000
0000
0001
0000
0100
0000
1000
0000
0000
0001
,
0000
0000
0100
0000
0000
1000
0000
0000
0001
0000
0000
0100
,
0000
0000
0010
0000
0000
0001
0000
0000
0100
0000
0000
1000
,
0000
0000
0001
0000
0000
0100
0000
0000
0010
0000
0000
1000
,
0000
0000
0100
0000
0000
0001
0000
0000
0010
0000
0000
0100
,
0000
0000
0010
0000
0000
0001
0000
0000
0100
0000
0000
0001
,
0000
0000
1000
0000
0000
0100
0000
0000
1000
0000
0000
0010
,
0000
0000
0001
0000
0000
0010
0000
0000
1000
0000
0000
0100
,
0000
0000
0001
0000
0000
0010
0000
1000
0000
0000
0001
0000
,
0000
0010
0000
0000
0000
0000
0000
1000
0000
0000
0100
0000
,
0000
0001
0000
0000
0000
0000
0000
1000
0000
0000
0001
0000
,
0000
1000
0000
0000
0000
0000
0000
0100
0000
0000
0010
0000
,
0000
1000
0000
0000
0000
0000
0000
0100
0000
0000
0001
0000
,
0000
0010
0000
0000
0000
0000
0000
0100
0000
0000
1000
0000
,
0000
0010
0000
0000
0000
0000
0000
0000
0001
0000
0000
1000
,
0000
0000
0001
0000
0000
1000
0000
0020
0000
0000
0000
0000
,
0000
0030
1000
0010
,
0001
0100
1000
0010
,
0001
0000
0000
1000
0000
0100
0010
0000
0000
0001
0000
0000
,
0100
1000
0010
0001
,
1000
0100
0000
0010
0000
0001
0010
0000
0000
0001
0000
0000
,
1000
0100
0010
0001
,
0100
0000
0000
0001
0000
1000
0010
0000
0000
0001
0000
0100
,
1000
0000
0000
0001
0000
0010
1000
0100
0001
0010
0000
1000
,
0100
1000
0001
0100
,
0001
0010
1000
0100
,
1000
0000
0100
0010
0000
0001
0010
0000
0000
0001
0000
0000
,
1000
0000
1000
0010
0000
0000
0001
0000
0000
0010
0100
0001
,
1000
0000
1000
0010
0000
0000
1000
0000
0000
0001
0000
0000
,
0100
0001
1000
0010
,
1000
0000
0000
0001
0000
0100
0001
0000
0010
0000
0000
0100
,
0000
0000
1000
0000
0000
0100
0000
0000
0001
0000
0010
1000
,
0000
0100
0000
0001
0000
0010
0000
0000
1000
0000
0000
0001
,
0000
0000
1000
0000
0010
1000
0000
0000
0100
0000
0000
0001
,
0000
0000
1000
0000
0100
0010
0000
0000
0001
0000
0000
1000
,
0000
0000
0010
0000
0000
0001
0000
0000
0100
0000
0000
1000
,
0010
0000
0001
0000
0100
1000
0000
0000
0010
0000
0000
0100
,
0000
0000
0001
0000
0000
0100
0000
0000
1000
0000
0000
0010
,
0000
0000
0001
0000
0100
0001
0000
0000
0001
0000
0010
0001
,
0000
1000
0000
1000
0001
0100
0010
1000
0000
0010
0001
0000
,
0000
0200
0000
0300
1000
0000
0000
0010
0000
0000
0100
0000
,
0000
0001
0000
0000
1000
0000
0000
0001
0000
0000
1000
0000
,
1000
0100
0000
0001
0010
0000
0000
1000
0000
0010
1000
0000
,
1000
0100
0000
0000
0001
0000
0000
0001
0010
1000
0100
0000
,
0001
0100
0000
0000
1000
0000
0000
0001
0000
0000
0001
0000
,
0000
0100
0000
0010
1000
0000
0000
1000
0000
0000
0001
0000
,
0000
0010
0000
0001
0100
0000
1000
0000
0000
0100
0000
0000
,
0010
0000
0000
1000
0000
0000
0001
0000
0100
0001
0000
0010
,
0000
1000
0000
0100
0000
0000
0001
0000
0000
0100
0000
0000
,
1000
0010
0100
0001
,
1000
0010
1000
0100
,
0001
0010
1000
0001
,
0100
0010
1000
0010
,
0001
0100
1000
0001
,
0100
0000
0000
0000
;

//---------------dance-single - ----------------
#NOTEDATA:;
#CHARTNAME:;
#STEPSTYPE:dance-single;
#DESCRIPTION:;
#CHARTSTYLE:;
#DIFFICULTY:Easy;
#METER:3;
#RADARVALUES:0.178813,0.157307,0.000000,0.000000,0.000000,185.000000,185.000000,0.000000,0.000000,0.000000,0.000000,0.000000,0.000000,0.000000,0.178813,0.157307,0.000000,0.000000,0.000000,185.000000,185.000000,0.000000,0.000000,0.000000,0.000000,0.000000,0.000000,0.000000;
#CREDIT:;
#NOTES:
// measure 0
0001
0000
0100
0000
,  // measure 1
0010
0000
0001
0000
,  // measure 2
1000
0000
0100
0000
,  // measure 3
0001
0000
0010
0000
,  // measure 4
1000
0000
0001
0000
,  // measure 5
1000
0000
0010
0000
,  // measure 6
0001
0000
0010
0000
,  // measure 7
0010
0000
0100
0000
,  // measure 8
0001
0000
0100
0000
,  // measure 9
0001
0000
0010
0000
,  // measure 10
0001
0000
0010
0000
,  // measure 11
0010
0000
1000
0000
,  // measure 12
0010
0000
1000
0000
,  // measure 13
0100
0000
0010
0000
,  // measure 14
1000
0000
0100
0000
,  // measure 15
1000
0000
0100
0000
,  // measure 16
0100
0000
0001
0000
,  // measure 17
1000
0000
0100
0000
,  // measure 18
0010
0000
1000
0000
,  // measure 19
0001
0000
0100
0000
,  // measure 20
1000
0000
0100
0000
,  // measure 21
1000
0000
0010
0000
,  // measure 22
0100
0000
0001
0000
,  // measure 23
1000
0000
0100
0000
,  // measure 24
0010
0000
0001
0000
,  // measure 25
1000
0000
0100
0000
,  // measure 26
0010
0000
0001
0000
,  // measure 27
1000
0000
0100
0000
,  // measure 28
0010
0000
0010
0000
,  // measure 29
1000
0000
0100
0000
,  // measure 30
0001
0000
0100
0000
,  // measure 31
1000
0000
0010
0000
,  // measure 32
0001
0000
1000
0000
,  // measure 33
0001
0000
0100
0000
,  // measure 34
0010
0000
1000
0000
,  // measure 35
0010
0000
0100
0000
,  // measure 36
1000
0000
0001
0000
,  // measure 37
1000
0000
1000
0000
,  // measure 38
0001
0000
0010
0000
,  // measure 39
0100
0000
1000
0000
,  // measure 40
0010
0000
0001
0000
,  // measure 41
0100
0000
0010
0000
,  // measure 42
0001
0000
1000
0000
,  // measure 43
0100
0000
0010
0000
,  // measure 44
1000
0000
0001
0000
,  // measure 45
0010
0000
0100
0000
,  // measure 46
1000
0000
0010
0000
,  // measure 47
0100
0000
0001
0000
,  // measure 48
1000
0000
0001
0000
,  // measure 49
0010
0000
1000
0000
,  // measure 50
0001
0000
0100
0000
,  // measure 51
0010
0000
0100
0000
,  // measure 52
1000
0000
0100
0000
,  // measure 53
1000
0000
0000
0000
,  // measure 54
0001
0000
1000
0000
,  // measure 55
0000
0000
0001
0000
,  // measure 56
0010
0000
0001
0000
,  // measure 57
0010
0000
0100
0000
,  // measure 58
0100
0000
1000
0000
,  // measure 59
0001
0000
0010
0000
,  // measure 60
0100
0000
1000
0000
,  // measure 61
0100
0000
0001
0000
,  // measure 62
1000
0000
0001
0000
,  // measure 63
0100
0000
1000
0000
,  // measure 64
0010
0000
0001
0000
,  // measure 65
1000
0000
0100
0000
,  // measure 66
0010
0000
0010
0000
,  // measure 67
1000
0000
1000
0000
,  // measure 68
0100
0000
0100
0000
,  // measure 69
0001
0000
0001
0000
,  // measure 70
0100
0000
1000
0000
,  // measure 71
0010
0000
1000
0000
,  // measure 72
0001
0000
0100
0000
,  // measure 73
1000
0000
0100
0000
,  // measure 74
0001
0000
0010
0000
,  // measure 75
0100
0000
0001
0000
,  // measure 76
0100
0000
0001
0000
,  // measure 77
1000
0000
0010
0000
,  // measure 78
0001
0000
0100
0000
,  // measure 79
1000
0000
0100
0000
,  // measure 80
0010
0000
1000
0000
,  // measure 81
0100
0000
0001
0000
,  // measure 82
0100
0000
0010
0000
,  // measure 83
0100
0000
0010
0000
,  // measure 84
0100
0000
0001
0000
,  // measure 85
1000
0000
0001
0000
,  // measure 86
1000
0000
0010
0000
,  // measure 87
0001
0000
0010
0000
,  // measure 88
0001
0000
0100
0000
,  // measure 89
0001
0000
1000
0000
,  // measure 90
0010
0000
0001
0000
,  // measure 91
0100
0000
0001
0000
,  // measure 92
0010
0000
0001
0000
,  // measure 93
0100
0000
0000
0000
;
