#TITLE:音楽 -壊音楽 mix-;
#SUBTITLE:;
#ARTIST:LeaF;
#TITLETRANSLIT:Ongaku -Kaiongaku Mix-;
#SUBTITLETRANSLIT:;
#ARTISTTRANSLIT:;
#GENRE:;
#CREDIT:;
#BANNER:Ongaku Kaiongaku Mix.png;
#BACKGROUND:Ongaku Kaiongaku Mix-BG.png;
#LYRICSPATH:;
#CDTITLE:;
#MUSIC:Ongaku Kaiongaku Mix.ogg;
#OFFSET:-2.885999;
#SAMPLESTART:6.442000;
#SAMPLELENGTH:24.000000;
#SELECTABLE:YES;
#DISPLAYBPM:135.000000:420.000000;
#BPMS:0.000000=270.000000
,51.000000=135.000000
,53.000000=270.000000
,105.000000=135.000000
,113.000000=270.000000
,156.000000=135.000000
,162.000000=270.000000
,180.000000=135.000000
,182.000000=270.000000
,192.000000=135.000000
,198.000000=270.000000
,324.000000=135.000000
,331.500000=270.000000
,374.000000=135.000000
,377.000000=270.000000
,379.000000=280.000000
,383.000000=290.000000
,387.000000=300.000000
,391.000000=310.000000
,395.000000=320.000000
,399.000000=330.000000
,403.000000=380.000000
,411.000000=390.000000
,419.000000=400.000000
,427.000000=410.000000
,435.000000=420.000000
;
#STOPS:32.000000=0.056000,
33.000000=0.056000,
85.500000=0.112000,
145.000000=0.056000,
145.500000=0.056000,
150.000000=0.056000,
150.500000=0.056000,
206.000000=0.056000,
206.500000=0.056000,
245.000000=0.111000,
245.500000=0.111000,
288.000000=0.111000,
331.500000=1.444000
;
#BGCHANGES:;
#KEYSOUNDS:;
#ATTACKS:;

//---------------dance-single - ----------------
#NOTES:
     dance-single:
     :
     Hard:
     11:
     0.822240,1.697455,0.618601,0.519984,0.183787,642.000000,573.000000,69.000000,58.000000,0.000000,0.000000,0.822240,1.697455,0.618601,0.519984,0.183787,642.000000,573.000000,69.000000,58.000000,0.000000,0.000000:
// measure 0
1001
0000
0000
0110
0000
1000
0010
1000
,  // measure 1
0101
0000
0000
1010
0000
0000
0000
0000
,  // measure 2
0101
0000
0001
0000
1000
0100
1000
0000
,  // measure 3
0002
0000
0000
0003
,  // measure 4
1000
0010
0100
0010
,  // measure 5
0002
0000
0000
0000
0003
0000
1000
0001
1000
0000
0010
0000
0100
0000
0001
0000
,  // measure 6
2000
3200
0320
0032
,  // measure 7
1003
0100
1000
0001
,  // measure 8
1010
1010
1010
0000
1000
0100
1000
0001
,  // measure 9
0000
0001
0000
0000
0010
0100
0010
0001
,  // measure 10
1000
0000
0100
0000
0010
0000
0001
0010
,  // measure 11
0100
0000
0110
0000
1010
0000
1000
0001
,  // measure 12
0000
0000
0000
0000
0010
0000
0100
0000
0010
0000
0000
0000
1000
0100
0010
0100
,  // measure 13
1000
0100
0010
0001
0010
0000
0000
0000
0010
0000
0000
0000
0200
0000
0000
0000
,  // measure 14
0300
0001
0010
0100
,  // measure 15
1000
0010
0100
0001
,  // measure 16
0010
0000
2000
0000
0000
0000
3001
0100
,  // measure 17
0010
0001
1000
0010
1000
0001
0100
0001
,  // measure 18
0010
0100
0010
0001
1000
0010
0100
0010
,  // measure 19
1000
0010
0100
0000
0000
0000
0110
0000
,  // measure 20
0000
0000
0000
1010
0000
0000
1010
0000
,  // measure 21
0000
0000
0000
1010
1000
0001
1000
0000
,  // measure 22
0010
0000
0200
0000
0300
0000
0110
0110
,  // measure 23
0110
0000
1000
0100
1000
0000
1000
0010
,  // measure 24
0100
0001
0010
0001
1000
0100
1000
0000
,  // measure 25
0100
0000
0001
0010
0001
0000
1000
0100
1000
0000
0000
0000
0002
0000
0000
0000
,  // measure 26
0000
0000
0003
0000
1000
0100
1000
0100
0010
0001
0010
0001
1000
0100
0010
0100
,  // measure 27
1000
0001
0010
0100
0010
0001
1000
0010
1000
0010
0100
0001
0100
0001
1000
0100
,  // measure 28
0010
0001
0010
0100
1000
0000
0000
0000
0000
0000
0000
0000
1010
0000
0000
0000
,  // measure 29
0000
0000
0101
0000
0000
0001
1000
0000
,  // measure 30
1010
0000
0101
0000
0000
0001
0010
0100
,  // measure 31
0010
0001
0010
0100
1000
0100
2000
0200
,  // measure 32
0000
3300
0001
0010
0100
0010
0002
0020
,  // measure 33
0000
0033
0001
1000
0010
0100
0020
0200
,  // measure 34
0000
0330
2002
0000
0000
0000
0000
3003
,  // measure 35
0000
0000
1000
0000
0100
1000
0001
0010
,  // measure 36
0100
0010
0101
0101
0110
1000
0010
0000
,  // measure 37
0100
0010
0001
0010
0110
0110
1001
0100
,  // measure 38
0010
0100
0001
1000
,  // measure 39
2000
0000
3010
0100
0002
0000
0023
0000
,  // measure 40
0230
0000
1300
0001
0020
0000
0030
0100
,  // measure 41
1000
0001
0010
0100
0010
0000
0100
0010
,  // measure 42
0000
0100
0001
1000
0000
0000
1000
0001
,  // measure 43
0100
0000
0100
0000
0010
0000
1000
0001
,  // measure 44
0010
0010
0100
0010
,  // measure 45
1000
0000
0010
0100
0010
0000
0001
1000
0001
0000
0000
0000
0101
0000
0000
0000
,  // measure 46
0110
0000
1010
0000
1100
0000
0001
0100
,  // measure 47
0001
0101
0010
1000
,  // measure 48
0100
0000
0000
0100
1000
0000
0000
1000
0001
0000
0000
0001
0010
0000
0000
0010
,  // measure 49
0100
0000
0000
0100
0001
0000
0000
0001
1000
0000
0000
0000
1010
0000
0000
0000
,  // measure 50
0110
0101
0001
1000
,  // measure 51
0010
0000
0100
0010
0110
1010
0100
0000
,  // measure 52
0020
0000
1030
0000
0001
0100
0002
0000
,  // measure 53
0000
0003
2000
0000
0000
3000
0020
0000
,  // measure 54
0000
0000
1030
0000
1000
0100
1000
0000
,  // measure 55
0001
0010
0001
0000
0100
0010
0100
0000
,  // measure 56
0001
0010
0001
0000
1000
0100
0010
0000
,  // measure 57
0100
0010
0001
0000
1000
0100
1000
0000
,  // measure 58
1001
0000
0001
0000
0100
0010
0100
1000
,  // measure 59
0100
0010
0001
0020
0000
0230
0000
0302
,  // measure 60
0000
0000
1003
0100
1000
0000
0010
0000
0100
0000
0001
0000
1000
0000
0100
0000
,  // measure 61
1000
0000
0010
0000
1010
0000
1010
0000
0101
0000
0000
0000
0000
0001
0010
0100
,  // measure 62
2000
0000
0000
0000
,  // measure 63
3010
0100
0001
0010
0100
1000
0001
0010
,  // measure 64
1000
0001
1000
0001
1000
0001
1000
0001
,  // measure 65
1000
1001
1001
2002
,  // measure 66
3003
0010
0100
0010
1000
0100
1000
0010
,  // measure 67
0100
0001
0010
0001
0010
0100
1000
0100
,  // measure 68
2000
0000
0000
3001
0010
0100
1000
0100
,  // measure 69
0010
0002
0200
0303
0020
0000
0000
0030
,  // measure 70
1000
0000
0000
0000
0100
0000
0000
0000
0010
0000
0000
0000
0001
0000
0000
0010
0000
0000
0001
0000
0000
0100
0000
0000
,  // measure 71
0010
1000
0002
0000
0000
0000
0003
0000
,  // measure 72
1001
1000
0100
1000
0100
0000
1010
0000
,  // measure 73
0101
0000
0010
0100
0000
0000
0001
0000
,  // measure 74
1010
0000
0000
0000
0000
0000
1000
0000
0100
0000
0010
0000
,  // measure 75
0100
0010
0100
0010
,  // measure 76
0001
0000
1001
0000
,  // measure 77
1002
0000
2000
0000
3003
0001
1000
0000
,  // measure 78
0120
0000
0200
0000
0330
0010
0100
0000
,  // measure 79
2001
0000
0002
0000
3003
1000
0001
0100
,  // measure 80
0010
1000
0100
1000
0001
0010
0100
0000
,  // measure 81
0001
0000
1000
0000
0100
0000
0000
0000
0010
0000
0000
0010
0100
0000
0001
0000
,  // measure 82
1000
0000
0000
0000
0000
0000
0000
0000
0000
0000
0000
0000
1000
0000
0000
0000
0001
0000
0000
0000
0000
0000
0000
0000
0010
0000
0000
0000
0000
0000
0000
0000
0100
0000
0000
0000
0000
0000
0000
0000
0010
0000
0000
0000
0000
0000
0000
0000
0001
0000
0000
0000
0000
0000
0000
0000
2000
3000
0000
0000
0000
0000
0000
0000
,  // measure 83
0000
0010
0100
0010
0001
1000
0010
0100
,  // measure 84
1000
0100
0010
0002
0000
2000
0000
3003
,  // measure 85
1000
0001
0110
0010
,  // measure 86
1010
0000
1000
0000
1001
0000
0001
0100
,  // measure 87
0001
0010
0110
0100
,  // measure 88
0101
0000
0001
1000
0010
0000
0100
0000
,  // measure 89
0100
1000
0001
0010
1000
0000
1000
0000
,  // measure 90
1100
0000
0100
0000
0110
0000
0001
0100
,  // measure 91
0001
0000
1000
0010
0100
0010
1000
0000
,  // measure 92
0100
0010
1000
0001
1000
0000
0010
0000
,  // measure 93
0100
0000
0000
0000
0001
0000
0000
0000
1000
0000
0000
1000
0010
0000
0100
0000
,  // measure 94
0001
0010
0200
0000
0310
0000
1020
0000
,  // measure 95
2000
0000
3030
0201
,  // measure 96
0002
0000
0303
0210
,  // measure 97
0020
0000
0330
2001
,  // measure 98
0002
0000
3003
1010
,  // measure 99
0101
0000
0110
0000
1001
0000
1000
0100
,  // measure 100
0010
0100
1000
0000
0001
0000
1000
0000
,  // measure 101
0100
0010
0100
1000
,  // measure 102
0001
0100
0010
1000
,  // measure 103
0001
0100
0010
1000
,  // measure 104
0100
1000
0001
0010
,  // measure 105
0100
0010
0001
1000
,  // measure 106
0100
1000
0001
0010
,  // measure 107
0001
0100
1000
0010
,  // measure 108
0100
0001
0010
0001
,  // measure 109
0100
2002
0000
0000
,  // measure 110
0000
0000
0000
0000
,  // measure 111
0000
0000
0000
0000
,  // measure 112
0000
0000
0000
0000
,  // measure 113
0000
0000
0000
0000
,  // measure 114
0000
0000
0000
3003
;

//---------------dance-single - ----------------
#NOTES:
     dance-single:
     :
     Medium:
     9:
     0.496930,0.874446,0.080687,0.421366,0.000000,388.000000,379.000000,9.000000,47.000000,0.000000,0.000000,0.496930,0.874446,0.080687,0.421366,0.000000,388.000000,379.000000,9.000000,47.000000,0.000000,0.000000:
0001
0100
0010
0100
,
0010
0001
0000
0000
,
0010
1000
0001
0001
,
2000
0000
0000
3000
,
0001
0100
0010
0100
,
2000
3000
0001
0010
,
0020
0000
0230
0000
,
0301
0010
0001
1000
,
0001
0100
0001
0000
0001
0000
0001
0000
,
1000
0000
0100
0100
,
0001
0010
0100
1000
,
0010
0010
0100
0001
,
0000
0000
0100
0000
0100
0000
0001
0100
,
0001
0100
0010
0000
0100
0000
0020
0000
,
0030
1000
0100
0010
,
0001
0100
0010
1000
,
0100
0002
0000
1003
,
0100
0001
0001
0010
,
0100
0100
0001
0010
,
0001
0010
0000
0100
,
0000
0001
0000
1000
,
0000
0000
0000
0100
0001
0000
0001
0000
,
0100
0000
0020
0000
0030
0000
0100
0010
,
0100
0001
0001
0001
,
0010
0100
0001
0001
,
0010
1000
0001
2000
,
0000
3000
0001
0010
0100
0010
0001
1000
,
0001
0100
0010
0100
0001
0010
0100
0010
,
0100
1000
0001
0000
0000
0000
0001
0000
,
0000
0010
0000
0001
,
0100
0010
1000
0100
,
0100
0100
0001
0002
,
0000
0003
1000
0000
0010
0000
2000
0000
,
0000
3000
0100
0000
0010
0000
0200
0000
,
0000
0300
0020
0000
0000
0000
0000
0000
,
0030
0001
0010
1000
,
0010
0000
1000
0010
0100
0000
0001
0000
,
0010
0000
1000
0000
0010
0100
1000
0000
,
0100
0010
1000
0001
,
0002
0023
2030
3200
,
0320
0032
0203
0300
,
0001
0100
0100
0010
,
0100
1000
0010
0001
,
0010
0010
0100
0001
,
1000
0100
0010
0100
,
0001
0010
0100
1000
0001
0000
0010
0000
,
0100
0001
0110
1000
,
0001
1001
0100
0001
,
0010
0001
1000
0100
,
0010
1000
0001
0001
,
0100
1010
1000
0001
,
0100
0000
0010
0000
0010
0001
0010
0000
,
0200
0300
0010
2000
,
0000
3000
0002
0000
0000
0003
0200
0000
,
0000
0301
0001
0001
,
1000
1000
0010
0010
,
1000
1000
0001
0100
,
0010
1000
0001
0001
,
1001
1000
0010
0010
,
0010
2000
3020
2030
,
3000
0001
0010
0001
,
0001
0000
0100
0001
0010
0000
1000
0100
,
0002
0000
0000
0000
,
0103
1000
0010
1000
,
0001
1000
0001
1000
,
0001
1001
2002
0000
,
3003
0010
0001
0001
,
0010
0100
0100
0001
,
0002
0000
0000
0003
0100
0000
0001
0000
,
0100
0000
0200
0000
0000
0000
0000
0300
,
0001
0010
1000
1000
,
0100
2000
0000
3000
,
1000
0010
0010
0001
,
1000
0100
0010
1000
,
0101
0000
0001
1000
,
0010
0100
0010
0100
,
1000
0000
1001
0000
,
2000
0002
3003
0001
,
0200
0020
0330
0010
,
0002
2000
3003
1000
,
0100
0010
1000
0010
,
1000
0010
0100
0010
,
0001
0000
0000
0000
0000
0000
0000
0000
0000
0000
0000
0000
0000
0000
0000
0000
1000
0000
0000
0000
0000
0000
0000
0000
0000
0000
0000
0000
0000
0000
0000
0000
0010
0000
0000
0000
0000
0000
0000
0000
0000
0000
0000
0000
0000
0000
0000
0000
1000
0000
0000
0000
0000
0000
0000
0000
0002
0003
0000
0000
0000
0000
0000
0000
,
0000
0010
1000
0100
,
0001
0000
0100
2000
0000
0000
0000
3000
,
0001
1000
0010
0100
,
0100
0001
0001
1000
,
1000
0100
0010
0010
,
1000
1000
0100
0010
,
0010
1000
0001
0001
,
0010
0010
0100
1000
,
1000
0001
0010
0001
,
0010
0001
0001
0100
,
0010
1000
0001
0100
,
1000
0020
0130
0200
,
0000
0000
0300
0020
,
0000
0000
0030
2000
,
0000
0000
3000
0002
,
0000
0000
0003
0001
,
1000
0010
0001
0001
,
0100
0001
1000
0001
,
0000
0100
0000
0001
,
0000
0010
0000
0001
,
0000
0010
0000
0001
,
0000
0001
0000
0100
,
0000
0100
0000
0001
,
0000
0001
0000
0100
,
0000
0010
0000
0100
,
0000
1000
0000
1000
,
0000
0010
2002
0000
,
0000
0000
0000
0000
,
0000
0000
0000
0000
,
0000
0000
0000
0000
,
0000
0000
0000
0000
,
0000
0000
0000
3003
;

//---------------dance-single - ----------------
#NOTES:
     dance-single:
     :
     Easy:
     5:
     0.293291,0.462942,0.008965,0.206200,0.000000,229.000000,228.000000,1.000000,23.000000,0.000000,0.000000,0.293291,0.462942,0.008965,0.206200,0.000000,229.000000,228.000000,1.000000,23.000000,0.000000,0.000000:
0001
0000
0010
0000
,
0010
0000
1000
0000
,
0010
0000
0001
0000
,
2000
0000
0000
3000
,
0001
0000
0010
0000
,
2000
3000
0001
0000
,
0020
0000
0000
0030
,
0001
0000
0001
1000
,
0001
0001
0001
0000
,
1000
0000
0100
0000
,
0001
0000
0100
0000
,
0010
0000
0100
0000
,
0000
0100
0000
0001
,
0001
0010
0000
0020
,
0030
1000
0000
0010
,
0000
0100
0000
1000
,
0000
0002
0000
1003
,
0000
0010
0000
1000
,
0000
0010
0000
0100
,
0000
0001
0000
0100
,
0000
0001
0000
1000
,
0000
0000
0000
0100
0000
0000
0001
0000
,
0000
0020
0030
0100
,
0100
0001
0000
0001
,
0000
0100
0000
0001
,
0000
1000
0000
2000
,
0000
3000
0001
0000
0100
0000
0001
0000
,
0001
0010
0001
0100
,
0100
0001
0000
0001
,
0000
0010
0000
0001
,
0000
0010
0000
0100
,
0000
0100
0000
0001
,
0000
1000
0000
1000
,
0000
0100
0000
0100
,
0000
0020
0000
0000
,
0030
0001
0000
1000
,
0000
0000
1000
0010
0000
0000
0001
0000
,
0000
0000
1000
0000
0010
0100
0000
0000
,
0100
0000
1000
0000
,
0001
0010
1000
0100
,
0010
0001
0100
0000
,
0001
0000
0100
0000
,
0100
0000
0010
0000
,
0010
0000
0100
0000
,
1000
0000
0010
0000
,
0001
0100
0001
0000
,
0100
0000
0100
0000
,
1000
0000
0100
0000
,
0010
0001
1000
0100
,
0010
1000
0001
0000
,
0100
0000
1000
0001
,
0000
0000
0010
0000
1000
0001
0000
0000
,
0200
0300
0000
1000
,
0000
0000
0002
0000
0000
0003
0100
0000
,
0000
0001
0000
0001
,
0000
1000
0000
0010
,
0000
1000
0000
0100
,
0000
1000
0000
0001
,
0000
1000
0000
0010
,
0000
1000
0020
1030
,
0000
0001
0000
0001
,
0000
0000
0100
0001
0000
0000
1000
0000
,
0002
0000
0000
0000
,
0103
0000
0000
1000
,
0000
1000
0000
1000
,
0000
1000
0002
0000
,
1003
0000
0010
0000
,
0100
0000
0001
0000
,
0002
0000
0000
0003
0000
0000
1000
0000
,
0000
0000
0200
0000
0000
0000
0000
0300
,
0000
0010
0000
0100
,
0000
2000
0000
3000
,
1000
0000
0010
0000
,
1000
0000
0010
0000
,
0100
0000
0001
0000
,
0010
0000
0010
0000
,
1000
0000
0001
0000
,
2000
0000
3000
0001
,
0200
0000
0300
0010
,
0002
0000
0003
1000
,
0100
0000
1000
0000
,
1000
0010
0100
0010
,
0001
0000
0000
0000
0000
0000
0000
0000
0000
0000
0000
0000
0000
0000
0000
0000
1000
0000
0000
0000
0000
0000
0000
0000
0000
0000
0000
0000
0000
0000
0000
0000
0010
0000
0000
0000
0000
0000
0000
0000
0000
0000
0000
0000
0000
0000
0000
0000
1000
0000
0000
0000
0000
0000
0000
0000
0002
0003
0000
0000
0000
0000
0000
0000
,
0000
0010
0000
0100
,
0000
0100
0000
0000
,
0001
0000
0010
0000
,
0100
0000
0001
0000
,
1000
0000
0010
0000
,
1000
0000
0100
0000
,
0010
0000
0001
0000
,
0010
0000
0100
0000
,
1000
0000
0010
0000
,
0010
0000
0001
0000
,
0010
0000
0001
0100
,
1000
0020
0030
1000
,
0000
0000
0000
0010
,
0000
0000
0000
0100
,
0000
0000
0000
0001
,
0000
0000
0000
0001
,
0000
0010
0000
0001
,
0000
0001
0000
0001
,
0000
0000
0000
0001
,
0000
0000
0000
0001
,
0000
0000
0000
1000
,
0000
0000
0000
0100
,
0000
0000
0000
0010
,
0000
0000
0000
0100
,
0000
0000
0000
0100
,
0000
0000
0000
1000
,
0000
0000
2002
0000
,
0000
0000
0000
0000
,
0000
0000
0000
0000
,
0000
0000
0000
0000
,
0000
0000
0000
0000
,
0000
0000
0000
3003
;
