#VERSION:0.83;
#TITLE:On The Floor;
#SUBTITLE:-Baltimore Club Mix-;
#ARTIST:Jennifer Lopez ft. Pitbull Remixed by LeaF;
#TITLETRANSLIT:;
#SUBTITLETRANSLIT:;
#ARTISTTRANSLIT:;
#GENRE:;
#ORIGIN:;
#CREDIT:;
#BANNER:On The Floor Baltimore Club Mix.png;
#BACKGROUND:On The Floor Baltimore Club Mix-BG.png;
#PREVIEWVID:;
#JACKET:On The Floor Baltimore Club Mix-Jacket.png;
#CDIMAGE:;
#DISCIMAGE:;
#LYRICSPATH:;
#CDTITLE:;
#MUSIC:On The Floor Baltimore Club Mix.ogg;
#OFFSET:-0.937000;
#SAMPLESTART:100.628998;
#SAMPLELENGTH:24.000000;
#SELECTABLE:YES;
#BPMS:0.000=130.000;
#STOPS:;
#DELAYS:;
#WARPS:;
#TIMESIGNATURES:0.000=4=4;
#TICKCOUNTS:0.000=4;
#COMBOS:0.000=1;
#SPEEDS:0.000=1.000=0.000=0;
#SCROLLS:0.000=1.000;
#FAKES:;
#LABELS:0.000=Song Start;
#BGCHANGES:;
#KEYSOUNDS:;
#ATTACKS:
;

//---------------dance-single - ----------------
#NOTEDATA:;
#CHARTNAME:;
#STEPSTYPE:dance-single;
#DESCRIPTION:;
#CHARTSTYLE:;
#DIFFICULTY:Hard;
#METER:11;
#RADARVALUES:0.583094,0.736083,0.235214,0.000000,0.387412,590.000000,556.000000,34.000000,0.000000,0.000000,0.000000,0.000000,0.000000,0.000000,0.583094,0.736083,0.235214,0.000000,0.387412,590.000000,556.000000,34.000000,0.000000,0.000000,0.000000,0.000000,0.000000,0.000000;
#CREDIT:;
#NOTES:
1001
1001
0000
0000
0000
0000
0000
0000
,
0010
0000
0000
0000
,
1001
1001
1001
1001
,
1001
0000
0000
0000
0010
0000
0000
1000
,
0010
0100
0000
0000
0001
0000
0010
0000
0100
0000
0000
0100
0000
0000
0010
0000
,
0001
0000
0001
1000
0000
0000
1000
0000
1100
0000
0000
0000
0010
0000
0110
0000
,
1000
0001
0000
0000
0010
0000
1000
0000
0001
0000
0000
0001
0000
0000
1000
0000
,
0010
0000
0010
0100
0000
0000
0100
0000
0101
0000
0000
0000
1000
0000
1001
0000
,
0001
1000
0000
0000
0100
0000
0001
0000
1000
0000
0000
1000
0000
0000
0001
0000
,
0100
0000
0100
0010
0000
0000
0010
0000
1010
0000
0000
0000
0001
0000
1001
0000
,
0100
0010
0000
0000
1000
0000
0100
0000
0010
0000
0000
0010
0000
0000
0100
0000
,
1000
0000
1000
0001
0000
0000
0001
0000
0011
0000
0000
0000
0100
0000
0010
0000
,
0001
0000
0000
0000
1000
0000
0100
0000
0000
0000
1000
0000
0001
0010
0000
0000
,
0010
0000
0100
0000
0001
0000
1000
0001
0000
1000
0001
0000
0100
0000
0000
0000
,
0110
0000
0000
0010
0000
0000
1000
0000
0001
0000
0100
0000
0010
0000
0000
0000
,
1001
0000
0000
1000
0000
0000
1010
0000
1010
0000
0100
0000
0010
0000
0000
0000
,
0010
0000
0000
0100
0000
0000
0001
0000
1000
0000
0010
0000
0100
0000
0000
0000
,
1001
0000
0000
0001
0000
0000
0101
0000
0101
0000
0010
0000
0100
0000
0000
0000
,
1000
0000
0000
0100
1000
0000
0100
0000
1000
0000
0100
1000
0100
0000
1000
0000
,
0100
0000
0000
1000
0000
0000
0010
0000
1000
0000
0010
1000
0010
0000
1000
0000
,
0001
0000
0000
0010
0001
0000
0010
0000
0001
0000
0010
0001
0010
0000
0001
0000
,
0010
0000
0000
0001
0000
0000
0100
0000
0001
0000
0100
0001
0100
0000
0001
0000
,
0100
0000
0000
0010
0100
0000
0010
0000
0100
0000
0010
0000
0100
0000
0000
0000
,
0001
0000
0000
1000
0001
0000
1000
0000
0001
0000
1000
0000
0001
0000
0000
0000
,
1000
0000
0000
0001
1000
0000
0001
0000
1000
0000
0001
0000
1000
0000
0000
0000
,
0010
0000
0000
0100
0010
0000
0100
0000
0010
0000
0100
0000
0010
0000
0000
0000
,
1010
0000
0000
0010
1000
0000
0010
0000
1000
0000
0010
1000
0010
0000
1000
0000
,
1100
0000
0000
1000
0100
0000
1000
0000
0100
0000
1000
0100
1000
0000
0100
0000
,
0011
0000
0000
0001
0010
0000
0001
0000
0010
0000
0001
0010
0001
0000
0010
0000
,
0101
0000
0000
0100
0001
0000
0100
0000
0001
0000
0100
0001
0100
0000
0001
0000
,
1000
0000
0100
0000
0010
0000
0100
0010
0000
0100
0010
0000
0001
0000
0010
0000
,
0100
0000
0001
0000
1000
0000
0001
1000
0000
0001
1000
0000
0010
0000
1000
0000
,
0010
0000
1000
0000
0001
0000
1000
0001
0000
1000
0001
0000
0100
0000
0001
0000
,
1000
0000
0100
0000
1000
0000
0100
0000
1000
0000
0100
0000
1000
0000
0000
0001
0000
0000
0010
0000
0000
0001
0000
0000
0010
0000
0000
0001
0000
0000
0000
0000
0000
0100
0000
0000
0010
0000
0100
0000
0010
0000
0100
0000
0000
0010
0000
0000
,
0100
0000
0000
0000
1000
0000
0100
1000
0100
0000
0000
1000
0000
0000
0100
0000
,
1000
0010
0000
0010
0000
0010
0000
0010
,
0100
0000
0010
0000
0100
0010
0100
0010
0100
0000
0000
0010
0000
0000
0100
0000
,
0010
1000
0000
1000
0000
1000
0000
1000
,
0010
0000
0001
0000
0010
0001
0010
0000
0001
0010
0001
0000
0010
0000
0001
0000
,
0010
0100
0000
0100
0000
0100
0000
0100
,
0001
0000
1000
0001
1000
0001
1000
0001
1000
0001
1000
0001
1000
0000
0001
0000
,
1000
0001
0000
0001
0000
0001
0000
0001
,
1000
0000
0100
0000
1000
0100
1000
0000
0100
1000
0100
1000
0100
0000
1000
0000
,
0010
1000
0010
1000
0000
0010
1000
0010
1000
0010
1000
0010
1000
0000
0010
0000
,
0100
0000
0010
0100
0000
0010
0100
0010
0100
0010
0000
0100
0010
0000
0100
0000
,
0001
0000
0100
0001
0000
0100
0001
0100
0001
0100
0001
0100
0001
0100
0001
0000
,
0010
0000
0001
0010
0001
0000
0010
0000
0001
0010
0000
0001
0010
0000
0001
0000
,
1000
0000
0001
1000
0001
0000
1000
0001
1000
0000
0001
1000
0001
0000
1000
0000
,
0010
0100
0010
0100
0010
0000
0100
0000
0010
0100
0000
0010
0100
0010
0100
0000
,
0001
0000
1000
0000
0001
1000
0001
0000
1000
0001
1000
0001
1000
0000
0001
0000
,
0110
0110
0000
0000
0000
0000
0000
0000
,
0110
0110
0000
0000
0000
0000
1000
0000
,
0110
0110
0110
0110
,
0110
0000
0000
0000
1000
0000
0000
0001
,
0100
1000
0100
1000
0000
0010
0100
0010
,
0000
0100
0010
0100
0000
0001
0010
0001
,
1000
0000
0010
1000
0010
0000
0100
0000
0001
0000
1000
0000
0010
0000
0100
0000
,
0001
0000
0100
0001
0100
0000
0010
0000
1000
0000
0001
0000
0100
0000
0010
0000
,
0001
0100
0001
0100
0000
1000
0001
1000
,
0000
0001
1000
0001
0000
0010
1000
0010
,
0100
0000
1000
0100
1000
0000
0001
0000
0010
0000
0100
0000
1000
0000
0001
0000
,
0010
0000
0001
0010
0001
0000
1000
0000
0100
0000
0010
0000
0001
0000
1000
0000
,
1000
0010
1000
0010
0000
0001
1000
0001
,
0000
1000
0001
1000
0000
0100
0001
0100
,
0010
0000
0001
0010
0001
0000
1000
0000
0100
0000
0010
0000
0001
0000
1000
0000
,
0100
0000
1000
0100
1000
0000
0001
0000
0010
0000
0100
0000
1000
0000
0001
0000
,
0010
0001
0010
0001
0000
0100
0010
0100
,
0000
0010
0100
0010
0000
1000
0100
1000
,
0001
0000
0100
0001
0100
0000
0010
0000
1000
0000
0001
0000
0100
0000
0010
0000
,
1000
0000
0010
1000
0010
0000
0100
0000
0001
0000
1000
0000
0010
0000
0100
0000
,
1000
0000
1000
0000
,
1000
0000
1000
0100
,
1000
0000
0000
0100
0000
0000
1000
0000
0100
0000
1000
0000
0100
0000
0000
0000
,
0010
0000
0000
0100
0000
0000
0010
0000
0100
0000
0010
0000
0100
0000
0000
0000
,
0001
0000
0001
0000
,
0001
0000
0001
0000
,
0001
0000
0000
0000
;

//---------------dance-single - ----------------
#NOTEDATA:;
#CHARTNAME:;
#STEPSTYPE:dance-single;
#DESCRIPTION:;
#CHARTSTYLE:;
#DIFFICULTY:Medium;
#METER:6;
#RADARVALUES:0.294512,0.341753,0.069181,0.000000,0.000000,298.000000,288.000000,10.000000,0.000000,0.000000,0.000000,0.000000,0.000000,0.000000,0.294512,0.341753,0.069181,0.000000,0.000000,298.000000,288.000000,10.000000,0.000000,0.000000,0.000000,0.000000,0.000000,0.000000;
#CREDIT:;
#NOTES:
1000
0001
0000
0000
0000
0000
0000
0000
,
0010
0000
0000
0000
,
1001
1001
1001
1001
,
1001
0000
1000
0001
,
1000
0100
0010
1000
,
0100
0010
0001
1000
,
0001
1000
0100
0010
,
1000
1000
0010
0001
,
0100
0010
0001
1000
,
0010
1000
0001
0100
,
0010
0001
1000
1000
,
0001
0100
1000
0010
,
0100
0001
0010
0100
,
1000
0100
0001
0010
,
1000
0010
0100
1000
,
0001
0010
1000
1000
,
1000
0100
0001
0010
,
0100
1000
0010
0010
,
0001
0010
0001
0010
,
0001
1000
0001
1000
,
0100
0010
0100
0010
,
0100
1000
0001
1000
,
0001
1000
0001
1000
,
0100
0001
0100
0001
,
0100
0001
0100
0001
,
1000
0010
1000
0010
,
0001
0100
0001
0100
,
0001
0010
0001
0010
,
1000
0100
1000
0100
,
0010
0100
0010
0100
,
0001
1000
0010
0100
,
0010
0001
0100
1000
,
1000
0100
0000
0010
,
0001
0001
1000
1000
,
0010
0001
0010
1000
,
0001
1000
0000
1000
0000
1000
0000
1000
,
0010
1000
0010
1000
,
1000
0001
0000
0001
0000
0001
0000
0001
,
1000
0100
1000
0100
,
1000
0010
0000
0010
0000
0010
0000
0010
,
0001
0100
0001
0100
,
0001
0100
0000
0100
0000
0100
0000
0100
,
0001
0010
0001
0010
,
1000
0001
1000
0001
,
0010
1000
0010
1000
,
0100
0010
0100
0010
,
1000
0100
1000
0100
,
0001
0100
0001
0100
,
1000
0010
1000
0010
,
0100
0001
0100
0001
,
0100
0010
0000
0000
0000
0000
0000
0000
,
0010
0100
0000
0000
0000
0000
1000
0000
,
0110
0110
0110
0110
,
0110
0000
0001
0000
,
0010
0010
1000
0010
,
0001
1000
0100
1000
,
0001
1000
0100
1000
,
0100
0010
0001
0010
,
0100
0100
1000
0100
,
0010
0001
0100
0001
,
0010
0001
1000
0001
,
1000
0100
0010
0100
,
0001
0001
1000
0001
,
0010
0100
1000
0100
,
1000
0100
0010
0100
,
0010
0001
1000
0001
,
1000
1000
0100
1000
,
0010
0010
0100
0010
,
0100
0010
0001
0010
,
0001
1000
0100
1000
,
0001
0000
0001
0000
,
0001
0000
0001
0010
,
0001
0000
0010
0010
,
1000
0000
0010
0010
,
0100
0000
0100
0000
,
0100
0000
0100
0000
,
0100
0000
0000
0000
;

//---------------dance-single - ----------------
#NOTEDATA:;
#CHARTNAME:;
#STEPSTYPE:dance-single;
#DESCRIPTION:;
#CHARTSTYLE:;
#DIFFICULTY:Easy;
#METER:3;
#RADARVALUES:0.158127,0.210309,0.000000,0.000000,0.000000,160.000000,160.000000,0.000000,0.000000,0.000000,0.000000,0.000000,0.000000,0.000000,0.158127,0.210309,0.000000,0.000000,0.000000,160.000000,160.000000,0.000000,0.000000,0.000000,0.000000,0.000000,0.000000,0.000000;
#CREDIT:;
#NOTES:
// measure 0
0100
0000
0000
0000
,  // measure 1
0001
0000
0000
0000
,  // measure 2
0100
0010
0100
0010
,  // measure 3
0100
0000
0100
0000
,  // measure 4
0100
0000
0001
0000
,  // measure 5
1000
0000
0010
0000
,  // measure 6
0010
0000
1000
0000
,  // measure 7
0100
0000
0001
0000
,  // measure 8
1000
0000
0010
0000
,  // measure 9
0001
0000
0010
0000
,  // measure 10
0001
0000
0100
0000
,  // measure 11
0010
0000
0100
0000
,  // measure 12
1000
0000
0001
0000
,  // measure 13
0100
0000
0010
0000
,  // measure 14
0100
0000
1000
0000
,  // measure 15
0010
0000
0100
0000
,  // measure 16
0100
0000
0010
0000
,  // measure 17
1000
0000
0001
0000
,  // measure 18
0010
0000
0010
0000
,  // measure 19
0010
0000
0010
0000
,  // measure 20
1000
0000
1000
0000
,  // measure 21
1000
0000
0010
0000
,  // measure 22
0010
0000
0010
0000
,  // measure 23
1000
0000
1000
0000
,  // measure 24
1000
0000
1000
0000
,  // measure 25
0100
0000
0100
0000
,  // measure 26
0010
0000
0010
0000
,  // measure 27
0010
0000
0010
0000
,  // measure 28
0100
0000
0100
0000
,  // measure 29
0001
0000
0001
0000
,  // measure 30
0010
0000
0001
0000
,  // measure 31
0001
0000
1000
0000
,  // measure 32
0100
0000
0000
0001
,  // measure 33
0000
0010
0000
0100
,  // measure 34
0000
0010
0000
0100
,  // measure 35
0010
0100
0000
0000
0000
0100
0000
0000
,  // measure 36
0001
0000
0001
0000
,  // measure 37
0100
0010
0000
0000
0000
0010
0000
0000
,  // measure 38
0100
0000
0100
0000
,  // measure 39
0100
0001
0000
0000
0000
0001
0000
0000
,  // measure 40
0010
0000
0010
0000
,  // measure 41
0010
1000
0000
0000
0000
1000
0000
0000
,  // measure 42
0010
0000
0010
0000
,  // measure 43
0100
0000
0100
0000
,  // measure 44
0001
0000
0001
0000
,  // measure 45
1000
0000
1000
0000
,  // measure 46
0100
0000
0100
0000
,  // measure 47
0010
0000
0010
0000
,  // measure 48
0100
0000
0100
0000
,  // measure 49
1000
0000
1000
0000
,  // measure 50
1000
0001
0000
0000
0000
0000
0000
0000
,  // measure 51
0001
1000
0000
0000
0000
0000
0100
0000
,  // measure 52
1000
0001
1000
0001
,  // measure 53
1000
0000
0010
0000
,  // measure 54
0001
0000
0100
0000
,  // measure 55
0010
0000
1000
0000
,  // measure 56
0010
0000
1000
0000
,  // measure 57
1000
0000
0010
0000
,  // measure 58
1000
0000
0100
0000
,  // measure 59
0001
0000
1000
0000
,  // measure 60
0001
0000
0100
0000
,  // measure 61
0100
0000
0001
0000
,  // measure 62
0010
0000
0100
0000
,  // measure 63
0001
0000
0100
0000
,  // measure 64
0100
0000
0001
0000
,  // measure 65
0001
0000
0100
0000
,  // measure 66
0100
0000
1000
0000
,  // measure 67
0001
0000
1000
0000
,  // measure 68
1000
0000
0010
0000
,  // measure 69
0010
0000
1000
0000
,  // measure 70
0010
0000
0010
0000
,  // measure 71
0010
0000
0010
0001
,  // measure 72
0010
0000
0001
0000
,  // measure 73
0000
0000
0001
0000
,  // measure 74
1000
0000
1000
0000
,  // measure 75
1000
0000
1000
0000
,  // measure 76
1000
0000
0000
0000
;
