#TITLE:O-DRO-BOW;
#SUBTITLE:;
#ARTIST:からとP;
#TITLETRANSLIT:;
#SUBTITLETRANSLIT:;
#ARTISTTRANSLIT:Karato_P;
#GENRE:;
#CREDIT:;
#BANNER:O-DRO-BOW.png;
#BACKGROUND:O-DRO-BOW-BG.png;
#LYRICSPATH:;
#CDTITLE:;
#MUSIC:O-DRO-BOW.ogg;
#OFFSET:-1.221001;
#SAMPLESTART:20.913000;
#SAMPLELENGTH:12.000000;
#SELECTABLE:YES;
#BPMS:0.000000=195.000000
;
#STOPS:
;
#BGCHANGES:;
#KEYSOUNDS:;
#ATTACKS:;

//---------------dance-single - ----------------
#NOTES:
     dance-single:
     :
     Hard:
     11:
     0.608478,0.663748,0.201136,0.212967,0.591576,360.000000,343.000000,17.000000,18.000000,0.000000,0.000000,0.608478,0.663748,0.201136,0.212967,0.591576,360.000000,343.000000,17.000000,18.000000,0.000000,0.000000:
1000
0000
0000
0010
0000
0000
0100
0000
0000
0001
0000
0000
1000
0000
0001
0000
,
1000
0000
0000
0010
0000
0000
0100
0000
0000
0001
0000
0000
1000
0000
0010
0000
,
1000
0000
0000
0100
0000
0000
1000
0000
0000
0001
0000
0000
0010
0000
0001
0000
,
0100
0000
0000
0010
0000
0000
0100
0000
0000
1000
0000
0000
0001
0000
0010
0000
,
0100
0000
0000
0010
0000
0000
1000
0000
0000
0001
0000
0000
1000
0000
0010
0000
,
0100
0000
0000
0001
0000
0000
0100
0000
0000
0010
0000
0000
1000
0000
0001
0000
,
0010
0000
0000
0100
0000
0000
0001
0000
0000
1000
0000
0000
0010
0000
0100
0000
,
1000
0000
0000
0001
0000
0000
0010
0000
0000
0100
0000
0000
0010
0000
0001
0000
,
1000
0100
1000
0010
0100
0010
0001
0010
,
2000
3020
0230
0302
,
1003
0100
0010
0100
1000
0100
0010
0001
,
0100
0000
0000
0000
0110
0000
0000
0010
1000
0000
0001
0000
0010
0000
1000
0000
,
0020
2000
3030
0200
,
0002
0000
0000
0000
0303
0000
1000
0000
0100
0000
0010
0100
0000
0000
0010
0000
,
0002
0000
0000
0000
0003
1000
0100
0010
,
0001
0101
0110
1010
,
1000
0000
0001
0100
0000
0010
0000
0100
0000
0001
0000
1000
0000
0000
0000
0000
,
0001
0000
0000
0010
0000
0000
0100
0000
0000
0010
0000
0000
0001
0000
1000
0000
,
4004
0000
0000
0000
0000
0000
0000
0000
0000
0000
0000
0000
0000
3003
0000
0000
,
0010
0000
0000
0100
0000
0000
0001
0000
1000
0000
0000
0010
0000
0000
0100
0000
,
0001
0000
0100
0010
0000
0100
0000
1000
0000
0001
0000
0010
0000
0000
0000
0000
,
0100
0000
0000
0010
0000
0000
1000
0000
0000
0001
0000
0000
0100
0000
0010
0000
,
0440
0000
0000
0000
0000
0000
0000
0000
0000
0000
0000
0000
0000
0330
0000
0000
,
0001
0000
0000
0100
0000
0000
0010
0000
1000
0000
0000
0001
0000
0000
0100
0000
,
0001
0000
0000
0100
0000
0000
0010
0000
0000
1000
0000
0000
0001
0000
1000
0000
,
0001
0000
0000
0100
0000
0000
0010
0000
0000
1000
0000
0000
0001
0000
0100
0000
,
0001
0000
0000
0010
0000
0000
0001
0000
0000
1000
0000
0000
0100
0000
1000
0000
,
0010
0000
0000
0100
0000
0000
0010
0000
0000
0001
0000
0000
1000
0000
0100
0000
,
0010
0000
0000
0100
0000
0000
0001
0000
0000
1000
0000
0000
0001
0000
0100
0000
,
0010
0000
0000
1000
0000
0000
0010
0000
0000
0100
0000
0000
0001
0000
1000
0000
,
0100
0000
0000
0010
0000
0000
1000
0000
0000
0001
0000
0000
0100
0000
0010
0000
,
0001
0000
0000
1000
0000
0000
0100
0000
0000
0010
0000
0000
0100
0000
1000
0000
,
0001
0010
0001
0100
0010
0100
1000
0100
,
0002
0203
0320
2030
,
3001
0010
0100
0010
0001
0010
0100
1000
,
0010
0000
0000
0000
0110
0000
0000
0100
0001
0000
1000
0000
0100
0000
0001
0000
,
0200
0002
0303
0020
,
2000
0000
0000
0000
3030
0000
0001
0000
0010
0000
0100
0010
0000
0000
0100
0000
,
2000
0000
0000
0000
3000
0001
0010
0100
,
1000
1010
0110
0101
,
1000
0001
0000
0000
0100
0000
0010
0000
0001
0000
1000
0000
0000
0000
0000
0000
,
1000
0000
0000
0010
0000
0000
0100
0000
0001
0000
0000
1000
0000
0000
0001
0000
,
0404
0000
0000
0000
0000
0000
0000
0000
0000
0000
0000
0000
0000
0303
0000
0000
,
1000
0000
0000
0100
0000
0000
0010
0000
0100
0000
0000
0001
0000
0000
0100
0000
,
0010
1000
0000
0000
0001
0000
0010
0000
0100
0000
0010
0000
0000
0000
0000
0000
,
0001
0000
0000
1000
0000
0000
0010
0000
0100
0000
0000
0001
0000
0000
0010
0000
,
4040
0000
0000
0000
0000
0000
0000
0000
0000
0000
0000
0000
0000
3030
0000
0000
,
0100
0000
0000
0010
0000
0000
0001
0000
0010
0000
0000
0100
0000
0000
1000
0000
,
0100
0000
0010
0001
0000
1000
0000
0001
0000
0010
0000
0100
0000
0000
0000
0000
,
0010
0000
0000
1000
0000
0000
0001
0000
0000
1000
0000
0000
0010
0000
0100
0000
,
0404
0000
0000
0000
0000
0000
0000
0000
0000
0000
0000
0000
0000
0303
0000
0000
,
1000
0000
0000
0001
0000
0000
0010
0000
0100
0000
0000
1000
0000
0000
0001
0000
,
0010
0000
0001
1000
0000
0001
0000
0100
0000
0010
0000
1000
0000
0000
0000
0000
,
0001
0000
0000
1000
0000
0000
0100
0000
0000
0010
0000
0000
0001
0000
1000
0000
,
4040
0000
0000
3030
,
0100
0000
0000
0001
0000
0000
1000
0000
0100
0000
0000
0010
0000
0000
0001
0000
,
0010
0000
0100
1000
0000
0001
0000
1000
0000
0100
0000
0010
0000
0000
0000
0000
,
0100
0000
0000
0001
0000
0000
1000
0000
0000
0001
0000
0000
1000
0000
0100
0000
,
4400
0000
0000
0000
0000
0000
0000
0000
0000
0000
0000
0000
0000
3300
0000
0000
,
0001
0000
0000
1000
0000
0000
0100
0000
0010
0000
0000
0001
0000
0000
1000
0000
,
0100
0000
1000
0001
0000
1000
0000
0010
0000
0100
0000
0001
0000
0000
0000
0000
,
1000
0000
0000
0001
0000
0000
0010
0000
0000
0100
0000
0000
0010
0000
0001
0000
,
0044
0000
0000
0000
0000
0000
0000
0000
0000
0000
0000
0000
0000
0033
0000
0000
,
0100
0000
0000
1000
0000
0000
0001
0000
0010
0000
0000
0100
0000
0000
1000
0000
,
4004
0000
0000
0000
,
0000
0000
0000
0000
,
3003
0000
0000
0000
;

//---------------dance-single - ----------------
#NOTES:
     dance-single:
     :
     Medium:
     7:
     0.449598,0.507572,0.130147,0.473261,0.000000,266.000000,255.000000,11.000000,40.000000,0.000000,0.000000,0.449598,0.507572,0.130147,0.473261,0.000000,266.000000,255.000000,11.000000,40.000000,0.000000,0.000000:
1000
0000
0100
0000
0010
0000
0001
0100
,
1000
0000
0100
0000
1000
0000
0001
0100
,
0010
0000
0001
0000
1000
0000
0010
1000
,
0100
0001
0010
0100
,
0010
0000
0001
0000
1000
0000
0100
0010
,
1000
0000
0001
0000
0100
0000
0010
1000
,
0100
0000
0001
0000
0010
0000
0100
0001
,
0010
0100
1000
0100
,
0020
2030
3000
1000
,
0002
0023
0230
2300
,
3001
0010
0100
0010
,
0001
1000
0001
1000
,
0020
0230
0300
0002
,
2003
3000
0010
0100
,
0002
0000
0103
0010
,
1000
0100
0010
1001
,
1000
0100
1000
0001
0010
0001
0100
0000
,
0010
0100
1000
0001
,
0202
0000
0000
0303
,
1000
0010
0100
0001
,
1000
0010
1000
0001
0100
0001
0010
0000
,
0100
1000
0001
0010
,
2020
0000
0000
3030
,
0100
0001
0010
0100
,
0001
0000
0010
0000
0100
0000
1000
0010
,
0001
0000
0010
0000
0001
0000
1000
0010
,
0100
0000
1000
0000
0001
0000
0100
0001
,
0010
1000
0100
0010
,
0100
0000
1000
0000
0001
0000
0010
0100
,
0001
0000
1000
0000
0010
0000
0100
0001
,
0010
0000
1000
0000
0100
0000
0010
1000
,
0100
0010
0001
0010
,
0200
0302
0003
0001
,
2000
3200
0320
0032
,
1003
0100
0010
0100
,
1000
0001
1000
0001
,
0200
0320
0030
2000
,
3002
0003
0100
0010
,
2000
0000
3010
0100
,
0001
0010
0100
1001
,
1000
0100
0010
0001
,
1000
0100
1000
0001
,
0202
0000
0000
0303
,
0010
0100
0001
1000
,
0001
0010
0100
1000
,
0001
0010
0001
1000
,
2020
0000
0000
3030
,
0100
0010
1000
0001
,
0100
0001
0100
0010
1000
0010
0001
0000
,
1000
0001
0100
0010
,
0022
0000
0000
0033
,
0100
1000
0001
0010
,
0100
1000
0100
0010
0001
0010
1000
0000
,
0001
0100
0010
1000
,
2200
0000
0000
3300
,
0001
0010
1000
0001
,
0010
1000
0010
0100
0001
0100
1000
0000
,
0001
1000
0010
0100
,
2200
0000
0000
3300
,
0010
0001
1000
0100
,
0010
0001
0010
0100
1000
0100
0001
0000
,
1000
0010
0100
0001
,
0022
0000
0000
0033
,
1000
0100
0001
1000
,
2002
0000
0000
0000
,
0000
0000
0000
0000
,
3003
0000
0000
0000
;

//---------------dance-single - ----------------
#NOTES:
     dance-single:
     :
     Easy:
     4:
     0.221418,0.351396,0.011832,0.212967,0.000000,131.000000,130.000000,1.000000,18.000000,0.000000,0.000000,0.221418,0.351396,0.011832,0.212967,0.000000,131.000000,130.000000,1.000000,18.000000,0.000000,0.000000:
// measure 0
0001
0000
1000
0000
,  // measure 1
0001
0000
0001
0000
,  // measure 2
1000
0000
0001
0000
,  // measure 3
0010
0000
1000
0000
,  // measure 4
1000
0000
0001
0000
,  // measure 5
0001
0100
0000
1000
,  // measure 6
0000
0100
0000
0010
,  // measure 7
0000
0010
0000
0010
,  // measure 8
2000
0000
3000
0001
,  // measure 9
0100
1000
0010
0001
,  // measure 10
0100
1000
0010
1000
,  // measure 11
0100
0001
0100
0001
,  // measure 12
0020
0000
0030
0200
,  // measure 13
0000
0300
1000
0000
,  // measure 14
0200
0000
0300
0000
,  // measure 15
0001
0010
1000
0100
,  // measure 16
0001
0000
1000
0000
,  // measure 17
1000
0000
0001
0000
,  // measure 18
0200
0000
0000
0300
,  // measure 19
0001
0000
0010
0000
,  // measure 20
0001
0000
0010
0000
,  // measure 21
0010
0000
0100
0000
,  // measure 22
0002
0000
0000
0003
,  // measure 23
0010
0000
1000
0000
,  // measure 24
0100
0000
0010
0000
,  // measure 25
0100
0000
0100
0000
,  // measure 26
0010
0000
0100
0000
,  // measure 27
1000
0000
0010
0000
,  // measure 28
0010
0000
0100
0000
,  // measure 29
0100
0000
1000
0000
,  // measure 30
1000
0000
0010
0000
,  // measure 31
0010
0000
0100
0000
,  // measure 32
0020
0000
0030
0100
,  // measure 33
0001
0010
1000
0100
,  // measure 34
0001
0000
1000
0000
,  // measure 35
0001
0000
0001
0000
,  // measure 36
0020
0000
0030
2000
,  // measure 37
0000
3000
0010
0000
,  // measure 38
0002
0000
0003
0000
,  // measure 39
0100
1000
0010
0001
,  // measure 40
0001
0000
1000
0000
,  // measure 41
0001
0000
0001
0000
,  // measure 42
0020
0000
0000
0030
,  // measure 43
1000
0000
0100
0000
,  // measure 44
0100
0000
0010
0000
,  // measure 45
0100
0000
0100
0000
,  // measure 46
2000
0000
0000
3000
,  // measure 47
0010
0000
0001
0000
,  // measure 48
0010
0000
0001
0000
,  // measure 49
0001
0000
0010
0000
,  // measure 50
0200
0000
0000
0300
,  // measure 51
0010
0000
0100
0000
,  // measure 52
0010
0000
0100
0000
,  // measure 53
0100
0000
1000
0000
,  // measure 54
0020
0000
0000
0030
,  // measure 55
0100
0000
0001
0000
,  // measure 56
1000
0000
0100
0000
,  // measure 57
0100
0000
1000
0000
,  // measure 58
0020
0000
0000
0030
,  // measure 59
1000
0000
0001
0000
,  // measure 60
1000
0000
0001
0000
,  // measure 61
0001
0000
0010
0000
,  // measure 62
2000
0000
0000
3000
,  // measure 63
0001
0000
0100
0000
,  // measure 64
0202
0000
0000
0000
,  // measure 65
0000
0000
0000
0000
,  // measure 66
0303
0000
0000
0000
;
