#TITLE:Nagasaki Airport;
#SUBTITLE:;
#ARTIST:daiki;
#TITLETRANSLIT:;
#SUBTITLETRANSLIT:;
#ARTISTTRANSLIT:;
#GENRE:;
#CREDIT:;
#BANNER:Nagasaki Airport.png;
#BACKGROUND:Nagasaki Airport-BG.png;
#LYRICSPATH:;
#CDTITLE:;
#MUSIC:Nagasaki Airport.ogg;
#OFFSET:-1.051001;
#SAMPLESTART:13.071000;
#SAMPLELENGTH:24.000000;
#SELECTABLE:YES;
#BPMS:0.000000=180.000000
;
#STOPS:
;
#BGCHANGES:;
#KEYSOUNDS:;
#ATTACKS:;

//---------------dance-single - ----------------
#NOTES:
     dance-single:
     :
     Hard:
     13:
     0.836894,1.015986,0.028894,0.000000,0.368399,811.000000,807.000000,4.000000,0.000000,0.000000,0.000000,0.836894,1.015986,0.028894,0.000000,0.368399,811.000000,807.000000,4.000000,0.000000,0.000000,0.000000:
0000
0000
0000
0000
,
1000
0010
0100
0001
1000
0100
1000
0100
,
0010
0001
0010
0001
1000
0010
1000
0010
,
0100
0001
0100
0001
1000
0010
0100
0001
,
1000
0100
0001
0010
0001
0100
0010
0100
,
0001
0100
0010
1000
0001
0010
0001
0010
,
0100
1000
0100
1000
0001
0100
0010
1000
,
0001
0100
1000
0100
0010
0100
1000
0001
,
0010
0100
0000
0100
0000
0010
1000
0001
,
0100
0010
0100
1000
0001
0010
0001
0100
,
0010
0100
1000
0100
1000
0010
0100
0010
,
0001
0100
0010
1000
0001
0010
0100
1000
,
0100
1000
0001
0010
0001
0010
1000
0100
,
1000
0100
0001
0010
0001
0010
1000
0010
,
0100
0001
0010
0100
1000
0010
0100
0001
,
1000
0100
1000
0100
0010
0001
0010
0001
1000
0100
0010
0001
0010
0100
1000
0100
,
0010
0001
0000
0010
0000
0100
0000
1000
,
0001
0000
0010
0000
0100
0000
0010
0000
0001
0000
1000
0001
0000
1000
0001
0000
,
0010
0000
1000
0000
0001
0000
1000
0000
0010
0000
0100
0010
0000
0100
0010
0000
,
0100
0000
0001
0000
1000
0000
0001
0000
0100
0000
0010
0100
0000
0010
0100
0000
,
1000
0000
0100
0000
0010
0000
0100
0000
1000
0000
0001
1000
0000
0001
1000
0000
,
0001
0000
0100
0000
0001
0000
0010
0000
0001
0000
1000
0100
0000
1000
0100
0000
,
0010
0000
0001
0000
0010
0000
1000
0000
0010
0000
0100
0001
0000
0100
0001
0000
,
0100
0000
1000
0000
0100
0000
0001
0000
0100
0000
0010
1000
0000
0010
1000
0000
,
0001
0000
0010
0000
1000
0000
0100
0000
1000
0000
0001
0010
0000
0001
0010
0000
,
1000
0000
0001
0000
0100
0000
0010
0000
1000
0000
0001
0100
0000
0001
0100
0000
,
1000
0000
0010
0000
0001
0000
1000
0000
0100
0000
0010
0001
0000
0010
0001
0000
,
0010
0000
0100
0000
1000
0000
0001
0000
0010
0000
0100
1000
0000
0100
1000
0000
,
0001
0000
1000
0000
0010
0000
0100
0000
0001
0000
1000
0010
0000
1000
0010
0000
,
1000
0100
0010
0001
1000
0010
0100
0001
,
0010
0100
1000
0001
0010
0001
1000
0010
,
0100
0010
0100
0010
0100
0010
0100
0010
0100
0010
0100
0010
0100
0010
0100
0010
,
0100
0000
0000
0000
0000
0000
1001
1001
,
1000
0100
1000
0010
1000
0100
0001
0010
,
0001
0100
0001
0010
0001
0010
0100
0010
,
1000
0100
0010
0001
0100
0010
1000
0001
,
0010
0100
0010
0001
1000
0010
0100
0010
,
1000
0100
1000
0001
0010
0001
0100
0010
,
0100
1000
0010
1000
0001
0100
0001
1000
,
0100
0010
0100
0010
0001
1000
0100
1000
,
0001
0010
0001
0100
1000
0100
1000
0010
,
0001
0010
0001
0100
1000
0010
0100
0001
,
0010
1000
0100
1000
0001
0010
0001
1000
,
0010
0100
0001
0100
1000
0010
0100
0001
,
0010
1000
0001
0010
0100
0010
0001
1000
,
0100
0010
0100
1000
0010
0100
0001
0100
,
0010
0100
1000
0100
1000
0010
0001
0010
,
0001
0100
0010
1000
0001
0010
0100
0010
,
0001
0000
0000
0000
,
1000
0100
0010
0001
1000
0010
0100
0001
,
1000
0100
1000
0001
0010
0001
0100
0010
,
0100
1000
0001
1000
0001
0010
0100
0010
,
0001
1000
0010
0001
0010
1000
0001
0100
,
1000
0100
0001
1000
0010
0001
0010
1000
,
0001
0010
0100
1000
0100
0010
0001
0010
,
1000
0001
1000
0001
1000
0001
1000
0001
1000
0001
1000
0001
1000
0001
1000
0001
,
1000
0000
0000
1000
,
0001
0000
1000
0100
1000
0000
0010
0000
0100
0000
0001
0000
0010
0000
0100
0010
,
0100
0000
0010
0100
0010
0000
1000
0000
0100
0000
0010
0000
0001
0000
1000
0100
,
1000
0000
0001
0010
0001
0000
0100
0000
0010
0000
1000
0000
0001
0000
1000
0100
,
1000
0000
0001
0010
0001
0000
0100
0000
0010
0100
1000
0100
0010
0000
0001
0000
,
0100
0000
0010
0100
0010
0000
1000
0000
0010
0000
0100
0000
0001
0000
1000
0100
,
1000
0000
0001
0010
0001
0000
0100
0000
0010
0000
1000
0000
0001
0000
0100
0010
,
0100
0000
0001
1000
0001
0000
0100
0000
1000
0000
0001
0000
0010
0000
1000
0100
,
1000
0000
0001
0010
0001
0000
0100
0000
0001
0010
0100
0010
0001
0000
1000
0000
,
0100
0000
1000
0100
1000
0000
0010
0000
0001
0010
0100
0010
0001
0000
0010
0000
,
1000
0000
0001
0010
0001
0000
0100
0000
1000
0100
0010
0100
1000
0000
0001
0000
,
0010
0000
0100
0010
0100
0000
0001
0000
0010
0100
0010
0100
0010
0000
0001
0000
,
1000
0000
0010
1000
0010
0000
0100
0000
0010
1000
0010
1000
0010
0000
0100
0000
,
0001
0010
0001
0010
0001
0000
0100
0000
0010
0100
0010
0100
0010
0000
1000
0000
,
0100
1000
0100
1000
0100
0000
0001
0000
1000
0001
1000
0001
1000
0000
0010
0000
,
1000
0100
0010
0001
0010
0100
1000
0100
0010
0001
0010
0100
1000
0100
0010
0001
,
0010
0000
0000
0000
,
1000
0100
0010
0001
,
1000
0010
0100
0001
,
1000
0010
0100
0001
,
1000
0001
1000
0001
,
1000
0100
0010
0001
1000
0100
1000
0001
,
0010
0001
1000
0100
0010
0100
0010
0001
,
0010
0100
0010
0100
0010
0100
0010
0100
0010
0100
0010
0100
0010
0100
0010
0100
,
0010
0000
0000
0000
0000
0000
0110
0110
,
0100
0001
1000
0010
0100
0001
1000
0100
,
1000
0001
0010
0001
0100
0010
0001
0010
,
0001
0100
0010
0100
1000
0100
0001
0010
,
0001
1000
0010
1000
0100
0010
0001
0100
,
0010
0100
1000
0100
1000
0001
0010
0001
,
0100
0010
0001
0010
0100
1000
0010
0100
,
0010
0001
1000
0100
1000
0001
0010
0001
,
0000
1000
0100
1000
0010
0100
0001
0010
,
1000
0100
1000
0010
0100
0001
0010
0100
,
1000
0010
0100
0001
0010
0001
0100
0010
,
0001
1000
0010
0100
0001
0010
0100
0010
,
0100
1000
0001
0100
0010
1000
0100
1000
,
0010
0100
0001
0010
0100
1000
0010
0100
,
1000
0001
0010
0001
0100
1000
0001
0010
,
0100
1000
0010
0100
0001
1000
0001
0100
,
0010
0100
1000
0100
1000
0010
0100
0001
,
0010
0000
0000
0000
;

//---------------dance-single - ----------------
#NOTES:
     dance-single:
     :
     Medium:
     8:
     0.446825,0.525510,0.000000,0.000000,0.000000,433.000000,433.000000,0.000000,0.000000,0.000000,0.000000,0.446825,0.525510,0.000000,0.000000,0.000000,433.000000,433.000000,0.000000,0.000000,0.000000,0.000000:
0000
0000
0000
0000
,
0100
0001
0100
0010
,
0100
1000
0001
0100
,
1000
0010
0100
0001
,
1000
0010
0010
0100
,
0001
0001
0010
0100
,
0001
0100
0010
1000
,
0100
0010
1000
0001
,
0100
0000
0000
0001
,
0010
1000
0010
0001
,
0100
0010
0100
1000
,
0010
0100
0001
1000
,
0010
1000
0001
0010
,
0100
1000
0001
0010
,
0001
1000
0010
0010
,
0001
1000
0010
0100
1000
0001
0100
0010
,
0001
1000
0000
1000
0000
0100
0000
0001
,
0010
0000
0010
0000
1000
0010
0000
0100
,
0001
0000
0100
0000
0100
0010
0000
0001
,
1000
0000
0010
0000
0100
0001
0000
0010
,
1000
0000
0100
0000
0100
1000
0000
0001
,
0010
0000
0100
0000
1000
0010
0000
0001
,
0100
0000
1000
0000
0100
0010
0000
0001
,
1000
0000
0100
0000
1000
0001
0000
1000
,
0010
0000
0001
0000
0100
0010
0000
0001
,
1000
0000
0100
0000
0001
0010
0000
0100
,
0010
0000
1000
0000
0001
1000
0000
0010
,
1000
0000
0100
0000
0100
1000
0000
1000
,
0001
0000
0100
0000
1000
0100
0000
0010
,
0001
0001
1000
0001
,
0010
0001
0100
0010
,
0010
0001
0100
0010
1000
0100
1000
0001
,
0100
0000
0000
0000
0000
0000
0100
1000
,
0010
0100
0010
0100
,
1000
0001
0100
1000
,
0100
0010
0100
0010
,
0001
0010
1000
0100
,
0100
0010
0010
0001
,
0001
1000
0010
0100
,
0001
0100
1000
0010
,
0100
1000
0001
0010
,
1000
0001
0100
0010
,
1000
0001
1000
0100
,
0001
0010
1000
0001
,
0100
1000
0010
0100
,
1000
0100
0010
0001
,
0100
1000
0001
0010
,
1000
0010
0100
0001
,
0100
0000
0000
0000
,
1000
0001
0100
0001
,
1000
0010
0100
0001
,
0010
0001
1000
0100
,
0010
0100
0001
1000
,
0001
1000
0010
0100
,
1000
0100
0001
0100
,
0001
0010
0100
1000
0100
0010
0001
1000
,
0001
0000
0000
0010
,
1000
0001
0010
0000
0100
0000
0100
1000
,
0010
0001
0010
0000
1000
0000
0010
0100
,
0010
0001
0100
0000
0010
0000
0010
0100
,
1000
0010
0001
0000
0100
0010
0001
0000
,
0100
1000
0100
0000
0001
0000
0100
1000
,
0010
1000
0001
0000
0010
0000
0010
1000
,
0100
1000
0001
0000
0010
0000
0001
0100
,
1000
0100
1000
0000
0010
1000
0010
0000
,
0001
1000
0010
0000
0100
0010
0001
0000
,
1000
0100
0001
0000
0010
0100
0010
0000
,
0100
1000
0001
0000
0001
0010
0100
0000
,
1000
0010
0100
0000
0001
1000
0100
0000
,
0100
0010
1000
0000
1000
0010
1000
0000
,
0010
0100
1000
0000
0010
1000
0100
0000
,
0001
0100
0010
0001
1000
0010
0100
1000
,
0010
0000
0000
0000
,
0100
1000
0010
0001
,
1000
1000
0001
1000
,
0001
0100
0010
0100
,
0010
1000
0100
1000
,
0100
0010
0100
1000
,
0010
0100
0001
0100
,
0100
0001
1000
0010
0100
1000
0100
0010
,
0001
0000
0000
0000
0000
0000
1000
0001
,
0100
1000
0100
0001
,
0010
1000
0100
1000
,
0010
0001
0001
1000
,
0001
0100
1000
0010
,
1000
0100
0010
0001
,
0010
0100
1000
0010
,
1000
0100
0001
0010
,
0000
0001
0010
0001
,
1000
0010
0100
0010
,
0001
1000
0100
1000
,
0010
1000
0010
0001
,
0010
0100
1000
0100
,
1000
0010
0100
0001
,
0010
0100
1000
0010
,
0001
1000
0100
1000
,
0010
0010
0100
0100
,
0001
0000
0000
0000
;

//---------------dance-single - ----------------
#NOTES:
     dance-single:
     :
     Easy:
     4:
     0.249727,0.315306,0.000000,0.000000,0.000000,242.000000,242.000000,0.000000,0.000000,0.000000,0.000000,0.249727,0.315306,0.000000,0.000000,0.000000,242.000000,242.000000,0.000000,0.000000,0.000000,0.000000:
// measure 0
0000
0000
0000
0000
,  // measure 1
0100
0000
0100
0000
,  // measure 2
0100
0000
1000
0000
,  // measure 3
0001
0000
0100
0000
,  // measure 4
0001
0000
0010
0000
,  // measure 5
1000
0000
0010
0000
,  // measure 6
1000
0000
0010
0000
,  // measure 7
0100
0000
0001
0000
,  // measure 8
0100
0000
0000
1000
,  // measure 9
0000
0001
0000
1000
,  // measure 10
0000
0010
0000
0001
,  // measure 11
0000
0100
0000
0001
,  // measure 12
0000
0001
0000
0010
,  // measure 13
0000
0001
0000
0010
,  // measure 14
0000
0001
0000
0010
,  // measure 15
1000
0010
0001
0100
,  // measure 16
1000
0001
0000
0000
0000
0100
0000
0000
,  // measure 17
0010
0000
0000
0000
0001
0000
0000
0100
,  // measure 18
0000
0000
0100
0000
0100
0000
0000
1000
,  // measure 19
0000
0000
0010
0000
0100
0000
0000
0010
,  // measure 20
0000
0000
0100
0000
0100
0000
0000
1000
,  // measure 21
0000
0000
0100
0000
0001
0000
0000
1000
,  // measure 22
0000
0000
0001
0000
0100
0000
0000
1000
,  // measure 23
0000
0000
0100
0000
0001
0000
0000
0001
,  // measure 24
0000
0000
1000
0000
0100
0000
0000
1000
,  // measure 25
0000
0000
0100
0000
1000
0000
0000
0100
,  // measure 26
0000
0000
0001
0000
1000
0000
0000
0010
,  // measure 27
0000
0000
0100
0000
0100
0000
0000
0001
,  // measure 28
0000
0000
0100
0000
0001
0000
0000
0010
,  // measure 29
0000
1000
0000
1000
,  // measure 30
0000
1000
0000
0010
,  // measure 31
0010
0100
0001
0001
,  // measure 32
0100
0000
0000
0100
,  // measure 33
0010
0000
0010
0000
,  // measure 34
0001
0000
0100
0000
,  // measure 35
0100
0000
0100
0000
,  // measure 36
1000
0000
0001
0000
,  // measure 37
0100
0000
0010
0000
,  // measure 38
1000
0000
0010
0000
,  // measure 39
1000
0000
0001
0000
,  // measure 40
0100
0000
1000
0000
,  // measure 41
0001
0000
0100
0000
,  // measure 42
0001
0000
0001
0000
,  // measure 43
1000
0000
0001
0000
,  // measure 44
0100
0000
0010
0000
,  // measure 45
0001
0000
0010
0000
,  // measure 46
0100
0000
1000
0000
,  // measure 47
0001
0000
0100
0000
,  // measure 48
0100
0000
0000
0000
,  // measure 49
0001
0000
0100
0000
,  // measure 50
0001
0000
0100
0000
,  // measure 51
0010
0000
0001
0000
,  // measure 52
0010
0000
1000
0000
,  // measure 53
1000
0000
0010
0000
,  // measure 54
0001
0000
1000
0000
,  // measure 55
1000
0100
0100
1000
,  // measure 56
1000
0000
0000
0010
,  // measure 57
0001
0010
0100
0100
,  // measure 58
0010
0010
0001
0010
,  // measure 59
0010
0100
0010
0010
,  // measure 60
0001
1000
0100
1000
,  // measure 61
0100
0100
1000
0100
,  // measure 62
0010
1000
0010
0010
,  // measure 63
0100
1000
0010
1000
,  // measure 64
0001
0001
0010
0010
,  // measure 65
1000
0010
0100
1000
,  // measure 66
0001
1000
0010
0010
,  // measure 67
0100
1000
1000
0100
,  // measure 68
0001
0100
1000
0100
,  // measure 69
0100
0001
0001
0001
,  // measure 70
0010
0001
0010
0100
,  // measure 71
1000
0010
0001
0100
,  // measure 72
0010
0000
0000
0000
,  // measure 73
0100
0000
0010
0000
,  // measure 74
0001
0000
1000
0000
,  // measure 75
1000
0000
0010
0000
,  // measure 76
0010
0000
0100
0000
,  // measure 77
0100
0000
0100
0000
,  // measure 78
0010
0000
1000
0000
,  // measure 79
0100
0001
0100
0100
,  // measure 80
1000
0000
0000
0001
,  // measure 81
0100
0000
0100
0000
,  // measure 82
0010
0000
0100
0000
,  // measure 83
0010
0000
1000
0000
,  // measure 84
1000
0000
0001
0000
,  // measure 85
0001
0000
0010
0000
,  // measure 86
0010
0000
0001
0000
,  // measure 87
0001
0000
1000
0000
,  // measure 88
0000
1000
0000
1000
,  // measure 89
0000
0010
0000
0010
,  // measure 90
0000
0001
0000
0001
,  // measure 91
0000
0001
0000
1000
,  // measure 92
0000
0100
0000
0100
,  // measure 93
0000
0010
0000
1000
,  // measure 94
0000
0100
0000
0010
,  // measure 95
0000
0001
0000
0001
,  // measure 96
0000
0010
0000
0100
,  // measure 97
1000
0000
0000
0000
;
