#TITLE:Memory of Sunrise;
#SUBTITLE:;
#ARTIST:nora2r;
#TITLETRANSLIT:;
#SUBTITLETRANSLIT:;
#ARTISTTRANSLIT:;
#GENRE:;
#CREDIT:;
#BANNER:Memory of Sunrise.png;
#BACKGROUND:Memory of Sunrise-BG.png;
#LYRICSPATH:;
#CDTITLE:;
#MUSIC:Memory of Sunrise.ogg;
#OFFSET:0.024000;
#SAMPLESTART:22.643000;
#SAMPLELENGTH:12.000000;
#SELECTABLE:YES;
#BPMS:0.000000=180.000000
;
#STOPS:
;
#BGCHANGES:0.000=Memory of Sunrise.avi=1.000=1=0=1===CrossFade==,
99999=-nosongbg-=1.000=0=0=0 // don't automatically add -songbackground-
;
#KEYSOUNDS:;
#ATTACKS:;

//---------------dance-single - ----------------
#NOTES:
     dance-single:
     :
     Hard:
     11:
     0.675872,0.988525,0.331872,0.146641,0.420629,613.000000,570.000000,43.000000,19.000000,0.000000,0.000000,0.675872,0.988525,0.331872,0.146641,0.420629,613.000000,570.000000,43.000000,19.000000,0.000000,0.000000:
// measure 0
0000
0000
0000
0000
,  // measure 1
1000
0000
0001
0000
0000
0100
0000
0000
,  // measure 2
0001
0010
0100
0010
0000
1000
0000
0001
,  // measure 3
0000
0000
0100
0000
0000
0010
0000
0000
,  // measure 4
1000
0001
0100
0010
0000
1000
0000
0001
,  // measure 5
0000
0000
1000
0000
0000
0001
0000
0000
,  // measure 6
0100
0010
1000
0001
0000
1000
0000
0001
,  // measure 7
0000
0000
0100
0000
0000
0010
0000
0000
,  // measure 8
0001
0100
0010
1000
0001
0100
0010
1000
,  // measure 9
0001
0000
1000
0000
0000
0010
0000
0000
,  // measure 10
0100
0001
1000
0010
0000
0100
0000
0001
,  // measure 11
1000
0000
0010
0000
0000
0100
0000
0000
,  // measure 12
0010
1000
0001
0100
0010
0100
0000
0001
,  // measure 13
1000
0001
1000
0001
0100
0010
0100
0010
,  // measure 14
1000
0010
1000
0010
0100
0001
0100
0001
,  // measure 15
1000
0001
1000
0001
1000
0001
1000
0001
0100
0010
0100
0010
0100
0010
0100
0010
,  // measure 16
0100
0000
0000
0000
,  // measure 17
0001
2001
3010
0120
,  // measure 18
1030
0201
0310
1002
,  // measure 19
0103
0210
1300
2001
,  // measure 20
3100
0000
0000
0000
0012
0000
0000
0000
1003
0000
0000
0000
0001
0010
0100
1000
,  // measure 21
0001
0120
0031
1002
,  // measure 22
0013
2100
3001
0210
,  // measure 23
1300
1002
0103
0210
,  // measure 24
0301
0000
1020
0000
0230
0302
1003
0000
,  // measure 25
1001
0000
0000
0000
0001
0000
0000
1000
0000
0000
0010
0000
0100
0000
0010
0000
,  // measure 26
0001
0000
0000
1000
0000
0000
0010
0000
0000
0100
0000
0000
0001
0000
0000
0000
,  // measure 27
1000
0000
0000
0010
0000
0000
0100
0000
0000
0001
0000
0000
1000
0000
0000
0000
,  // measure 28
0001
0000
0000
0100
0000
0000
0010
0000
1000
0000
0001
0010
0100
1000
0100
0010
,  // measure 29
0001
0000
0000
1000
0000
0000
0010
0000
0000
0100
0000
0000
0001
0000
1000
0000
,  // measure 30
0001
0000
0000
1000
0000
0000
0010
0000
0000
0100
0000
0000
0010
0000
0000
0000
,  // measure 31
1000
0000
0000
0100
0000
0000
0010
0000
0000
0001
0000
0000
1000
0000
0000
0000
,  // measure 32
1000
0010
1000
0010
1000
0010
0100
0001
0100
0001
0100
0001
0100
0000
0000
0000
,  // measure 33
1000
0000
0001
0000
1000
0010
0100
0010
,  // measure 34
1000
0000
0000
0000
0001
0000
0100
0000
0000
0000
1000
0001
1000
0000
0010
0000
,  // measure 35
0100
0000
0001
0000
1000
0010
0100
0001
,  // measure 36
1000
0000
0000
0000
0001
0000
0100
0000
0000
0000
0001
0100
0001
0000
0010
0000
,  // measure 37
1000
0000
0001
0010
0100
1000
0001
0100
,  // measure 38
0010
1000
0001
0010
0100
1000
0010
0100
,  // measure 39
1000
0000
0001
0000
0100
0000
0010
0000
1000
0001
1000
0001
1000
0001
1000
0001
,  // measure 40
1000
0010
0100
0010
0100
0010
0100
0010
0100
0010
0100
0010
0100
0000
0000
0000
,  // measure 41
1001
0000
0000
0101
0000
0000
1001
0000
,  // measure 42
0000
0000
0000
0000
,  // measure 43
1010
0000
0000
0101
0000
0000
0110
0110
,  // measure 44
0000
0000
0000
0000
1000
0001
1000
0001
,  // measure 45
1001
0000
0000
0110
0000
0000
1001
0000
,  // measure 46
0000
0000
0000
0000
,  // measure 47
0101
0000
0000
1010
0000
0000
0110
0000
,  // measure 48
0000
0000
0000
1010
0000
0000
0101
0000
,  // measure 49
1001
1000
0010
0100
,  // measure 50
0101
0010
0100
1000
,  // measure 51
1010
0001
0010
0100
,  // measure 52
1001
0010
0100
0010
,  // measure 53
0110
0010
1010
1000
,  // measure 54
1001
0001
0101
0100
,  // measure 55
1000
0001
1000
0001
0100
0010
0100
0010
,  // measure 56
1000
0001
1000
0000
0001
0000
0000
0000
1000
0010
0100
0001
1000
0010
0100
0001
,  // measure 57
1000
0000
0010
0000
0100
0001
1000
0010
,  // measure 58
0000
1000
0002
0000
0000
0000
0003
0000
,  // measure 59
0010
0000
1000
0000
0001
0100
0010
1000
,  // measure 60
0000
0001
2000
0000
0000
0000
3000
0000
,  // measure 61
0010
0000
0100
0000
0001
0010
0100
1000
,  // measure 62
0000
0001
0100
0010
0100
0001
1000
0010
,  // measure 63
0001
0010
1000
0100
0001
0100
1000
0000
,  // measure 64
0010
0100
0001
0000
1000
0010
0100
0000
,  // measure 65
1000
0001
0100
0010
,  // measure 66
1000
0000
0001
1000
0000
0000
0010
0000
0000
0010
1000
0001
,  // measure 67
0100
0010
0001
1000
,  // measure 68
0001
1000
0001
1000
0000
0010
0100
0000
0000
0010
1000
0001
,  // measure 69
0100
0000
0000
1000
0010
0100
0001
0000
0010
0000
1000
0001
,  // measure 70
1000
0000
0010
0000
0100
0001
0100
0000
1000
0100
0010
0001
,  // measure 71
2000
0000
0000
0000
,  // measure 72
3001
0000
0000
0010
0000
0100
0000
0000
,  // measure 73
1000
0000
0000
0001
1000
0000
0010
0000
1000
0010
1000
0010
1000
0000
0100
0000
,  // measure 74
0001
0000
1000
0000
0010
0000
1000
0100
0010
0001
0010
0100
1000
0000
0001
0000
,  // measure 75
0100
0000
0000
0010
0100
0000
0001
0000
1000
0010
0100
0001
1000
0000
0001
0000
,  // measure 76
1000
0100
0010
0001
0010
0100
1000
0100
0010
0000
0100
0000
0001
0000
1000
0100
,  // measure 77
0010
0000
0000
0001
0100
0000
0010
0000
1000
0100
0001
0000
0010
0000
1000
0000
,  // measure 78
0001
0000
1000
0000
0010
0000
0100
0010
0100
0000
0001
0000
0010
0000
0100
0000
,  // measure 79
1000
0000
0001
0000
1000
0000
0000
0001
1000
0000
0001
0010
0100
0010
0001
0010
,  // measure 80
0100
0000
1000
0000
0010
0000
0100
0000
0001
1000
0001
0000
1000
0000
0010
0000
,  // measure 81
0100
0000
0000
0001
0000
0000
1000
0000
0000
0001
0010
0100
1000
0000
0001
0000
,  // measure 82
0100
0000
0010
0000
1000
0000
0001
0010
0100
1000
0100
0010
0001
0000
1000
0000
,  // measure 83
0001
0000
0000
0100
0000
0000
0010
0000
0000
1000
0100
0010
0001
0000
1000
0000
,  // measure 84
0001
0010
0100
1000
0000
0001
0100
0010
1000
0000
0001
0000
1000
0000
0001
0010
,  // measure 85
0100
0000
0000
0010
0000
0000
1000
0000
0000
0001
1000
0000
0010
0000
0100
0000
,  // measure 86
0010
0000
1000
0000
0001
0000
1000
0100
1000
0000
0010
0000
0100
0000
0001
0000
,  // measure 87
0000
0000
1001
0000
0000
1010
0000
0000
1001
0000
0000
0101
0000
0000
1001
0000
,  // measure 88
1000
0000
0001
0000
0100
0000
0010
0000
1000
0001
1000
0000
0010
0000
0100
0000
,  // measure 89
0001
0000
0010
0000
0000
0100
0000
0000
,  // measure 90
0001
1000
0001
1000
0000
0100
0000
0010
,  // measure 91
0000
0000
1000
0000
0000
0001
0000
0000
,  // measure 92
0100
0001
1000
0010
0000
0100
0000
0001
,  // measure 93
0000
0000
1000
0000
0000
0001
0000
0000
,  // measure 94
0010
1000
0001
0100
0000
0010
0000
1000
;

//---------------dance-single - ----------------
#NOTES:
     dance-single:
     :
     Medium:
     7:
     0.417872,0.549181,0.046308,0.138923,0.007718,379.000000,373.000000,6.000000,18.000000,0.000000,0.000000,0.417872,0.549181,0.046308,0.138923,0.007718,379.000000,373.000000,6.000000,18.000000,0.000000,0.000000:
0000
0000
0000
0000
,
0001
0000
0100
0000
0000
0010
0000
0000
,
0100
1000
0010
1000
0000
0001
0000
0100
,
0000
0000
0010
0000
0000
1000
0000
0000
,
0001
0100
0010
1000
0000
0001
0000
0100
,
0000
0000
0001
0000
0000
0100
0000
0000
,
0010
1000
0001
0100
0000
0001
0000
0100
,
0000
0000
0010
0000
0000
1000
0000
0000
,
0100
0010
1000
0001
0000
0010
0000
0001
,
0000
0000
0001
0000
0000
1000
0000
0000
,
0010
0100
0001
1000
0000
0010
0000
0100
,
0000
0000
1000
0000
0000
0010
0000
0000
,
1000
0001
0100
0010
0000
0010
0000
0100
,
0001
0001
0010
0010
,
1000
1000
0100
0100
,
0001
0010
1000
0100
1000
0010
0001
0010
,
1000
0000
0000
0000
,
0100
0002
0003
2000
,
3000
0020
0030
0200
,
0300
0020
0030
0002
,
0003
0000
0200
0000
0300
0000
0100
0010
,
0100
2000
3000
0200
,
0300
0002
0003
0020
,
0030
0200
0300
0020
,
0030
2000
3020
0030
,
0101
0000
0100
0000
0001
1000
0010
1000
,
0000
0000
1000
0010
0000
0100
1000
0010
,
0001
0000
1000
0000
0010
0100
0001
1000
,
0000
0010
1000
0000
0001
1000
0010
0100
,
0001
0000
1000
0000
0010
1000
0100
0001
,
0000
0001
1000
0010
0100
0000
1000
0000
,
0001
0010
1000
0100
0001
1000
0010
0000
,
0001
1000
0001
1000
0010
0100
0010
0000
,
0001
0000
0100
0000
0001
1000
0010
1000
,
0001
0000
0100
0010
0000
0100
0001
1000
,
0010
0000
0100
0000
0001
1000
0010
0100
,
0001
0000
0100
0010
0000
0100
0010
1000
,
0001
0100
0010
1000
,
0001
0100
0010
1000
,
0001
0000
0010
0000
0001
1000
0001
1000
,
0001
0100
0010
0100
0010
0100
0010
0000
,
0001
0000
0000
0100
0000
0000
0101
0000
,
0000
0000
0000
0000
,
0001
0000
0000
0100
0000
0000
1000
1010
,
0000
0000
0000
0000
,
0001
0000
0000
1000
0000
0000
0101
0000
,
0000
0000
0000
0000
,
0100
0000
0000
0001
0000
0000
1010
0000
,
0000
0000
0000
0001
0000
0000
0100
0000
,
0101
0001
1000
0010
,
0100
1000
0010
0001
,
1000
0100
1000
0010
,
0001
1000
0010
1000
,
0010
1000
0001
0001
,
0100
0100
0010
0010
,
0001
0100
0010
1000
,
0001
0000
0100
0000
0001
0010
1000
0010
,
0001
1000
0010
0001
,
1000
0200
0000
0300
,
1000
0001
0100
1000
,
0010
0002
0000
0003
,
1000
0010
0100
0010
,
1000
0010
0010
0001
,
0100
0010
1000
0001
,
1000
0100
0001
0010
,
0001
0100
0010
1000
,
0001
0001
1000
1000
,
0010
1000
0100
0001
,
0100
0001
0010
1000
,
0010
0001
0100
1000
,
0001
1000
0010
0010
,
0002
0000
0000
0000
,
0103
0000
0000
1000
0000
0010
0000
0000
,
0001
1000
0010
1000
,
0100
1000
1000
0001
,
0010
0010
0001
0001
,
0001
1000
1000
0100
,
1000
0010
0001
1000
,
0100
1000
0010
1000
,
0001
1000
0001
0010
,
0010
1000
0100
0001
,
0010
1000
0100
0001
,
0010
0001
1000
0100
,
0100
0010
0001
0100
,
0100
1000
0001
0001
,
0010
1000
0010
1000
,
1000
0100
0001
0010
,
0000
0000
1000
0000
0000
0001
0000
0000
0100
0000
0000
0010
0000
0000
0100
0000
,
0001
0010
0001
1000
,
0100
0000
1000
0000
0000
0010
0000
0000
,
0100
0001
0100
0001
0000
0010
0000
1000
,
0000
0000
0001
0000
0000
0100
0000
0000
,
0010
0100
0001
1000
0000
0010
0000
0100
,
0000
0000
0001
0000
0000
0100
0000
0000
,
1000
0001
0100
0010
0000
1000
0000
0001
;

//---------------dance-single - ----------------
#NOTES:
     dance-single:
     :
     Easy:
     4:
     0.211692,0.256284,0.000000,0.023154,0.000000,192.000000,192.000000,0.000000,3.000000,0.000000,0.000000,0.211692,0.256284,0.000000,0.023154,0.000000,192.000000,192.000000,0.000000,3.000000,0.000000,0.000000:
0000
0000
0000
0000
,
0100
0000
0010
0000
0000
1000
0000
0000
,
0010
0000
1000
0000
0000
0000
0000
0010
,
0000
0000
1000
0000
0000
0001
0000
0000
,
0100
0000
1000
0000
0000
0000
0000
0010
,
0000
0000
0100
0000
0000
0010
0000
0000
,
1000
0000
0100
0000
0000
0000
0000
0010
,
0000
0000
1000
0000
0000
0001
0000
0000
,
0010
0000
0001
0000
0000
0000
0000
0100
,
0000
0000
0100
0000
0000
0001
0000
0000
,
1000
0000
0100
0000
0000
0000
0000
0010
,
0000
0000
0001
0000
0000
1000
0000
0000
,
0001
0000
0010
0000
0000
0000
0000
0010
,
0100
0000
1000
0000
,
0001
0000
0010
0000
,
0100
0001
0010
0100
,
0001
0000
0000
0000
,
0010
0000
0100
0000
,
0001
0000
1000
0000
,
0010
0000
1000
0000
,
0100
0000
0010
1000
,
0010
0000
0001
0000
,
0010
0000
0100
0000
,
1000
0000
0010
0000
,
1000
0000
0001
1000
,
0010
0000
0100
0000
,
0001
0000
1000
0000
,
0100
0000
1000
0000
,
0010
0000
0100
0000
,
1000
0000
1000
0000
,
0010
0000
0100
0000
,
0010
0000
1000
0000
,
0001
0000
1000
0000
,
0010
0000
0100
0000
,
0100
0000
0010
0000
,
1000
0000
0001
0000
,
0100
0000
0010
0000
,
0100
0000
1000
0000
,
0100
0000
1000
0000
,
0100
0000
0001
0000
,
0100
0000
0010
0000
,
0100
0000
0000
0010
,
0000
0000
0000
0000
,
0100
0000
0000
0001
,
0000
0000
0000
0000
,
0100
0000
0000
0010
,
0000
0000
0000
0000
,
0010
0000
0000
1000
,
0000
0000
0000
0000
,
0010
0000
0001
0000
,
0010
0000
1000
0000
,
0001
0000
0001
0000
,
0100
0000
1000
0000
,
1000
0000
0100
0000
,
0010
0000
1000
0000
,
0100
0000
1000
0000
,
0100
0000
0100
0001
,
0100
0000
1000
0000
,
0001
0020
0000
0030
,
0001
0000
0010
0000
,
1000
0200
0000
0300
,
0001
0000
0010
0000
,
0001
0000
1000
0000
,
0100
0000
0001
0000
,
1000
0000
0010
0000
,
0100
0000
1000
0000
,
0010
0000
0001
0000
,
1000
0000
0010
0000
,
0100
0000
1000
0000
,
0010
0000
1000
0000
,
0100
0000
1000
0000
,
0200
0000
0000
0000
,
0310
0000
0001
0000
,
0100
0000
1000
0000
,
0010
0000
0001
0000
,
1000
0000
0100
0000
,
0100
0000
0001
0000
,
0001
0000
0100
0000
,
0010
0000
1000
0000
,
0100
0000
0100
0000
,
1000
0000
0010
0000
,
1000
0000
0010
0000
,
1000
0000
0001
0000
,
0010
0000
0100
0000
,
0010
0000
0100
0000
,
1000
0000
1000
0000
,
0001
0000
0100
0000
,
0010
0000
0010
0000
,
0100
0000
0100
0000
,
0010
0000
0000
0000
0000
1000
0000
0000
,
0010
0000
0010
0000
0000
0000
0000
0001
,
0000
0000
0100
0000
0000
0010
0000
0000
,
1000
0000
0100
0000
0000
0000
0000
0010
,
0000
0100
0000
0000
,
0001
0000
0010
0000
0000
0000
0000
0100
;
