#TITLE:Mariana Revenge;
#SUBTITLE:;
#ARTIST:b-UMB;
#TITLETRANSLIT:;
#SUBTITLETRANSLIT:;
#ARTISTTRANSLIT:;
#GENRE:;
#CREDIT:;
#BANNER:Mariana Revenge.png;
#BACKGROUND:Mariana Revenge-BG.png;
#LYRICSPATH:;
#CDTITLE:;
#MUSIC:Mariana Revenge.ogg;
#OFFSET:0.041000;
#SAMPLESTART:44.709000;
#SAMPLELENGTH:12.000000;
#SELECTABLE:YES;
#BPMS:0.000000=180.000000
;
#STOPS:
;
#BGCHANGES:;
#KEYSOUNDS:;
#ATTACKS:;

//---------------dance-single - ----------------
#NOTES:
     dance-single:
     :
     Hard:
     10:
     0.791970,1.016481,0.007153,0.014307,1.348393,775.000000,774.000000,1.000000,2.000000,0.000000,0.000000,0.791970,1.016481,0.007153,0.014307,1.348393,775.000000,774.000000,1.000000,2.000000,0.000000,0.000000:
0000
0000
0000
0000
,
1000
0100
0010
0100
,
0001
0000
0010
0100
0010
0000
0000
0000
,
0000
0001
0010
0100
,
1000
0000
0000
0001
0000
0000
1000
0000
,
0000
0010
0100
0010
,
0001
0000
0000
1000
0000
0000
0010
0000
,
0000
0100
0010
0000
,
1000
0000
0000
0000
,
0001
0000
0000
0000
0010
0000
0000
0100
,
0010
0000
0000
0100
1000
0000
0000
0000
,
0000
0001
0010
0100
,
1000
0000
0000
0001
0000
0000
1000
0000
,
0000
0000
0010
0100
0010
0001
0010
0100
,
0010
0100
0000
0100
1000
0000
0000
1000
0000
1000
0001
0000
0001
0010
0000
0010
,
0000
0010
0100
0000
0100
0010
0000
0010
0000
0010
1000
0000
1000
0100
0010
0001
,
0000
1000
0100
0000
1000
0100
0000
1000
0000
0100
1000
0000
0100
1000
0000
0100
,
0000
0000
0000
0000
,
0010
0100
0000
0010
0100
0000
0010
0000
0100
0010
0000
0100
0010
0100
0010
0100
,
0000
0000
0000
0000
,
0010
0001
0000
0010
0001
0000
0010
0000
0001
0010
0000
0001
0010
0000
0001
0000
,
0000
0000
0000
0000
,
0001
1000
0000
0001
1000
0000
0001
0000
1000
0001
0000
1000
0001
1000
0001
0000
,
0000
0000
0000
0000
,
1000
0100
0000
1000
0100
0000
1000
0000
0100
1000
0000
0100
1000
0000
0000
0000
,
0010
0001
0000
0010
0001
0000
0010
0000
0001
0010
0000
0001
0010
0000
0000
0000
,
1000
0100
0000
1000
0100
0000
1000
0000
0100
1000
0000
0100
1000
0000
0000
0000
,
0001
0010
0000
0001
0010
0000
0001
0000
0010
0001
0000
0010
0001
0000
1000
0100
,
0010
0000
1000
0100
0010
0000
0100
0010
0001
0000
0100
0010
0001
0000
0001
0010
,
0100
0000
0001
0010
0100
0000
0010
0100
1000
0000
0010
0100
1000
0000
0001
0010
,
0100
1000
0100
0010
0001
0010
0100
1000
0100
0010
0001
0010
0100
1000
0100
0000
,
0220
0000
0000
0330
,
0001
0010
0000
0010
0100
0000
0000
0100
0000
0100
1000
0000
1000
0010
0000
0010
,
0000
0010
0100
0000
0100
0001
0000
0001
0000
0001
0010
0000
0010
0001
1000
0100
,
0010
0100
1000
0000
0001
0010
0000
0010
0000
0010
0100
0000
0100
1000
0000
1000
,
0000
1000
0010
0000
0010
0100
0000
0100
0000
0100
1000
0000
1000
0001
1000
0001
,
1000
0001
0000
0001
0100
0000
0000
0100
0000
0100
0010
0000
0010
1000
0000
1000
,
0000
1000
0001
0000
0001
0010
0000
0010
0000
0010
1000
0000
1000
0001
1000
0001
,
1000
0001
0000
0001
0100
0000
0000
0100
0000
0100
0010
0000
0010
1000
0000
1000
,
0000
1000
0001
0000
0001
0010
0000
0010
0000
0010
1000
0000
1000
0001
1000
0001
,
1000
0001
0000
0001
1000
0000
0000
1000
0000
1000
0010
0000
0010
0100
0000
0100
,
0000
0100
0001
0000
0001
0010
0000
0010
0000
0010
0100
0000
0100
0001
0100
0001
,
0100
0001
0000
0000
0010
1000
0000
1000
0000
1000
0001
0000
0001
0100
0000
0100
,
0000
0100
1000
0000
1000
0001
0000
0001
0000
0001
0100
0000
0100
0010
0100
0010
,
0100
0010
0000
0010
0001
0000
0000
0001
0000
0001
1000
0000
1000
0100
0000
0100
,
0000
0100
0010
0000
0010
1000
0000
1000
0000
1000
0100
0000
0100
0010
0100
0010
,
0100
0010
0000
0010
0001
0000
0000
0001
0000
0001
1000
0000
1000
0100
0000
0100
,
0000
0100
0010
0000
0010
1000
0000
1000
0000
1000
0100
0000
0100
0010
0100
0010
,
0100
0010
0000
0010
0100
0000
0000
0100
0000
0100
1000
0000
1000
0001
0000
0001
,
0000
0001
0010
0000
0010
1000
0000
1000
0000
1000
0001
0000
0001
0010
0001
0010
,
0001
0010
0001
0000
1000
0100
0000
0100
0000
0100
0010
0000
0010
0001
0000
0001
,
0000
0001
0100
0000
0100
0010
0000
0010
0000
0010
0001
0000
0001
1000
0001
1000
,
0001
1000
0000
1000
0010
0000
0000
0010
0000
0010
0100
0000
0100
0001
0000
0001
,
0000
0001
1000
0000
1000
0100
0000
0100
0000
0100
0001
0000
0001
1000
0001
1000
,
0001
1000
0000
1000
0010
0000
0000
0010
0000
0010
0100
0000
0100
0001
0000
0001
,
0000
0001
1000
0000
1000
0100
0000
0100
0000
0100
0001
0000
0001
1000
0001
1000
,
0001
1000
0000
1000
0001
0000
0000
0001
0000
0001
0100
0000
0100
0010
0000
0010
,
0000
0010
1000
0000
1000
0100
0000
0100
0000
0100
0010
0000
0010
1000
0010
1000
,
0010
1000
0010
0000
0100
0001
0000
0001
0000
0001
1000
0000
1000
0010
0000
0010
,
0000
0010
0001
0000
0001
1000
0000
1000
0000
1000
0010
0000
0010
0100
0010
0100
,
0010
0100
0000
0100
1000
0000
0000
1000
0000
1000
0001
0000
0001
0010
0000
0010
,
0000
0010
0100
0000
0100
0001
0000
0001
0000
0001
0010
0000
0010
0100
0010
0100
,
0010
0100
0000
0100
1000
0000
0000
1000
0000
1000
0001
0000
0001
0010
0000
0010
,
0000
0010
0100
0000
0100
0001
0000
0001
0000
0001
0010
0000
0010
0100
0010
0100
,
0010
0100
0000
0100
0010
0000
0000
0010
0000
0010
0001
0000
0001
1000
0000
1000
,
0000
1000
0100
0000
0100
0001
0000
0001
0000
0001
1000
0000
1000
0100
1000
0100
,
1000
0000
0000
0000
,
0010
0000
0100
0000
,
0001
0000
0000
0001
1000
0000
0000
0000
,
0000
1000
0100
0010
,
0001
0000
0000
1000
0000
0000
0010
0000
,
0000
0100
0010
0100
,
1000
0000
0000
0001
0000
0000
0100
0000
,
0000
0010
0100
0000
,
1000
0000
0000
0000
,
0001
0000
0000
0000
0100
0000
0000
0010
,
1000
0000
0000
0001
0100
0000
0000
0000
,
0000
0010
0100
0001
,
1000
0000
0000
0010
0000
0000
1000
0000
,
0000
0000
0001
0010
0100
1000
0100
0010
,
0100
0001
0000
0001
1000
0000
0000
1000
0000
1000
0010
0000
0010
0001
0000
0001
,
0000
0001
1000
0000
1000
0100
0000
0100
0000
0100
0001
0000
0001
0100
0010
1000
,
0001
1000
0010
0000
0100
0001
0000
0001
0000
0001
1000
0000
1000
0010
0000
0010
,
0000
0010
0001
0000
0001
1000
0000
1000
0000
1000
0010
0000
0010
0100
0010
0100
,
0010
0100
0000
0100
1000
0000
0000
1000
0000
1000
0001
0000
0001
0010
0000
0010
,
0000
0010
0100
0000
0100
0001
0000
0001
0000
0001
0010
0000
0010
0100
0010
0100
,
0010
0100
0000
0100
1000
0000
0000
1000
0000
1000
0001
0000
0001
0010
0000
0010
,
0000
0010
0100
0000
0100
0001
0000
0001
0000
0001
0010
0000
0010
0100
0010
0100
,
0010
0100
0000
0100
0010
0000
0000
0010
0000
0010
0001
0000
0001
1000
0000
1000
,
0000
1000
0100
0000
0100
0001
0000
0001
0000
0001
1000
0000
1000
0100
1000
0100
,
1000
0100
1000
0000
0001
0010
0000
0010
0000
0010
0100
0000
0100
1000
0000
1000
,
0000
1000
0010
0000
0010
0100
0000
0100
0000
0100
1000
0000
1000
0001
1000
0001
,
1000
0001
0000
0001
0100
0000
0000
0100
0000
0100
0010
0000
0010
1000
0000
1000
,
0000
1000
0001
0000
0001
0010
0000
0010
0000
0010
1000
0000
1000
0001
1000
0001
,
1000
0001
0000
0001
0100
0000
0000
0100
0000
0100
0010
0000
0010
1000
0000
1000
,
0000
1000
0001
0000
0001
0010
0000
0010
0000
0010
1000
0000
1000
0001
1000
0001
,
1000
0001
0000
0001
1000
0000
0000
1000
0000
1000
0010
0000
0010
0100
0000
0100
,
0000
0100
0001
0000
0001
0010
0000
0010
0000
0010
0100
0000
0100
0001
0100
0001
,
0100
0000
0000
0000
;

//---------------dance-single - ----------------
#NOTES:
     dance-single:
     :
     Medium:
     7:
     0.414890,0.630919,0.293284,0.128759,0.003577,406.000000,365.000000,41.000000,18.000000,0.000000,0.000000,0.414890,0.630919,0.293284,0.128759,0.003577,406.000000,365.000000,41.000000,18.000000,0.000000,0.000000:
0000
0000
0000
0000
,
1000
0000
0010
0000
,
0001
0000
0000
0100
0010
0000
0000
0000
,
0000
0001
0010
0100
,
1000
0000
0000
0001
0000
0000
1000
0000
,
0000
0010
0100
0010
,
0001
0000
0000
1000
0000
0000
0010
0000
,
0000
0100
0010
0000
,
1000
0000
0000
0000
,
0001
0000
0000
0000
0010
0000
0000
0100
,
0010
0000
0000
0100
1000
0000
0000
0000
,
0000
0001
0010
0100
,
1000
0000
0000
0001
0000
0000
1000
0000
,
0000
0000
0010
0100
0010
0001
0010
0100
,
0010
0000
0000
1000
0000
0000
0001
0000
,
0000
0000
0000
0010
0000
0000
0001
0000
,
1100
0011
1100
0011
,
0000
0000
0000
0000
,
0110
1001
0110
1001
,
0000
0000
0000
0000
,
1010
0101
1010
0101
,
0000
0000
0000
0000
,
0101
1010
0101
1010
,
0000
0000
0000
0000
,
1100
1100
1100
1100
,
0011
0011
0011
0011
,
0110
0110
0110
0110
,
1001
1001
1001
1001
,
1000
0100
0010
0001
0010
0100
1000
0100
,
0010
0001
0010
0100
1000
0100
0010
0001
,
1000
0100
1000
0100
0010
0001
0010
0001
,
2002
0000
0000
3003
2002
3003
2002
3003
,
0000
0000
0000
0000
,
0000
0000
0000
0000
,
1000
0100
0010
0001
,
1000
0010
0100
0001
,
1000
0100
1000
0001
,
0010
0001
0010
0100
,
1000
0010
0100
0001
,
0010
0001
1000
0100
,
1000
0010
0100
0001
,
0010
0000
0100
0000
1000
0000
0001
0010
,
0100
0010
1000
0100
,
1000
0001
0010
0001
,
0010
0100
1000
0010
,
0100
0001
1000
0100
,
1000
0001
0010
0001
,
0100
0010
0100
0010
,
0001
0000
1000
0000
0100
0000
1000
0001
,
1000
0000
0000
0010
0000
0000
0100
0000
0010
0000
0000
0000
0100
0000
0010
0000
,
0001
0010
0100
1000
,
0001
0100
0010
1000
,
0001
0010
0001
1000
,
0100
1000
0100
0010
,
0001
0100
0010
1000
,
0100
1000
0001
0010
,
0001
0100
0010
1000
,
0100
0000
0010
0000
0001
0000
1000
0100
,
0010
0100
0001
1000
,
0010
0100
1000
0001
,
0010
0100
0010
0001
,
1000
0100
1000
0010
,
1000
0100
0010
0001
0010
0100
1000
0100
,
0010
0001
0010
0100
1000
0100
0010
0001
,
1000
0100
0010
0001
0010
0100
1000
0000
,
0220
0000
0000
0330
0220
0330
0220
0330
,
0010
0000
0000
0000
,
0010
0000
0100
0000
,
0001
0000
0000
0001
1000
0000
0000
0000
,
0000
1000
0100
0010
,
0001
0000
0000
1000
0000
0000
0010
0000
,
0000
0100
0010
0100
,
1000
0000
0000
0001
0000
0000
0100
0000
,
0000
0010
0100
0000
,
1000
0000
0000
0000
,
0001
0000
0000
0000
0100
0000
0000
0010
,
1000
0000
0000
0001
0100
0000
0000
0000
,
0000
0010
0100
0001
,
1000
0000
0000
0010
0000
0000
1000
0000
,
0000
0000
0001
0010
0100
1000
0100
0010
,
0001
0000
0000
0100
0000
0000
0010
0000
,
0000
1000
0010
0000
,
1000
0100
0010
0001
,
1000
0100
1000
0010
,
0100
0001
0010
0001
,
1000
0001
0010
0100
,
1000
0100
0001
0100
,
0010
1000
0010
0001
,
0010
0001
1000
0100
,
1000
0000
0010
0000
0100
0000
0001
0100
,
1000
0100
0010
0001
,
1000
0100
1000
0001
,
0010
0001
0100
0010
,
0100
1000
0001
0010
,
0001
0010
0100
1000
0100
0010
0001
0010
,
0100
1000
0100
0010
0001
0010
0100
1000
,
0001
0010
0100
1000
0100
0010
0001
0000
,
0220
0000
0000
0330
0220
0330
0220
0330
,
0010
0000
0000
0000
;

//---------------dance-single - ----------------
#NOTES:
     dance-single:
     :
     Easy:
     5:
     0.307591,0.315460,0.000000,0.042920,0.000000,301.000000,301.000000,0.000000,6.000000,0.000000,0.000000,0.307591,0.315460,0.000000,0.042920,0.000000,301.000000,301.000000,0.000000,6.000000,0.000000,0.000000:
// measure 0
0000
0000
0000
0000
,  // measure 1
0010
0000
1000
0000
,  // measure 2
0001
0000
1000
0000
,  // measure 3
0000
0001
1000
0100
,  // measure 4
0010
0000
0000
0010
,  // measure 5
0000
1000
0100
1000
,  // measure 6
0001
0000
0000
1000
,  // measure 7
0000
0100
1000
0000
,  // measure 8
0010
0000
0000
0000
,  // measure 9
0001
0000
1000
0000
,  // measure 10
1000
0000
0010
0000
,  // measure 11
0000
0001
1000
0100
,  // measure 12
0010
0000
0000
0010
,  // measure 13
0000
1000
1000
1000
,  // measure 14
1000
0000
0000
0001
,  // measure 15
0000
0000
0000
0001
,  // measure 16
0010
0001
0010
0001
,  // measure 17
0000
0000
0000
0000
,  // measure 18
0100
0001
0100
0001
,  // measure 19
0000
0000
0000
0000
,  // measure 20
1000
0100
1000
0100
,  // measure 21
0000
0000
0000
0000
,  // measure 22
0001
0010
0001
0010
,  // measure 23
0000
0000
0000
0000
,  // measure 24
0010
0010
0010
0010
,  // measure 25
0001
0001
0001
0001
,  // measure 26
0100
0100
0100
0100
,  // measure 27
1000
1000
1000
1000
,  // measure 28
0010
0100
1000
0001
,  // measure 29
1000
0100
0010
1000
,  // measure 30
0100
0001
0100
1000
,  // measure 31
0002
0000
0000
0003
0020
0000
0000
0030
,  // measure 32
0000
0000
0000
0000
,  // measure 33
0000
0000
0000
0000
,  // measure 34
0010
0100
1000
0001
,  // measure 35
0010
1000
0100
0001
,  // measure 36
0010
0100
0010
0001
,  // measure 37
1000
0001
1000
0100
,  // measure 38
0010
1000
0100
0001
,  // measure 39
1000
0001
0010
0100
,  // measure 40
0010
1000
0100
0001
,  // measure 41
1000
0100
0010
0001
,  // measure 42
0100
1000
0010
0100
,  // measure 43
0010
0001
1000
0001
,  // measure 44
1000
0100
0010
1000
,  // measure 45
0100
0001
0010
0100
,  // measure 46
0010
0001
1000
0001
,  // measure 47
0100
1000
0100
1000
,  // measure 48
0001
0010
0100
0010
,  // measure 49
0010
0100
1000
0100
,  // measure 50
0001
1000
0100
0010
,  // measure 51
0001
0100
1000
0010
,  // measure 52
0001
1000
0001
0010
,  // measure 53
0100
0010
0100
1000
,  // measure 54
0001
0100
1000
0010
,  // measure 55
0100
0010
0001
1000
,  // measure 56
0001
0100
1000
0010
,  // measure 57
0100
1000
0001
0010
,  // measure 58
1000
0100
0001
0010
,  // measure 59
1000
0100
0010
0001
,  // measure 60
1000
0100
1000
0001
,  // measure 61
0010
0100
0010
1000
,  // measure 62
0010
0001
0100
1000
,  // measure 63
0010
0100
0010
1000
,  // measure 64
0001
1000
1000
0010
,  // measure 65
2000
0000
0000
3000
0200
0000
0000
0300
,  // measure 66
1000
0000
0000
0000
,  // measure 67
1000
0000
0100
0000
,  // measure 68
0001
0000
0010
0000
,  // measure 69
0000
0010
0100
1000
,  // measure 70
0001
0000
0000
1000
,  // measure 71
0000
0100
1000
0100
,  // measure 72
0010
0000
0000
0100
,  // measure 73
0000
1000
0100
0000
,  // measure 74
0010
0000
0000
0000
,  // measure 75
0001
0000
0100
0000
,  // measure 76
0010
0000
0100
0000
,  // measure 77
0000
1000
0100
0001
,  // measure 78
0010
0000
0000
0010
,  // measure 79
0000
0001
0010
0100
,  // measure 80
1000
0000
0000
1000
,  // measure 81
0000
0010
1000
0000
,  // measure 82
0010
0100
1000
0001
,  // measure 83
0010
0100
0010
1000
,  // measure 84
0100
0001
1000
0001
,  // measure 85
0010
0001
1000
0100
,  // measure 86
0010
0100
0001
0100
,  // measure 87
1000
0010
1000
0001
,  // measure 88
1000
0001
0010
0100
,  // measure 89
0010
1000
0100
0001
,  // measure 90
0010
0100
1000
0001
,  // measure 91
0010
0100
0010
0001
,  // measure 92
1000
0001
0100
1000
,  // measure 93
0100
0010
0001
1000
,  // measure 94
0001
1000
0100
0010
,  // measure 95
0100
1000
0001
1000
,  // measure 96
0001
1000
0100
0010
,  // measure 97
2000
0000
0000
3000
0200
0000
0000
0300
,  // measure 98
1000
0000
0000
0000
;
