#TITLE:Mariana Revenge;
#SUBTITLE:Hardstyle Remix;
#ARTIST:b-UMB;
#TITLETRANSLIT:;
#SUBTITLETRANSLIT:;
#ARTISTTRANSLIT:;
#GENRE:;
#CREDIT:;
#BANNER:Mariana Revenge Hardstyle Remix.png;
#BACKGROUND:Mariana Revenge Hardstyle Remix-BG.png;
#LYRICSPATH:;
#CDTITLE:;
#MUSIC:Mariana Revenge Hardstyle Remix.ogg;
#OFFSET:-0.869000;
#SAMPLESTART:80.969002;
#SAMPLELENGTH:12.000000;
#SELECTABLE:YES;
#BPMS:0.000000=150.000000
;
#STOPS:
;
#BGCHANGES:;
#KEYSOUNDS:;
#ATTACKS:;

//---------------dance-single - ----------------
#NOTES:
     dance-single:
     :
     Hard:
     9:
     0.913123,0.985541,0.124114,0.449912,1.543665,824.000000,808.000000,16.000000,58.000000,0.000000,0.000000,0.913123,0.985541,0.124114,0.449912,1.543665,824.000000,808.000000,16.000000,58.000000,0.000000,0.000000:
0000
0000
0000
0000
0000
0000
0000
0000
0001
0010
0100
1000
0100
0010
0001
0010
,
0100
0000
0000
0000
0010
0000
0000
0000
1000
0100
0010
0100
1000
0100
0010
0100
,
1000
0000
0000
0000
0001
0000
0000
0000
0100
0010
0001
0010
0100
0010
0001
0010
,
0100
0000
0000
0000
0010
0000
0000
0000
1000
0100
0010
0001
0010
0100
1000
0000
,
0001
0010
0100
1000
0100
0010
0001
0000
1000
0010
1000
0010
1000
0010
1000
0010
,
1000
0000
0000
0000
0100
0000
0000
0000
0001
0100
0001
0100
0001
0100
0001
0100
,
0001
0000
0000
0000
0010
0000
0000
0000
0100
0010
0100
0010
0100
0010
0100
0010
,
0100
0000
0000
0000
0001
0000
0000
0000
1000
0100
0010
0001
0010
0100
1000
0000
,
0001
0010
0100
1000
0100
0010
0001
0000
1000
0100
1000
0100
1000
0100
1000
0100
,
1000
0000
0010
1000
0010
1000
0010
1000
0010
0100
0001
0100
0001
0100
0001
0100
,
0001
0000
0100
0010
0100
0010
0100
0010
0100
0001
1000
0001
1000
0001
1000
0001
,
1000
0000
0010
1000
0010
1000
0010
1000
0010
0100
0001
0100
0001
0100
0001
0100
,
0001
0000
1000
0100
0010
0001
0010
0100
1000
0010
1000
0010
1000
0010
1000
0010
,
1000
0000
0001
0100
0001
0100
0001
0100
0001
0000
1000
0010
1000
0010
1000
0010
,
1000
0000
0010
0100
0010
0100
0010
0100
0010
1000
0100
1000
0100
1000
0100
1000
,
0100
0010
0001
0010
0001
0010
0001
0010
0001
0100
0010
0100
0010
0100
0010
0100
,
0010
1000
0001
1000
0001
1000
0001
0000
2002
0000
3003
0000
0202
0000
0303
0000
,
2020
3030
0220
0330
2200
3300
0220
0330
,
0022
0000
0033
0000
2200
0000
3300
0000
0001
0010
0100
1000
0100
0010
0001
0010
,
0100
1000
0100
0010
0001
0010
0100
1000
0200
0000
0000
0000
0001
0000
0000
0000
,
0001
0000
0301
0010
2002
3003
2020
3030
,
0202
0303
0220
0330
0022
0033
0220
0330
,
2200
0000
3300
0000
0022
0000
0033
0000
1000
0100
0010
0001
0010
0100
1000
0100
,
0010
0001
0010
0100
1000
0100
0010
0001
0020
0000
0000
0000
1000
0000
0000
0000
,
1000
0000
0000
0000
1030
0000
0000
0000
1000
0100
0010
0000
0100
0010
0001
0010
,
0000
0100
1000
0000
0001
0010
0000
0001
0010
0100
1000
0000
0010
0100
1000
0100
,
0000
0010
0100
0000
0001
0100
0001
0100
0001
0010
0100
0000
0010
0100
1000
0100
,
0000
0010
0001
0000
1000
0100
0000
1000
0100
0010
0001
0000
0100
0010
0001
0010
,
0000
0100
0010
0000
1000
0010
1000
0010
1000
0100
0010
0000
0100
0010
0001
0010
,
0000
0100
1000
0000
0001
0010
0000
0001
0010
0100
1000
0000
0010
0100
1000
0100
,
0000
0010
0100
0000
0001
0100
0001
0100
0001
0010
0100
0000
0010
0100
1000
0100
,
0000
0010
0001
0000
1000
0100
0000
1000
0200
0000
0000
0000
0310
0100
0010
0000
,
2000
0000
0000
0000
3001
0100
0000
0000
0001
1000
0000
0000
1000
0100
0000
0100
,
0000
0010
0100
0000
0001
0010
0000
0010
0000
0010
0100
0000
0100
1000
0000
0001
,
0000
0001
1000
0000
0001
1000
0001
1000
0001
1000
0000
0000
0001
0010
0000
0010
,
0000
0100
0010
0000
1000
0100
0000
0100
0000
0100
0010
0000
0010
0001
0000
1000
,
0000
1000
0001
0000
1000
0001
1000
0001
1000
0001
0000
0000
1000
0100
0000
0100
,
0000
0100
0010
0000
0010
0001
0000
0001
0000
0001
1000
0000
1000
0100
0000
0100
,
0000
0100
0010
0000
0010
0001
1000
0100
0000
0010
0100
0000
0100
1000
0000
0001
,
0000
0001
1000
0000
1000
0010
0000
0010
0000
0010
0100
0000
0100
0001
0000
0001
,
0000
0001
1000
0000
1000
0100
0010
0001
1000
0100
0010
0000
0010
0100
0000
0100
,
0000
0100
0001
0000
0001
1000
0000
1000
0000
1000
0100
0000
0100
0010
0000
0010
,
0000
0010
0001
0000
0001
0100
0000
0100
0000
0100
0010
0000
0010
1000
0000
1000
,
0000
1000
0001
0000
0001
0010
0000
0010
0000
0010
0100
0000
0100
0001
0000
0001
,
0000
0001
1000
0000
1000
0100
0000
0100
0000
0100
0010
0000
0010
1000
0000
1000
,
0000
1000
0100
0000
0100
0001
0000
0001
0000
0001
0010
0000
0010
0100
0000
0100
,
0000
0100
1000
0000
1000
0001
0000
0001
0010
0000
0100
0000
0010
0000
0100
0000
,
0010
0000
0100
0000
0010
0000
0100
0000
0010
0100
0010
0100
0010
0100
0010
0100
,
0010
0100
0010
0100
0010
0100
0010
0100
0010
0100
0000
0100
0001
0000
0000
0001
,
0000
0001
1000
0000
1000
0010
0000
0010
0000
0010
0100
0000
0100
1000
0000
1000
,
0000
1000
0001
0000
0001
0010
0100
1000
0100
0010
0000
0000
0010
1000
0000
1000
,
0000
0001
1000
0000
0100
0001
0000
0001
0000
0001
1000
0000
1000
0010
0000
0100
,
0000
0100
0010
0000
0100
0010
0100
0010
0100
0010
0000
0000
0100
0001
0000
0001
,
0000
1000
0001
0000
0010
1000
0000
1000
0000
1000
0001
0000
0001
0100
0000
0010
,
0000
0010
0100
0000
0010
0100
0010
0100
0010
0100
0000
0000
0010
1000
0000
1000
,
0000
1000
0001
0000
0001
0100
0000
0100
0000
0100
0010
0000
0010
1000
0000
1000
,
0000
1000
0001
0000
0001
0100
0010
1000
0000
0001
1000
0000
1000
0010
0000
0100
,
0000
0100
0010
0000
0010
0001
0000
0001
0000
0001
1000
0000
1000
0100
0000
0100
,
0000
0100
0010
0000
0010
1000
0001
0100
0010
0100
0000
0000
0100
0001
0000
0001
,
0000
1000
0001
0000
0010
1000
0000
1000
0000
1000
0001
0000
0001
0100
0000
0010
,
0000
0010
0100
0000
0010
0100
0010
0100
0010
0100
0000
0000
0010
1000
0000
1000
,
0000
0001
1000
0000
0100
0001
0000
0001
0000
0001
1000
0000
1000
0010
0000
0100
,
0000
0100
0010
0000
0100
0010
0100
0010
0100
0010
0000
0000
0100
0001
0000
0001
,
0000
0001
1000
0000
1000
0010
0000
0010
0000
0010
0100
0000
0100
0001
0000
0001
,
0000
0001
1000
0000
1000
0010
0100
0001
0000
1000
0001
0000
0001
0100
0000
0010
,
0000
0010
0100
0000
0100
1000
0000
1000
0000
1000
0001
0000
0001
0010
0000
0010
,
0000
0010
0100
0000
0100
0001
1000
0010
0100
0010
0000
0000
0010
1000
0000
1000
,
0000
0001
1000
0000
0100
0001
0000
0001
2000
3200
0320
0032
2003
0000
0000
0000
,
3002
0023
0230
2300
3001
0000
1000
0000
0001
1000
0000
0000
1000
0100
0000
0100
,
0000
0010
0100
0000
0001
0010
0000
0010
0200
0302
2003
3020
0230
0000
0000
0000
,
0320
2030
3002
0203
0320
0230
0302
2003
3100
0010
0000
0000
0100
0001
0000
0001
,
0000
0001
1000
0000
1000
0010
0000
0010
0000
0010
0100
0000
0100
0001
0000
0001
,
0000
0001
1000
0000
1000
0010
0100
0001
0000
1000
0001
0000
0001
0100
0000
0010
,
0000
0010
0100
0000
0100
1000
0000
1000
0000
1000
0001
0000
0001
0010
0000
0010
,
0000
0010
0100
0000
0100
0001
1000
0010
0000
0000
0000
0000
0000
0000
0000
0000
,
0000
0000
0100
0000
,
0010
0000
0000
0000
1000
0000
0000
0001
,
1000
0000
0000
0000
;

//---------------dance-single - ----------------
#NOTES:
     dance-single:
     :
     Medium:
     7:
     0.398937,0.507703,0.449912,0.178414,0.031028,360.000000,302.000000,58.000000,23.000000,0.000000,0.000000,0.398937,0.507703,0.449912,0.178414,0.031028,360.000000,302.000000,58.000000,23.000000,0.000000,0.000000:
0000
0000
1010
1000
,
1001
0001
0101
0100
,
0110
0010
1010
1000
,
1001
0001
0011
0010
,
0110
0000
0000
0010
1000
0000
0001
1000
0001
0000
0000
0000
0101
0000
0000
0000
,
0100
0110
0010
1010
,
1000
1001
0001
0101
,
0100
0110
0020
0230
,
0310
0100
0010
0000
0100
0010
0100
0000
0001
0000
0000
0000
0011
0000
0000
0000
,
0010
0110
0100
1100
,
1000
1001
0001
0101
,
0100
0110
0010
1010
,
1000
1001
0001
0101
,
0100
0110
0010
1010
,
1000
0000
1001
0000
0010
0100
0010
0100
,
0010
0100
0010
0100
0020
0000
2030
0000
,
3002
0203
0302
1000
,
1000
1000
1000
1000
,
1000
1003
0120
0100
,
0100
0100
0100
0100
,
0130
0000
0100
0010
0200
0000
0010
0000
,
0010
0010
0010
0010
,
0310
2001
0001
0001
,
0001
3001
0002
0203
,
0310
0100
0010
0000
2000
0000
0000
0000
3002
0000
0000
0000
0100
0000
0000
0000
,
0100
0100
0100
0100
,
0100
0103
1020
1000
,
1000
1000
1000
1000
,
1030
0000
1000
0010
0200
0000
0001
0000
,
0001
0001
0001
0001
,
0001
0301
2010
0010
,
0010
3010
0020
0230
,
0302
1003
0010
0000
,
0000
0000
0100
0000
,
0010
0000
0000
0000
1000
0000
0000
0001
,
1000
0000
0000
0010
,
0100
0000
0010
0000
0001
0000
0000
1000
,
0000
0010
0000
0100
,
0010
0000
0100
0000
1000
0000
0000
0001
,
0000
0010
0000
0010
,
0001
0000
1001
0000
,
0000
0000
0000
0000
,
0000
0000
1010
0000
,
0000
0000
0000
0000
,
0000
0000
0101
0000
,
0110
0000
1100
0000
,
0011
0000
1001
0110
,
1001
0110
2002
0000
,
0000
0000
3003
0000
,
0000
0000
0000
0000
,
0000
1000
0011
0010
,
0110
0100
1100
1000
,
1001
0000
0001
1000
0100
0000
1100
0000
,
1000
1001
0001
0101
,
0100
0000
0010
0100
0010
0000
1000
0000
,
1010
0000
0010
0000
0100
0010
0100
0000
,
1000
0000
0001
0100
0001
0000
1010
0000
,
0100
0101
0010
0110
,
1000
0000
0000
0001
1000
0000
0100
0000
0010
0000
0000
0000
0110
0000
0000
0000
,
1000
1001
0100
1100
,
0010
0000
0001
1000
0001
0000
0100
0000
,
0110
0001
0011
1000
,
1100
0000
0000
0010
1000
0000
0001
0000
1000
0000
0000
0000
0000
0000
0010
0000
,
0000
0000
0100
0000
0001
0010
0001
1000
,
0001
0010
0001
1000
0001
0000
0000
0010
,
0000
0000
0100
1000
0100
0010
0001
0010
,
0001
0100
0010
0100
,
0001
1000
0100
1000
,
0010
0000
0100
0010
0100
0000
0001
0000
,
0010
0001
1000
0100
,
1000
0100
0010
0001
0010
0100
1000
0100
,
1000
0100
1000
0100
0010
0001
0010
0001
,
0010
0000
0000
0100
0000
0000
0010
0000
1000
0000
0100
0000
0010
0000
0100
0000
,
1000
0100
0010
0001
0020
0000
0000
0000
,
0000
0030
0010
0000
,
0000
0000
0100
0000
,
0010
0000
0000
0000
1000
0000
0000
0001
,
1000
0000
0000
0000
;

//---------------dance-single - ----------------
#NOTES:
     dance-single:
     :
     Easy:
     4:
     0.281472,0.298649,0.015514,0.054300,0.000000,254.000000,252.000000,2.000000,7.000000,0.000000,0.000000,0.281472,0.298649,0.015514,0.054300,0.000000,254.000000,252.000000,2.000000,7.000000,0.000000,0.000000:
// measure 0
0000
0000
1000
0100
,  // measure 1
0001
0001
0010
0010
,  // measure 2
1000
1000
0100
0100
,  // measure 3
0001
0001
1000
1000
,  // measure 4
0010
0100
0001
0010
,  // measure 5
0010
1000
1000
0100
,  // measure 6
0100
0001
0001
0010
,  // measure 7
0010
1000
1000
0100
,  // measure 8
1000
0010
0001
0001
,  // measure 9
1000
1000
0010
0010
,  // measure 10
0100
0100
0001
0001
,  // measure 11
0010
0010
1000
1000
,  // measure 12
0100
0100
0001
0001
,  // measure 13
0010
0010
1000
1000
,  // measure 14
0100
0101
1000
0100
,  // measure 15
0001
0010
2000
0000
,  // measure 16
3020
0000
0130
0100
,  // measure 17
0100
0100
0100
0100
,  // measure 18
0100
0100
0010
0010
,  // measure 19
0010
0010
0010
0010
,  // measure 20
0010
0010
1000
1000
,  // measure 21
1000
1000
1000
1000
,  // measure 22
1000
0001
0001
0001
,  // measure 23
0001
0001
0002
0023
,  // measure 24
2030
3200
0310
0010
,  // measure 25
0010
0010
1000
1000
,  // measure 26
1000
1000
0100
0100
,  // measure 27
0100
0100
0001
0001
,  // measure 28
0001
0001
0010
0010
,  // measure 29
0010
0010
0001
0001
,  // measure 30
0001
0001
1000
1000
,  // measure 31
1000
1000
1000
0010
,  // measure 32
0001
0100
1000
0000
,  // measure 33
0000
0000
0010
0000
,  // measure 34
1000
0000
0100
0000
,  // measure 35
0100
0000
0000
1000
,  // measure 36
0010
0000
1000
0000
0001
0000
0000
0100
,  // measure 37
0000
1000
0000
0010
,  // measure 38
1000
0000
0010
0000
0100
0000
0000
0001
,  // measure 39
0000
1000
0000
1000
,  // measure 40
0001
0000
0101
0000
,  // measure 41
0000
0000
0000
0000
,  // measure 42
0000
0000
0100
0000
,  // measure 43
0000
0000
0000
0000
,  // measure 44
0000
0000
0001
0000
,  // measure 45
0010
0000
0100
0000
,  // measure 46
0001
0000
0100
0001
,  // measure 47
0100
0001
0000
0000
,  // measure 48
0000
0000
0000
0000
,  // measure 49
0000
0000
0000
0000
,  // measure 50
0000
0100
1000
1000
,  // measure 51
1000
0010
0010
0100
,  // measure 52
0100
0001
0010
0010
,  // measure 53
0100
0100
0001
0001
,  // measure 54
0010
1000
1000
0100
,  // measure 55
0100
1000
0010
0010
,  // measure 56
0100
0001
0001
0100
,  // measure 57
0010
0001
1000
0010
,  // measure 58
0100
0100
1000
0010
,  // measure 59
0100
0001
0010
0100
,  // measure 60
1000
0001
0001
0010
,  // measure 61
0010
0001
1000
0100
,  // measure 62
0100
0000
0100
0000
0100
0000
0000
1000
,  // measure 63
0000
0010
0001
1000
,  // measure 64
0010
0000
1000
0000
0001
0000
0000
1000
,  // measure 65
0000
0010
0010
0001
,  // measure 66
0001
0010
1000
0010
,  // measure 67
0001
0100
0010
0100
,  // measure 68
1000
0010
0010
0001
,  // measure 69
1000
0001
0100
0010
,  // measure 70
0100
1000
1000
0100
,  // measure 71
0100
0100
1000
0001
,  // measure 72
1000
0010
0100
1000
,  // measure 73
0010
0001
2000
0000
,  // measure 74
0000
3000
1000
0000
,  // measure 75
0000
0000
0010
0000
,  // measure 76
1000
0000
0100
0000
,  // measure 77
0100
0000
0000
0000
;
