#VERSION:0.83;
#TITLE:MAGICGIRLS DANCEHALL!!;
#SUBTITLE:;
#ARTIST:がるる;
#TITLETRANSLIT:;
#SUBTITLETRANSLIT:;
#ARTISTTRANSLIT:Garuru;
#GENRE:;
#ORIGIN:;
#CREDIT:;
#BANNER:MAGICGIRLS DANCEHALL.png;
#BACKGROUND:MAGICGIRLS DANCEHALL-BG.png;
#PREVIEWVID:;
#JACKET:MAGICGIRLS DANCEHALL-Jacket.png;
#CDIMAGE:;
#DISCIMAGE:;
#LYRICSPATH:;
#CDTITLE:;
#MUSIC:MAGICGIRLS DANCEHALL.ogg;
#OFFSET:-1.655001;
#SAMPLESTART:56.276001;
#SAMPLELENGTH:12.000000;
#SELECTABLE:YES;
#BPMS:0.000=145.000;
#STOPS:;
#DELAYS:;
#WARPS:;
#TIMESIGNATURES:0.000=4=4;
#TICKCOUNTS:0.000=4;
#COMBOS:0.000=1;
#SPEEDS:0.000=1.000=0.000=0;
#SCROLLS:0.000=1.000;
#FAKES:;
#LABELS:0.000=Song Start;
#BGCHANGES:;
#KEYSOUNDS:;
#ATTACKS:
;

//---------------dance-single - ----------------
#NOTEDATA:;
#CHARTNAME:;
#STEPSTYPE:dance-single;
#DESCRIPTION:;
#CHARTSTYLE:;
#DIFFICULTY:Hard;
#METER:11;
#RADARVALUES:0.632740,0.678404,0.246538,0.017003,0.429316,521.000000,492.000000,29.000000,2.000000,0.000000,0.000000,0.000000,0.000000,0.000000,0.632740,0.678404,0.246538,0.017003,0.429316,521.000000,492.000000,29.000000,2.000000,0.000000,0.000000,0.000000,0.000000,0.000000;
#CREDIT:;
#NOTES:
1000
0100
0010
0001
0010
0100
1000
0001
,
0100
0000
0001
0000
0100
0000
0010
1000
0000
0000
0001
0000
0100
0000
0010
0000
,
0100
0000
1000
0000
0001
0000
0100
0010
0000
0000
1000
0000
0100
0000
0010
0000
,
0001
0000
0010
0000
0100
0000
1000
0001
0000
0000
0010
0000
0100
0000
0001
1000
,
0001
0100
1000
0010
0100
0001
0010
1000
,
0001
0000
0010
0000
0100
0000
1000
0000
0001
0000
0010
0000
0001
0000
1000
0001
,
1000
0100
0010
0001
1000
0010
0100
0001
,
1000
0000
0000
0010
0100
0000
0010
0000
1000
0000
0001
0000
0220
0000
0330
0000
,
1000
0000
0010
0000
0100
0000
0001
1000
0000
0000
0100
0000
1000
0000
0010
0000
,
0100
0000
0001
0000
0010
1000
0000
0000
0001
0000
0010
0000
0100
0000
1000
0000
,
0001
0000
1000
0000
0001
0010
0100
1000
0100
0010
0001
0000
1000
0100
0010
0001
,
0010
0100
1000
0000
0001
0000
0100
0000
0010
0000
1000
0000
0001
0000
0100
0000
,
0001
0000
0100
0000
0010
0000
1000
0001
0000
0000
0010
0000
0001
0000
0100
0000
,
0010
0000
1000
0000
0100
0001
0000
0000
1000
0000
0100
0000
0010
0000
0001
0000
,
1000
0000
0001
0000
1000
0100
0010
0001
0010
0100
1000
0000
0001
0010
0100
1000
,
0100
0000
0110
0000
0000
0000
1010
0000
0000
0000
0001
0000
1000
0100
0010
0001
,
1000
0000
0000
0010
0100
0000
0001
1000
,
0001
0000
0000
0010
0100
0000
0010
0000
,
1000
0001
1001
0000
,
1010
0000
0000
0000
0000
0000
0000
0000
1000
0010
1000
0010
0100
0001
0100
0001
,
1000
0000
0000
0000
,
1000
0100
1000
0000
0001
0010
0001
0000
0100
0010
0100
0000
0000
1000
0001
1000
,
0000
0100
0001
0100
0001
0000
1000
0000
0010
0000
0000
0000
0100
0000
0001
0000
,
1000
0010
1000
0000
0001
0100
0001
0000
1000
0001
1000
0000
0010
0000
0100
0000
,
0001
0010
0100
1000
0001
0100
0010
0000
,
1000
0001
1000
0000
0001
1000
0001
0000
0100
0010
0100
0000
1000
0100
0010
0001
,
0000
1000
0010
1000
0010
0000
0100
0000
0001
0000
0000
0000
1000
0000
0010
0000
,
0100
0010
0001
0010
0100
0000
1000
0000
0010
0000
0100
0000
0001
0000
0000
0000
,
1001
0000
0000
0000
1000
0000
0010
0100
0001
0000
0000
1001
0000
0000
1010
0000
,
0101
1000
0100
0010
0001
0010
0100
0010
,
0001
0010
0100
1000
0100
0010
0100
1000
,
0100
0010
0001
1000
0010
0100
0001
1000
,
0010
0000
1000
0000
0010
0000
0100
0000
0001
0000
0000
0000
1000
0100
0010
0001
,
1000
0000
0010
0000
0100
0000
0001
1000
0000
0000
0010
0000
0100
0000
0010
0000
,
0001
0000
1000
0000
0100
0010
0000
0000
0100
0000
0010
0000
1000
0000
0001
0000
,
0010
0000
0100
0000
1000
0100
0010
0001
0000
0000
0010
0000
0100
0000
1000
0000
,
0001
0000
0010
0000
0100
0010
0001
0000
1000
0000
0010
0000
0100
0000
0001
0000
,
1000
0000
0010
0000
0100
0001
0100
0001
0000
0000
1000
0000
0010
0000
0100
0000
,
0001
0000
1000
0000
0100
0001
0000
0000
1000
0000
0010
0000
0001
0000
0100
0000
,
1000
0000
0010
0000
0100
0010
0001
0010
0100
0000
0010
0000
1000
0000
0100
0000
,
0001
0000
0000
0000
0000
1001
1001
1001
,
1001
0000
1010
0000
,
0101
0000
0110
0000
,
1100
0000
0011
0000
,
1000
0100
0000
0010
0001
0000
1001
0000
,
1000
0000
0000
0000
,
1000
0000
0010
0000
0100
0000
0001
1000
0000
1000
0000
0010
0100
0000
0001
0000
,
0010
0000
0100
0000
1000
0100
0010
0100
0000
1000
0000
0001
0100
0000
0010
0000
,
1000
0000
0000
0010
0000
0000
0100
0000
0000
0001
1000
0000
0010
0000
0100
0000
,
0001
0000
0010
0000
0100
0000
1000
0001
0000
0001
0100
0000
0100
0010
0000
0010
,
1000
0000
0001
0000
0100
0000
0100
0010
0000
0010
1000
0000
1000
0001
0000
0001
,
0100
0000
0010
0000
1000
0010
0000
0010
0000
0100
0001
0000
1000
0000
0100
0000
,
0010
0000
0000
0001
0000
0000
0100
0000
0010
0000
0000
0000
0010
0000
0000
0000
,
1000
0000
0001
0000
0100
0000
0010
1000
0000
0000
0001
0000
0100
0010
0000
0010
,
0000
0000
1001
0000
0000
1010
0000
0000
0101
0000
0000
0000
1000
0001
1000
0000
,
0001
0000
0010
0000
0100
0010
0000
0010
0000
1000
0000
1000
0001
0000
0010
0000
,
0100
0000
0000
1000
0000
0000
0100
0000
0000
0100
0010
0000
0010
0000
0001
0000
,
1000
0000
0010
0000
0100
0000
0001
1000
0000
0000
1000
0000
0010
0100
0000
0100
,
0001
1000
0010
0100
0001
0010
0100
1000
,
0001
0000
1000
0000
0010
0100
0000
0100
0000
0001
0000
0000
1000
0000
0010
0000
,
0100
0001
1001
1000
,
1010
0010
0110
0100
,
0000
0000
1010
0000
0000
0101
0000
0000
0110
0000
0000
0000
1000
0100
0010
0001
,
1000
0000
0000
0010
,
0100
0000
0000
0010
,
0001
0010
0100
0000
1000
0000
0100
0000
,
1000
0100
0010
0001
1001
0000
0000
0000
;

//---------------dance-single - ----------------
#NOTEDATA:;
#CHARTNAME:;
#STEPSTYPE:dance-single;
#DESCRIPTION:;
#CHARTSTYLE:;
#DIFFICULTY:Medium;
#METER:7;
#RADARVALUES:0.355840,0.480536,0.170026,0.017003,0.008501,293.000000,273.000000,20.000000,2.000000,0.000000,0.000000,0.000000,0.000000,0.000000,0.355840,0.480536,0.170026,0.017003,0.008501,293.000000,273.000000,20.000000,2.000000,0.000000,0.000000,0.000000,0.000000,0.000000;
#CREDIT:;
#NOTES:
0010
0100
0001
1000
,
0100
0001
0010
0100
,
0001
1000
0000
0010
,
0001
0100
1000
0100
,
1000
0010
0100
0001
,
1000
0100
0001
0010
,
1000
0001
0010
0100
,
1000
0000
0100
0000
0010
0000
0202
0303
,
0010
0100
0001
1000
,
0100
0001
0010
0100
,
0001
0100
0001
1000
,
0010
1000
0001
0100
,
0001
1000
0010
0100
,
0001
0100
0010
0001
,
0010
1000
0100
1000
,
0100
0101
0000
0011
0000
1000
0010
0100
,
1000
0000
0000
0001
0100
0000
1000
0010
,
1000
0000
0000
0001
0100
0000
0001
0000
,
0011
0000
1010
0000
,
0011
0000
0000
0000
0010
0100
0001
1000
,
0010
0000
0000
0000
,
0010
0100
0001
1000
0001
0100
0000
1000
,
0000
0100
1000
0010
0001
0000
0100
1000
,
0010
0001
0100
1000
0010
0001
0100
0001
,
1000
0001
0100
0010
1000
0100
0001
0000
,
0010
0001
0100
1000
0100
0001
0100
0001
,
0000
0010
0001
0100
1000
0000
0010
0001
,
0100
1000
0100
0001
0010
0100
1000
0000
,
0010
0000
0000
0000
0010
0000
0000
0000
1010
0000
0000
1010
0000
0000
0101
0000
,
0101
0100
0010
0001
,
1010
0010
0100
0001
,
0101
0001
1010
0010
,
0101
0000
0100
0000
1000
0000
0010
0100
,
1000
0100
0001
0010
,
1000
0100
0001
0010
,
0100
0001
1000
0100
,
0001
0010
0100
0001
,
0100
0010
1000
0001
,
0100
0001
1000
0001
,
0010
0100
0100
0010
,
1000
0000
0000
1010
,
1010
0000
0010
0000
,
1000
0000
0100
0000
,
0010
0000
1000
0000
,
0010
0000
1000
0010
,
0010
0000
0000
0000
,
0010
0100
0001
1000
,
0001
0010
0001
0100
,
0010
1000
0100
0010
,
1000
0100
0001
0010
,
0100
0001
1000
0010
,
0100
0010
1000
0010
,
0001
0100
1000
0001
,
0010
0100
1000
0100
,
0010
0001
1000
0010
,
1000
0100
0001
1000
,
0100
0010
0100
0001
,
0010
0100
1000
0001
,
1000
0010
1000
0100
,
1000
0001
1000
0010
,
0100
1000
0010
0010
,
0001
0001
0100
0100
,
0000
0000
0011
0000
0000
1100
0000
0000
0101
0000
0000
0000
0010
0000
0001
0000
,
0010
0000
0000
0001
,
0100
0000
0000
0001
,
1000
0100
0010
0100
,
0010
0001
1010
0000
;

//---------------dance-single - ----------------
#NOTEDATA:;
#CHARTNAME:;
#STEPSTYPE:dance-single;
#DESCRIPTION:;
#CHARTSTYLE:;
#DIFFICULTY:Easy;
#METER:4;
#RADARVALUES:0.196744,0.282668,0.000000,0.000000,0.008501,162.000000,162.000000,0.000000,0.000000,0.000000,0.000000,0.000000,0.000000,0.000000,0.196744,0.282668,0.000000,0.000000,0.008501,162.000000,162.000000,0.000000,0.000000,0.000000,0.000000,0.000000,0.000000,0.000000;
#CREDIT:;
#NOTES:
// measure 0
0001
0000
1000
0000
,  // measure 1
0100
0000
0001
0000
,  // measure 2
0010
0000
1000
0000
,  // measure 3
1000
0000
0010
0000
,  // measure 4
1000
0000
0001
0000
,  // measure 5
0010
0000
0100
0000
,  // measure 6
0001
0000
0100
0000
,  // measure 7
0010
0000
0001
0000
,  // measure 8
0001
0000
1000
0000
,  // measure 9
0100
0000
0010
0000
,  // measure 10
1000
0000
0100
0000
,  // measure 11
0001
0000
0010
0000
,  // measure 12
1000
0000
0001
0000
,  // measure 13
0010
0000
0001
0000
,  // measure 14
0100
0000
1000
0000
,  // measure 15
0100
0000
0000
0001
0000
0010
0000
0000
,  // measure 16
1000
0000
0100
0000
,  // measure 17
0001
0000
0100
0000
,  // measure 18
1000
0000
0010
0000
,  // measure 19
1000
0000
0001
0010
,  // measure 20
0001
0000
0000
0000
,  // measure 21
0001
0010
1000
0100
,  // measure 22
0001
0010
1000
0100
,  // measure 23
0010
1000
0001
0100
,  // measure 24
0010
0100
0010
1000
,  // measure 25
0001
0100
0100
0100
,  // measure 26
0001
1000
0010
0001
,  // measure 27
0100
0100
0001
0010
,  // measure 28
0001
0000
0000
0000
0001
0000
0000
0000
0010
0000
0000
0001
0000
0000
0100
0000
,  // measure 29
1000
0100
0001
1000
,  // measure 30
0010
0001
0100
1000
,  // measure 31
0100
1000
0010
0001
,  // measure 32
1000
0100
0010
0001
,  // measure 33
0010
0000
1000
0000
,  // measure 34
0100
0000
0001
0000
,  // measure 35
0100
0000
0010
0000
,  // measure 36
1000
0000
0100
0000
,  // measure 37
0001
0000
0010
0000
,  // measure 38
0100
0000
0001
0000
,  // measure 39
1000
0000
0010
0000
,  // measure 40
0001
0000
0000
0010
,  // measure 41
0001
0000
0001
0000
,  // measure 42
0010
0000
0100
0000
,  // measure 43
0001
0000
1000
0000
,  // measure 44
0001
0000
0010
1000
,  // measure 45
0001
0000
0000
0000
,  // measure 46
0001
0000
0010
0000
,  // measure 47
1000
0000
1000
0000
,  // measure 48
0001
0000
0100
0000
,  // measure 49
0010
0000
1000
0000
,  // measure 50
0100
0000
0010
0000
,  // measure 51
1000
0000
0001
0000
,  // measure 52
1000
0000
0010
0000
,  // measure 53
0001
0000
0100
0000
,  // measure 54
1000
0000
0010
0000
,  // measure 55
0001
0000
1000
0000
,  // measure 56
0100
0000
0100
0000
,  // measure 57
0001
0000
1000
0000
,  // measure 58
0010
0000
0100
0000
,  // measure 59
0001
0000
1000
0000
,  // measure 60
0100
0000
0001
0000
,  // measure 61
1000
0000
0100
0000
,  // measure 62
0000
0000
1000
0000
0000
0010
0000
0000
0100
0000
0000
0000
0001
0000
0000
0000
,  // measure 63
0001
0000
0000
1000
,  // measure 64
0100
0000
0000
1000
,  // measure 65
0000
0100
0000
0100
,  // measure 66
0001
0000
0010
0000
;
