#TITLE:Icicle Stinger;
#SUBTITLE:;
#ARTIST:ROKINA;
#TITLETRANSLIT:;
#SUBTITLETRANSLIT:;
#ARTISTTRANSLIT:;
#GENRE:;
#CREDIT:;
#BANNER:Icicle Stinger.png;
#BACKGROUND:Icicle Stinger-BG.png;
#LYRICSPATH:;
#CDTITLE:;
#MUSIC:Icicle Stinger.ogg;
#OFFSET:-0.111000;
#SAMPLESTART:13.585000;
#SAMPLELENGTH:24.000000;
#SELECTABLE:YES;
#DISPLAYBPM:143.000000:285.000000;
#BPMS:0.000000=285.000000
,78.000000=142.500000
,79.000000=285.000000
,93.000000=142.500000
,94.000000=285.000000
,108.000000=142.500000
,109.000000=285.000000
,155.000000=142.500000
,156.000000=285.000000
,252.000000=142.500000
,332.000000=285.000000
,388.000000=142.500000
,391.000000=285.000000
,487.000000=142.500000
,488.000000=285.000000
;
#STOPS:
;
#BGCHANGES:0.000=Icicle Stinger.avi=1.000=1=0=1===CrossFade==,
99999=-nosongbg-=1.000=0=0=0 // don't automatically add -songbackground-
;
#KEYSOUNDS:;
#ATTACKS:;

//---------------dance-single - ----------------
#NOTES:
     dance-single:
     :
     Hard:
     12:
     0.806068,1.621757,0.160174,0.138332,0.345829,775.000000,753.000000,22.000000,19.000000,0.000000,0.000000,0.806068,1.621757,0.160174,0.138332,0.345829,775.000000,753.000000,22.000000,19.000000,0.000000,0.000000:
// measure 0
0000
0000
0000
0000
,  // measure 1
0000
0000
0000
0000
,  // measure 2
0000
0000
0000
0000
,  // measure 3
0000
0000
0000
0000
,  // measure 4
1001
0000
1010
0000
,  // measure 5
0101
0000
1001
0000
,  // measure 6
0110
0000
1001
0000
,  // measure 7
1000
0100
0010
0001
,  // measure 8
1000
0100
0000
0010
0000
0001
0010
0000
,  // measure 9
0100
0000
0010
1000
0000
0001
0000
1000
,  // measure 10
0010
0000
0100
0000
0001
0010
0000
0100
,  // measure 11
0000
0001
1000
0000
0001
0000
1000
0010
,  // measure 12
0000
0000
0000
0000
,  // measure 13
1010
0000
0000
0000
,  // measure 14
0101
0000
1010
0000
,  // measure 15
2002
0000
0000
3003
,  // measure 16
1000
0100
1000
0100
1000
0010
1000
0010
,  // measure 17
1000
0001
1000
0001
1000
0000
0001
0010
,  // measure 18
0001
0010
0000
0000
0100
0010
0100
0010
,  // measure 19
1000
0001
1000
0001
2000
3000
0001
0010
,  // measure 20
0001
0010
0001
1000
0001
0000
0000
0000
,  // measure 21
1000
0100
1000
0010
1000
0000
0001
0010
,  // measure 22
0000
0000
0100
0010
0001
1000
0000
0000
,  // measure 23
0100
0010
0200
0300
1000
0010
1000
0010
,  // measure 24
1000
0010
0100
0001
0100
0001
0100
0001
,  // measure 25
0100
0000
0010
1000
0010
1000
0010
1000
,  // measure 26
0001
0100
0001
0100
0001
0100
0001
0100
,  // measure 27
0002
0003
1000
0100
1000
0100
1000
0100
,  // measure 28
1000
0000
0001
0010
0001
0010
0001
0010
,  // measure 29
0001
0010
0001
0010
0100
1000
0100
0010
,  // measure 30
0002
0000
0000
0000
,  // measure 31
0003
0000
1000
0010
1000
0010
0100
0001
,  // measure 32
0100
0001
1000
0100
1000
0001
0010
0000
,  // measure 33
0001
0010
0100
0010
0001
0000
1000
0100
,  // measure 34
0010
0100
1000
0100
0010
0100
1000
0000
,  // measure 35
0001
0000
0010
0100
0010
0001
0010
0100
,  // measure 36
0010
0000
1000
0100
0010
0100
1000
0100
,  // measure 37
0010
0000
0010
0100
1000
0001
0010
0100
,  // measure 38
0010
0001
2000
0000
0002
0000
0000
3003
,  // measure 39
0001
0010
0100
0010
0001
0010
0100
1000
,  // measure 40
0100
0010
0100
1000
0100
0000
0010
0100
,  // measure 41
1000
0100
0010
0001
0010
0100
1000
0100
,  // measure 42
0010
0100
1000
0100
0010
0000
0010
0000
,  // measure 43
0100
0001
0100
0001
0100
0001
0100
0000
,  // measure 44
0010
1000
0010
1000
0010
1000
0010
0000
,  // measure 45
1000
0200
0300
0010
0002
0003
2000
0000
,  // measure 46
3200
0320
0032
0003
,  // measure 47
1000
0100
0010
0100
,  // measure 48
0001
0010
1000
0010
,  // measure 49
0001
0100
0010
1000
,  // measure 50
0001
1000
0100
1000
,  // measure 51
0001
0010
0001
0100
,  // measure 52
0010
1000
0001
0100
,  // measure 53
0010
1000
0100
1000
,  // measure 54
0100
0010
0001
0010
,  // measure 55
0001
1000
0010
0100
,  // measure 56
0010
1000
0100
0010
,  // measure 57
0001
1000
0010
0100
,  // measure 58
0001
0010
0100
1000
,  // measure 59
0010
0100
0001
0010
,  // measure 60
0001
1000
0010
0100
,  // measure 61
1000
0010
0100
0010
,  // measure 62
0100
0001
0010
0100
,  // measure 63
0020
0000
0000
0000
,  // measure 64
0000
0000
0000
0000
,  // measure 65
0000
0000
0000
0000
,  // measure 66
0030
0000
0000
0000
,  // measure 67
1000
0100
1000
0100
0010
0001
0010
0001
1000
0100
0010
0001
0010
0100
1000
0100
,  // measure 68
0010
0100
1000
0100
0010
0001
0010
0100
0010
0001
0010
0100
1000
0100
0010
0001
,  // measure 69
0010
0100
0010
0001
0010
0100
1000
0100
0010
0100
1000
0100
0010
0001
0010
0100
,  // measure 70
0010
0001
0010
0100
1000
0100
1000
0100
0001
0010
0001
0010
0001
0010
0100
1000
,  // measure 71
0100
0010
0001
0100
0010
1000
0100
0010
0001
1000
0010
0100
0001
0010
0100
1000
,  // measure 72
0100
0010
0001
1000
0100
0010
0001
0010
0100
1000
0001
0010
0100
1000
0100
0010
,  // measure 73
0100
1000
0100
0010
0001
0010
0100
0010
0001
0010
0100
1000
0100
0010
0100
1000
,  // measure 74
0100
0010
0001
0010
0100
1000
0010
0100
0001
0010
0100
1000
0100
0000
0000
0000
,  // measure 75
1000
0100
1000
0100
1000
0100
1000
0100
0010
0001
0010
0001
0010
0001
0010
0001
,  // measure 76
1000
0010
1000
0010
1000
0010
1000
0010
0100
0001
0100
0001
0100
0001
0100
0001
,  // measure 77
1000
0100
0010
0001
1000
0010
0100
0001
1000
0100
0010
0001
1000
0010
0100
0001
,  // measure 78
1000
0000
0000
0100
0000
0000
0010
0000
0100
0000
0000
0000
0001
0010
0100
1000
,  // measure 79
0100
0000
0000
0010
0000
0000
0100
0000
0001
0000
0000
1000
0000
0000
0010
0000
,  // measure 80
0100
0000
0000
0010
0000
0000
0001
0000
0010
0000
0100
0000
1000
0000
0100
0000
,  // measure 81
0010
0000
0000
0001
0000
0000
0010
0000
0001
0000
0000
1000
0000
0000
0010
0000
,  // measure 82
0100
0000
0000
0010
0000
0000
1000
0000
0001
0000
0100
0000
0010
0000
1000
0000
,  // measure 83
0001
0000
0000
0010
0000
0000
0001
0000
,  // measure 84
1000
0000
0000
0010
0000
0000
0100
0000
,  // measure 85
0101
0000
0000
0001
0000
0000
1000
0000
,  // measure 86
0010
0000
0000
0100
0000
0000
0100
0000
,  // measure 87
0101
0000
0000
0001
0000
0000
0010
0000
,  // measure 88
1010
0000
0000
1000
0000
0000
0001
0000
,  // measure 89
0011
0000
1010
0000
,  // measure 90
1010
0101
0110
1001
,  // measure 91
1000
0100
0010
0100
1000
0001
0010
0100
,  // measure 92
0010
0001
1000
0100
1000
0100
1000
0100
,  // measure 93
0010
0001
0010
0001
0010
0001
1000
0100
,  // measure 94
0010
0001
1000
0010
0100
0001
1000
0100
,  // measure 95
0010
0001
0010
0100
1000
0001
0100
0010
,  // measure 96
1000
0100
0010
0001
1000
0100
0010
0001
,  // measure 97
2000
0000
0000
0000
,  // measure 98
3000
0001
0100
0010
,  // measure 99
1000
0001
0010
0001
,  // measure 100
1000
0100
1000
0010
,  // measure 101
0100
0001
0010
0001
,  // measure 102
1000
0100
1000
0010
,  // measure 103
0100
0010
0001
1000
,  // measure 104
0010
0100
0001
0010
,  // measure 105
0100
1000
0001
0010
,  // measure 106
0001
0010
0001
1000
,  // measure 107
0100
1000
0100
1000
,  // measure 108
0010
0100
0001
1000
,  // measure 109
0010
0100
1000
0001
,  // measure 110
0010
0100
0010
0001
,  // measure 111
1000
0100
0010
0100
,  // measure 112
1000
0001
0010
0001
,  // measure 113
1000
0002
0000
0000
,  // measure 114
0003
0000
0100
0010
0100
0010
0100
0010
,  // measure 115
1000
0001
1000
0001
1000
0001
1000
0100
,  // measure 116
0010
0001
0010
0100
1000
0010
0100
0001
,  // measure 117
1000
0100
0010
0001
0010
0100
0010
0001
,  // measure 118
0010
0100
1000
0100
0010
0100
1000
0001
,  // measure 119
1000
0010
1000
0001
1000
0100
1000
0010
,  // measure 120
1000
0001
1000
0100
0010
0001
0010
0100
,  // measure 121
0010
0001
0010
0100
1000
0100
2000
3000
,  // measure 122
0001
0010
0100
0010
0001
0010
0100
1000
,  // measure 123
0100
0010
0100
1000
0100
0010
0100
0000
,  // measure 124
0010
0100
0010
0001
0010
0100
1000
0100
,  // measure 125
0010
0001
0010
0100
0010
0001
0010
0000
,  // measure 126
1000
0100
1000
0100
1000
0100
1000
0000
,  // measure 127
0001
0010
0001
0010
0001
0010
0001
0000
,  // measure 128
1010
0000
0000
1010
0000
0000
0101
0000
,  // measure 129
0001
0010
0100
1000
,  // measure 130
0200
0000
0000
0000
,  // measure 131
0000
0000
0000
0000
,  // measure 132
0000
0000
0000
0000
,  // measure 133
0000
0000
0000
0000
,  // measure 134
0000
0000
0000
0000
,  // measure 135
0300
0000
0000
0000
;

//---------------dance-single - ----------------
#NOTES:
     dance-single:
     :
     Medium:
     9:
     0.505483,0.835451,0.000000,0.094648,0.000000,486.000000,486.000000,0.000000,13.000000,0.000000,0.000000,0.505483,0.835451,0.000000,0.094648,0.000000,486.000000,486.000000,0.000000,13.000000,0.000000,0.000000:
0000
0000
0000
0000
,
0000
0000
0000
0000
,
0000
0000
0000
0000
,
0000
0000
0000
0000
,
0100
0000
0010
0000
,
0100
0000
0010
0000
,
1000
0000
0001
0000
,
0010
0010
1000
1000
,
0100
0100
0001
0001
,
0100
0010
0100
0010
,
0001
0010
0001
0001
,
0100
1000
1000
0001
,
0000
0000
0000
0000
,
0010
0000
0000
0000
,
1000
0000
0010
0000
,
0002
0000
0000
0003
,
1000
0100
1000
0001
,
0100
1000
0001
1000
,
1000
0000
0010
0010
,
1000
0000
0100
0000
2000
3000
0001
0000
,
0010
0001
0001
0000
,
1000
0001
1000
0001
,
0000
0001
0100
0000
,
0100
0000
0200
0300
1000
0000
1000
0000
,
0001
0010
1000
1000
,
1000
0010
0010
0010
,
0010
1000
0001
0100
,
0002
0003
0010
0000
0100
0000
1000
0000
,
1000
1000
0001
0010
,
1000
0100
0010
1000
,
0002
0000
0000
0000
,
0003
0001
1000
0100
,
0001
1000
1000
0010
,
1000
0001
0001
1000
,
0010
0010
0001
0010
,
1000
0100
1000
0010
,
0100
1000
0100
1000
,
0001
0010
0001
0001
,
0001
0000
2000
0000
0000
0000
0000
3000
,
1000
0001
0001
1000
,
1000
0100
1000
1000
,
0001
0001
0100
0001
,
1000
1000
0001
0010
,
0100
0001
0001
0100
,
0010
0001
0010
1000
,
1000
0010
0001
0200
,
0000
0020
0000
0330
,
0010
0100
0001
1000
,
0010
1000
1000
0001
,
0001
1000
0100
0001
,
0100
1000
0100
1000
,
1000
0001
0100
0100
,
0010
0010
0001
0001
,
0010
0001
0100
1000
,
0010
0010
0001
0001
,
1000
1000
1000
0001
,
1000
0001
0100
0010
,
0010
1000
0010
0100
,
0001
0010
1000
1000
,
1000
0010
0100
1000
,
1000
0010
0001
1000
,
0100
0001
1000
0010
,
0010
0001
0001
0100
,
0020
0000
0000
0000
,
0000
0000
0000
0000
,
0000
0000
0000
0000
,
0030
0000
0000
0000
,
0010
0010
0010
1000
0001
0001
0100
0010
,
0001
0010
1000
1000
0001
0001
1000
0010
,
0010
0001
0010
0100
1000
0001
1000
0001
,
0001
1000
1000
1000
0001
1000
1000
1000
,
1000
0001
0010
0100
1000
0010
0100
0001
,
0100
0010
1000
0001
0100
1000
1000
0100
,
1000
0010
0010
0100
0010
0100
1000
0010
,
0010
0001
0010
0001
1000
0001
0001
0000
,
0010
1000
0010
0010
1000
0001
0010
1000
,
0010
0001
1000
0001
1000
0001
0001
0100
,
1000
0010
1000
0010
1000
1000
0001
0001
,
1000
0001
0100
0010
,
1000
0010
1000
0010
,
0001
0001
1000
1000
,
0001
0100
0010
1000
,
0010
0010
0010
0001
,
0010
0000
1000
1000
,
1000
0000
0001
0010
,
0001
0000
1000
1000
,
0100
0000
0001
0010
,
0100
0000
0100
0001
,
1000
0000
1000
0010
,
0001
0000
0010
0000
,
0001
0010
0001
1000
,
0010
0010
1000
1000
,
1000
1000
0010
1000
,
0010
0001
0001
0010
,
1000
0001
0001
0010
,
0001
0001
1000
0100
,
1000
0001
0001
1000
,
2000
0000
0000
0000
,
3000
0001
0100
0010
,
0100
1000
0001
1000
,
1000
0001
0010
0001
,
0100
1000
0010
0001
,
1000
0010
0100
1000
,
0100
0001
1000
0001
,
0010
0001
0001
0001
,
0001
1000
0001
0001
,
0001
0010
0001
0001
,
0100
0001
0100
0001
,
1000
0100
1000
0010
,
0001
1000
0100
0010
,
0100
0010
0001
0010
,
0001
0100
0001
0010
,
1000
1000
0001
0001
,
0001
0002
0000
0000
,
0003
0100
1000
0001
,
0010
1000
0001
1000
,
0010
0001
0010
0010
,
1000
0001
1000
0001
,
0001
0010
1000
1000
,
1000
1000
0100
0100
,
0001
0010
0010
0100
,
1000
0000
0001
0000
0001
0000
2000
3000
,
0001
0010
0001
0001
,
0001
0010
1000
0001
,
1000
0001
1000
1000
,
1000
0010
0010
1000
,
0100
0010
1000
0010
,
1000
1000
0001
0010
,
1000
0000
1000
1000
,
0001
0001
0001
1000
,
0200
0000
0000
0000
,
0000
0000
0000
0000
,
0000
0000
0000
0000
,
0000
0000
0000
0000
,
0000
0000
0000
0000
,
0300
0000
0000
0000
;

//---------------dance-single - ----------------
#NOTES:
     dance-single:
     :
     Easy:
     5:
     0.271463,0.442297,0.000000,0.087367,0.000000,261.000000,261.000000,0.000000,12.000000,0.000000,0.000000,0.271463,0.442297,0.000000,0.087367,0.000000,261.000000,261.000000,0.000000,12.000000,0.000000,0.000000:
0000
0000
0000
0000
,
0000
0000
0000
0000
,
0000
0000
0000
0000
,
0000
0000
0000
0000
,
0010
0000
0001
0000
,
1000
0000
0010
0000
,
0010
0000
1000
0000
,
0001
0000
1000
0000
,
0100
0000
1000
0000
,
1000
0000
0100
0000
,
0001
0000
0100
0000
,
0100
0000
0010
0000
,
0000
0000
0000
0000
,
1000
0000
0000
0000
,
0010
0000
1000
0000
,
0002
0000
0000
0003
,
0010
0000
1000
1000
,
0000
1000
0000
0010
,
0000
0000
1000
0000
,
0010
0000
0000
0000
2000
3000
0001
0000
,
0000
1000
0000
0000
,
0001
0000
1000
0000
,
0000
0010
0000
1000
,
0000
0000
0200
0300
1000
0000
0000
0000
,
1000
0000
0001
0000
,
0010
0000
1000
0000
,
0010
0000
0001
0000
,
0002
0003
1000
0000
0000
0000
1000
0000
,
0000
1000
0000
0010
,
0000
1000
0000
0100
,
0002
0000
0000
0000
,
0003
0010
0000
0100
,
0000
0001
0000
0001
,
0000
1000
0000
0001
,
0000
0010
0000
0001
,
0000
0010
0000
0010
,
0000
1000
0000
1000
,
0000
1000
0000
0001
,
0000
0000
2000
0000
0000
0000
0000
3000
,
0010
0000
1000
0000
,
1000
0000
0100
0000
,
0010
0000
0010
0000
,
1000
0000
0001
0000
,
0010
0000
0001
0000
,
1000
0000
0001
0000
,
0001
0000
0010
0200
,
0000
0000
0000
0300
,
0001
0000
1000
0000
,
0010
0000
0010
0000
,
1000
0000
0001
0000
,
0010
0000
0100
0000
,
1000
0000
0001
0000
,
1000
0000
1000
0000
,
1000
0000
0010
0000
,
0001
0000
1000
0000
,
1000
0000
0100
0000
,
0001
0000
0001
0000
,
0001
0000
0001
0000
,
0001
0000
0010
0000
,
1000
0000
1000
0000
,
1000
0000
0001
0000
,
0001
0000
1000
0000
,
0010
0000
0001
0000
,
0020
0000
0000
0000
,
0000
0000
0000
0000
,
0000
0000
0000
0000
,
0030
0000
0000
0000
,
0001
1000
0010
1000
,
0100
1000
1000
0100
,
0010
0001
1000
0010
,
1000
0100
0001
0001
,
0010
0100
0010
0010
,
0001
0100
0001
0100
,
0001
0001
0010
1000
,
0001
0010
0001
0100
,
0001
1000
1000
0100
,
0010
1000
1000
0001
,
1000
1000
0001
0001
,
1000
0000
0001
0000
,
0010
0000
0010
0000
,
0001
0000
0001
0000
,
0100
0000
0010
0000
,
0001
0000
0010
0000
,
0001
0000
0100
0000
,
1000
0000
1000
0000
,
0001
0000
1000
0000
,
0100
0000
1000
0000
,
1000
0000
0001
0000
,
1000
0000
0001
0000
,
0001
0000
0001
0000
,
0001
0000
1000
1000
,
0000
1000
0000
0001
,
0000
0100
0000
1000
,
0000
0001
0000
0100
,
0000
1000
0000
1000
,
0000
1000
0000
0001
,
0000
1000
0000
0100
,
2000
0000
0000
0000
,
3000
1000
0000
0010
,
0000
1000
0000
0010
,
0000
0001
0000
0001
,
0000
1000
0000
0100
,
0000
1000
0000
1000
,
0000
1000
0000
0001
,
0000
0001
0000
0001
,
0000
0001
0000
0001
,
0000
1000
0000
0100
,
0000
1000
0000
0001
,
0000
0010
0000
1000
,
0000
1000
0000
0100
,
0000
0001
0000
0010
,
0000
0010
0000
1000
,
0000
1000
0000
1000
,
0000
0002
0000
0000
,
0003
0100
0000
0001
,
0000
0100
0000
1000
,
0000
0010
0000
1000
,
0000
0010
0000
0001
,
0000
0010
0000
0100
,
0000
0001
0000
1000
,
0000
1000
0000
0001
,
0000
0000
0001
0000
0000
0000
2000
3000
,
0010
0000
0001
0000
,
1000
0000
0010
0000
,
0100
0000
0100
0000
,
0001
0000
0001
0000
,
0001
0000
0010
0000
,
0010
0000
0001
0000
,
1000
0000
1000
0000
,
0001
0000
0010
0000
,
0200
0000
0000
0000
,
0000
0000
0000
0000
,
0000
0000
0000
0000
,
0000
0000
0000
0000
,
0000
0000
0000
0000
,
0300
0000
0000
0000
;
