#VERSION:0.83;
#TITLE:I;
#SUBTITLE:;
#ARTIST:LeaF;
#TITLETRANSLIT:;
#SUBTITLETRANSLIT:;
#ARTISTTRANSLIT:;
#GENRE:;
#ORIGIN:;
#CREDIT:;
#BANNER:I.png;
#BACKGROUND:I-BG.png;
#PREVIEWVID:;
#JACKET:I-Jacket.png;
#CDIMAGE:;
#DISCIMAGE:;
#LYRICSPATH:;
#CDTITLE:;
#MUSIC:I.ogg;
#OFFSET:3.208000;
#SAMPLESTART:20.701000;
#SAMPLELENGTH:24.000000;
#SELECTABLE:YES;
#DISPLAYBPM:55.000000:280.000000;
#BPMS:0.000=55.000,
4.000=220.000,
12.000=55.000,
27.000=240.000,
37.750=55.000,
38.000=240.000,
41.750=55.000,
42.000=240.000,
43.500=55.000,
44.000=240.000,
51.750=55.000,
52.000=240.000,
89.000=230.000,
90.000=220.000,
91.000=210.000,
92.000=200.000,
93.000=190.000,
94.000=180.000,
95.000=220.000,
161.000=225.000,
189.000=230.000,
217.000=200.000,
220.500=210.000,
224.000=220.000,
227.500=230.000,
231.000=240.000,
234.500=250.000,
238.000=260.000,
241.500=270.000,
246.000=280.000,
258.500=65.000,
259.000=280.000,
272.500=65.000,
273.000=280.000,
303.000=55.000,
313.000=280.000,
398.000=65.000,
398.500=280.000,
400.000=65.000,
400.500=280.000,
401.000=65.000,
401.500=280.000,
406.500=65.000,
407.000=280.000,
408.000=65.000,
408.500=280.000,
409.500=65.000,
410.000=280.000,
417.000=65.000,
417.500=280.000,
418.500=65.000,
419.000=280.000,
419.500=65.000,
419.750=280.000,
422.500=65.000,
423.000=280.000,
424.000=65.000,
424.750=280.000,
426.000=65.000,
426.250=280.000,
428.000=65.000,
428.250=280.000,
431.000=65.000,
431.500=280.000,
432.000=65.000,
432.250=280.000,
522.000=60.000,
524.000=240.000;
#STOPS:;
#DELAYS:;
#WARPS:;
#TIMESIGNATURES:0.000=4=4;
#TICKCOUNTS:0.000=4;
#COMBOS:0.000=1;
#SPEEDS:0.000=1.000=0.000=0;
#SCROLLS:0.000=1.000;
#FAKES:;
#LABELS:0.000=Song Start;
#BGCHANGES:2.938=I.avi=1.000=0=0=1=====,
99999=-nosongbg-=1.000=0=0=0 // don't automatically add -songbackground-
;
#KEYSOUNDS:;
#ATTACKS:
;

//---------------dance-single - ----------------
#NOTEDATA:;
#CHARTNAME:;
#STEPSTYPE:dance-single;
#DESCRIPTION:;
#CHARTSTYLE:;
#DIFFICULTY:Hard;
#METER:12;
#RADARVALUES:0.779140,2.669734,0.562866,0.064697,0.184387,843.000000,756.000000,87.000000,10.000000,0.000000,0.000000,0.000000,0.000000,0.000000,0.779140,2.669734,0.562866,0.064697,0.184387,843.000000,756.000000,87.000000,10.000000,0.000000,0.000000,0.000000,0.000000,0.000000;
#CREDIT:;
#DISPLAYBPM:55.000000:280.000000;
#NOTES:
// measure 0
0000
0000
0000
0000
,  // measure 1
1000
0100
0010
0100
0001
0100
0001
1000
,  // measure 2
0010
1000
0010
0001
1000
0010
0100
0000
,  // measure 3
1001
0000
1010
0010
0110
0000
0101
0000
,  // measure 4
1010
0010
0011
0001
1001
0000
1010
0000
,  // measure 5
0101
0100
0110
0010
1010
0000
1001
0000
,  // measure 6
1001
0000
0000
0000
0000
0000
0000
0000
1000
0100
0001
0000
0000
0000
0000
0000
1000
0010
0001
0000
0000
0000
0000
0000
1000
0100
0001
0000
0000
0000
0000
0000
1001
0000
0000
0000
0000
0000
0000
0000
0000
0000
0000
0000
0000
0000
0000
0000
2002
0000
0000
0000
0000
0000
0000
0000
0000
0000
0000
0000
0000
0000
0000
0000
,  // measure 7
0000
0000
0000
0000
3003
0000
1000
0100
,  // measure 8
0010
0100
1000
0001
0010
0100
0010
0100
,  // measure 9
1000
0100
0010
0001
1000
0010
0100
0001
,  // measure 10
1000
0001
0100
0010
1000
0100
0001
0010
,  // measure 11
0001
1000
0100
0010
0001
1000
0010
0100
,  // measure 12
0001
0010
0001
0010
0001
1000
0100
1000
,  // measure 13
0100
0001
1000
0010
0100
0001
1000
0100
,  // measure 14
1000
0001
0010
0002
0000
2000
0000
3003
,  // measure 15
1000
0010
0100
0001
0010
0001
1000
0010
,  // measure 16
0100
0001
0010
0100
1000
0001
0100
0010
,  // measure 17
0100
0010
1000
0001
1000
0100
0010
0100
,  // measure 18
1000
0100
0010
0001
0010
0100
1000
0001
,  // measure 19
0100
0010
1000
0001
1000
0010
1000
0100
,  // measure 20
1000
0001
0010
0100
0010
0001
1000
0010
,  // measure 21
0100
0001
1000
0100
1000
0001
0010
0001
,  // measure 22
1000
0100
2002
0000
0000
0000
0000
0000
,  // measure 23
0000
0000
3003
1001
,  // measure 24
1001
1001
1000
0010
,  // measure 25
0100
1000
0001
0100
,  // measure 26
0010
0100
0001
1000
,  // measure 27
0010
0100
0001
0010
,  // measure 28
0100
1000
0001
0100
,  // measure 29
0010
0100
1000
0010
,  // measure 30
0100
0001
0010
0001
,  // measure 31
1000
0100
1000
0001
,  // measure 32
0100
0010
0100
1000
,  // measure 33
0010
0100
0001
0010
,  // measure 34
0100
0010
0001
1000
,  // measure 35
0010
0100
0001
0010
,  // measure 36
1000
1000
0100
1000
,  // measure 37
0010
0100
0001
0100
,  // measure 38
0010
0100
1000
0001
,  // measure 39
0010
0100
0010
0001
,  // measure 40
1000
0010
0100
0001
,  // measure 41
1000
0010
0100
0010
,  // measure 42
0010
0100
1000
0001
0010
0100
1000
0000
,  // measure 43
0001
0010
0001
0000
1000
0000
0010
0000
0100
0000
0001
0000
1000
0000
0000
0000
,  // measure 44
0010
0100
0001
1000
,  // measure 45
0010
0000
0100
0000
0010
0100
1000
0001
,  // measure 46
0010
0000
0000
0000
0010
0000
0010
0100
0010
0000
0000
0000
1000
0000
0000
0000
,  // measure 47
0001
0100
0010
1000
,  // measure 48
0001
0100
0010
0001
,  // measure 49
1000
0000
0010
0100
0010
0001
0010
0100
,  // measure 50
1000
0100
0010
0100
1000
0100
1010
0000
,  // measure 51
0001
0100
0010
1000
,  // measure 52
0100
0000
0001
0000
0001
0010
0001
0010
,  // measure 53
0001
1000
0100
1000
0100
1000
0001
0010
,  // measure 54
0100
1000
1001
0000
0000
0000
0000
0000
,  // measure 55
0000
0000
0000
0000
,  // measure 56
0000
0000
0000
0000
,  // measure 57
0000
0000
0000
1000
,  // measure 58
0100
0010
0001
0100
,  // measure 59
0010
0000
1000
0000
1000
0100
0010
0001
,  // measure 60
1000
0010
0100
0001
1000
0001
1000
0001
,  // measure 61
0000
1000
0100
0010
0001
1000
0010
0100
,  // measure 62
0001
1000
0100
1000
0001
0010
0001
0100
,  // measure 63
0010
0100
0001
1000
0001
1000
0100
0010
,  // measure 64
0001
0010
0100
1000
0100
0010
1000
0010
,  // measure 65
0100
0001
0010
0100
1000
0001
0100
0010
,  // measure 66
1000
0100
1000
0100
1000
0001
0010
0001
,  // measure 67
0010
0001
1000
0100
0010
0001
1000
0100
,  // measure 68
0010
0001
1000
0100
1000
0100
1000
0001
,  // measure 69
0010
0001
0010
0001
1000
0100
0010
0001
,  // measure 70
1000
0100
0010
0001
1000
0010
1000
0010
,  // measure 71
1000
0010
1000
0001
0100
0001
0100
0001
,  // measure 72
0100
0001
1000
0100
0010
0001
1000
0100
,  // measure 73
0010
0100
1000
0100
0010
0001
0010
0100
,  // measure 74
0010
0001
1000
0001
1000
0001
1000
0001
,  // measure 75
1000
0000
0000
1001
0000
1001
0000
1001
0000
1001
0000
0000
,  // measure 76
0000
0000
0000
0000
1000
0100
0010
0100
1000
0000
0100
0010
0001
0010
0100
0010
0101
0000
0010
0100
1000
0100
0010
0100
1010
0000
0100
0010
0101
0000
0010
0100
,  // measure 77
1010
0000
1000
0100
0011
0000
0001
0010
1100
0000
0100
0010
0001
0010
0100
1000
1001
0000
0010
0100
0010
0000
0100
0000
0110
0000
1000
0100
1100
0000
0010
0001
,  // measure 78
0011
0000
1000
0001
1001
0000
0000
0000
0000
0000
0000
0000
0000
0000
0000
0000
0000
0000
0000
0000
0000
0000
0000
0000
0010
0000
0000
0000
0100
0000
0000
0000
,  // measure 79
1000
0100
0010
0100
0000
1010
0000
0101
,  // measure 80
0000
1001
0000
0110
0000
0010
0100
1000
,  // measure 81
0000
0101
0000
1010
0000
1001
0000
0110
,  // measure 82
0000
1100
0000
0011
0000
0101
0000
1010
,  // measure 83
0000
1001
0000
0110
0000
1010
0000
0101
,  // measure 84
0000
0000
0000
1010
0000
1100
0000
0110
,  // measure 85
0000
0011
0000
1001
0000
1010
0000
0101
,  // measure 86
0000
1010
0000
0101
,  // measure 87
1100
0110
1010
0101
,  // measure 88
1001
0000
0101
0000
1001
0000
1000
0001
,  // measure 89
1000
0001
0010
0100
0010
0100
1010
0000
,  // measure 90
0001
0010
0100
1000
0001
0000
0000
0000
1010
0000
0000
0000
0010
0000
0000
0000
,  // measure 91
0100
0010
0001
1001
,  // measure 92
1001
0100
0010
0001
,  // measure 93
0001
0010
0100
1000
0001
0000
0000
0000
0010
0000
0000
0000
0100
0000
0000
0000
,  // measure 94
0001
1000
0000
0010
,  // measure 95
0000
0000
0100
0100
0100
0000
0001
0000
,  // measure 96
1000
0000
0010
0000
0010
0000
0010
0010
,  // measure 97
0010
0000
0001
0000
0001
0000
0001
0001
,  // measure 98
0001
0000
1000
0100
0010
0100
1000
0001
,  // measure 99
0100
0010
1000
0001
1000
0100
1000
0001
,  // measure 100
0010
1000
0001
0100
0010
1000
0001
0010
,  // measure 101
0100
1000
0001
1000
0010
0100
0010
0001
,  // measure 102
1000
0010
0100
1000
0001
1000
0010
0100
,  // measure 103
2002
0000
0000
3003
,  // measure 104
0001
1000
0001
0010
0100
1000
0001
0100
,  // measure 105
0010
1000
0001
0100
0010
1000
0001
1000
,  // measure 106
0010
0000
1000
0001
0100
1000
0001
0010
,  // measure 107
0100
0010
0001
1000
0100
0010
0001
1000
,  // measure 108
0010
0100
0001
1000
0001
1000
2002
0000
,  // measure 109
0000
0000
0000
0000
,  // measure 110
3003
0000
0010
0010
0010
0010
0110
0000
,  // measure 111
0110
0000
0110
0000
0110
0000
1000
0100
,  // measure 112
0010
0001
1000
0000
0010
0000
0100
0000
,  // measure 113
0001
0000
0010
0000
0010
0100
0010
0000
,  // measure 114
1000
0001
0100
1000
,  // measure 115
0001
0010
0100
0001
,  // measure 116
1000
0010
0100
0001
,  // measure 117
0000
0010
0100
0001
,  // measure 118
0010
1000
0100
0001
,  // measure 119
0000
1001
0000
0001
,  // measure 120
1000
0010
0100
0010
,  // measure 121
0001
0000
0000
0000
0100
0000
0000
0000
0010
0000
0000
0000
1000
0100
0010
0001
,  // measure 122
1000
0000
0000
0000
0001
0010
0100
1000
0001
0000
0000
0000
0010
0000
0000
0000
,  // measure 123
1000
0100
0010
0100
1000
0000
0000
0000
0001
0000
0000
0000
0101
0000
0000
0000
,  // measure 124
0010
1000
0010
0101
,  // measure 125
0100
0010
0001
1010
,  // measure 126
1000
0100
0010
1010
,  // measure 127
1000
0001
1000
1001
,  // measure 128
0010
0100
0010
0110
,  // measure 129
1000
0100
1000
0100
1000
0000
0000
0000
0001
0000
0000
0000
0100
0000
0000
0000
,  // measure 130
0010
1000
1001
0000
,  // measure 131
1001
0000
0000
0000
;

//---------------dance-single - ----------------
#NOTEDATA:;
#CHARTNAME:;
#STEPSTYPE:dance-single;
#DESCRIPTION:;
#CHARTSTYLE:;
#DIFFICULTY:Medium;
#METER:10;
#RADARVALUES:0.505563,1.864576,0.155273,0.058228,0.051758,547.000000,523.000000,24.000000,9.000000,0.000000,0.000000,0.000000,0.000000,0.000000,0.505563,1.864576,0.155273,0.058228,0.051758,547.000000,523.000000,24.000000,9.000000,0.000000,0.000000,0.000000,0.000000,0.000000;
#CREDIT:;
#DISPLAYBPM:55.000000:280.000000;
#NOTES:
0000
0000
0000
0000
,
0001
0100
0010
0010
,
0100
0100
0001
1000
,
0011
0000
0001
0100
1000
0000
0010
0000
,
0001
0100
0010
0010
0001
0000
0100
0000
,
0010
1000
1000
0100
0001
0000
0011
0000
,
0001
1000
0100
0010
0001
0000
0022
0000
,
0000
0000
0033
0001
,
0100
0001
1000
0100
,
0001
0100
0001
1000
,
0001
1000
0001
0010
,
0100
1000
0010
0100
,
0010
0001
0010
1000
,
1000
0001
1000
0001
,
0001
0000
0100
0020
0000
0000
0000
0030
,
0001
1000
0100
0001
,
1000
0010
0001
1000
,
0100
0001
0010
0100
,
0001
0100
1000
0001
,
1000
0001
0100
0010
,
0001
0100
1000
0001
,
1000
0001
0010
0100
,
1000
0022
0000
0000
,
0000
0000
0033
0001
,
0010
0010
0001
0100
,
1000
0001
0010
1000
,
0100
1000
0010
0001
,
0100
1000
0010
0100
,
1000
0001
0010
1000
,
0100
1000
0001
0100
,
1000
0010
0100
0010
,
0001
1000
0001
0010
,
1000
0100
1000
0001
,
0100
1000
0010
0100
,
1000
0100
0010
0001
,
0100
1000
0010
0100
,
0001
0001
1000
0001
,
0100
1000
0010
1000
,
0100
1000
0001
0010
,
0100
1000
0100
0010
,
0001
0100
1000
0010
,
0001
0100
1000
0100
,
0100
0001
0100
0001
,
0010
0001
1000
0001
,
0100
1000
0010
0001
,
0100
1000
0100
0001
,
0100
1000
0100
0001
,
0010
1000
0100
0001
,
0010
1000
0100
0010
,
0001
0100
1000
0100
,
0001
0100
0001
0101
,
0010
1000
0100
0001
,
1000
0010
0001
0001
,
0010
1000
1000
0010
,
1000
0011
0000
0000
,
0000
0000
0000
0000
,
0000
0000
0000
0000
,
0000
0000
0000
0001
,
1000
0100
0010
1000
,
0100
0001
0001
0100
,
0001
1000
0001
0001
,
0000
1000
0010
0100
,
0010
1000
0010
0001
,
0100
1000
0010
0001
,
0010
1000
0100
0001
,
1000
0100
0001
1000
,
0001
0010
0001
0100
,
1000
0001
0010
0001
,
0100
0001
1000
0001
,
0100
0010
0001
0100
,
0001
0100
0010
0001
,
1000
0001
1000
0010
,
1000
0001
0100
0001
,
0100
0001
1000
0010
,
1000
0001
0001
0001
,
0001
0011
0011
0011
,
0000
0000
0001
0100
0001
1000
0010
1000
1010
0100
0001
0100
0101
1000
1010
0100
,
0101
0001
0110
0010
1001
1000
0010
1000
0011
0100
0100
1000
1100
0001
1001
0100
,
0110
0001
0011
0000
0000
0000
0000
0000
0000
0000
0000
0000
0100
0000
0000
0000
,
0001
0000
0100
0000
0000
0001
0000
0010
,
0000
0001
0000
0100
0000
0100
0000
0001
,
0000
0010
0000
0001
0000
0010
0000
1000
,
0000
0001
0000
0010
0000
1000
0000
0100
,
0000
0001
0000
0100
0000
0001
0000
0010
,
0000
0000
0000
0100
0000
0001
0000
1000
,
0000
0100
0000
0010
0000
0001
0000
0010
,
0000
0001
0000
0010
,
0001
0100
0001
1000
,
0010
0000
1000
0000
0011
0000
0001
0010
,
0001
0010
0100
1000
0100
1000
0100
0000
,
0010
1000
0010
0000
0001
0000
0100
0000
,
1000
0100
0010
0001
,
0010
1000
0100
0010
,
0010
1000
0010
0000
0100
0000
1000
0000
,
0010
0001
0000
0100
,
0000
0000
1000
1000
1000
0000
0010
0000
,
0001
0000
0100
0000
0100
0000
0100
0100
,
0100
0000
0010
0000
0010
0000
0010
0010
,
0010
0001
0100
0001
,
1000
0001
0001
0001
,
0100
0010
0100
0010
,
1000
0010
0100
0100
,
0001
1000
0010
0100
,
0022
0000
0000
0033
,
0010
0010
1000
0010
,
0100
0010
0100
0010
,
0100
0001
1000
0010
,
1000
0010
1000
0010
,
0100
0010
0010
0022
,
0000
0000
0000
0000
,
0033
0100
0100
1000
,
1000
1000
1000
0001
,
0100
0001
0100
1000
,
0010
0100
0100
0100
,
0001
0010
1000
0001
,
0010
0100
1000
0010
,
0001
0100
1000
0010
,
0000
0100
1000
0010
,
0100
0001
1000
0010
,
0000
0001
0000
0010
,
0001
0100
1000
0100
,
0010
0000
1000
0000
0100
0000
0001
0100
,
0001
0000
0010
1000
0010
0000
0100
0000
,
0001
0100
0001
0000
0010
0000
1010
0000
,
0100
0001
0100
1000
,
1000
0100
0010
0100
,
0001
1000
0100
0100
,
0001
0010
0001
0010
,
0100
1000
0100
1000
,
0001
1000
0001
0000
0010
0000
1000
0000
,
0100
0001
0010
0000
,
1000
0000
0000
0000
;

//---------------dance-single - ----------------
#NOTEDATA:;
#CHARTNAME:;
#STEPSTYPE:dance-single;
#DESCRIPTION:;
#CHARTSTYLE:;
#DIFFICULTY:Easy;
#METER:6;
#RADARVALUES:0.268032,0.720404,0.012939,0.025879,0.000000,290.000000,288.000000,2.000000,4.000000,0.000000,0.000000,0.000000,0.000000,0.000000,0.268032,0.720404,0.012939,0.025879,0.000000,290.000000,288.000000,2.000000,4.000000,0.000000,0.000000,0.000000,0.000000,0.000000;
#CREDIT:;
#DISPLAYBPM:55.000000:280.000000;
#NOTES:
0000
0000
0000
0000
,
1000
0000
0100
0000
,
0010
0000
0100
0000
,
0001
0100
1000
0010
,
1000
0100
0001
0100
,
0010
0001
1000
0000
,
0001
1000
0001
0110
,
0000
0000
0000
0001
,
0000
1000
0000
0001
,
0000
0100
0000
0010
,
0000
0100
0000
1000
,
0000
0010
0000
0001
,
0000
0100
0000
0001
,
0000
1000
0000
0100
,
0000
0000
2000
0000
0000
0000
0000
3000
,
0001
0000
0100
0000
,
0010
0000
0100
0000
,
1000
0000
0001
0000
,
0010
0000
0100
0000
,
1000
0000
0001
0000
,
0100
0000
0010
0000
,
1000
0000
0010
0000
,
0001
0200
0000
0000
,
0000
0000
0300
1000
,
0000
0001
0000
0100
,
0000
0010
0000
0100
,
0000
0001
0000
1000
,
0000
0010
0000
0001
,
0000
0100
0000
0001
,
0000
0010
0000
1000
,
0000
1000
0000
0001
,
0000
0100
0000
0001
,
0000
0100
0000
0010
,
0000
0100
0000
0001
,
0000
1000
0000
0100
,
0000
0001
0000
0010
,
0000
1000
0000
0001
,
0000
0100
0000
0010
,
0000
0001
0000
1000
,
0000
0001
0000
1000
,
0000
0100
0000
0001
,
0000
0010
0000
0001
,
0000
0100
0000
1000
,
0000
0001
0000
1000
,
0000
0001
0000
0010
,
0000
0100
0000
0001
,
0000
0010
0000
0100
,
0000
0001
0000
1000
,
0000
0100
0000
0100
,
0000
0001
0000
0010
,
0000
0001
0000
0100
,
0000
1000
0000
0010
,
0000
1000
0000
0001
,
0000
0010
0000
0100
,
0000
0001
0000
0000
,
0000
0000
0000
0000
,
0000
0000
0000
0000
,
0000
0000
0000
0001
,
0000
0010
0000
0001
,
0000
1000
0000
0010
,
0000
0001
0000
0100
,
0000
1000
0000
0001
,
0000
0010
0000
1000
,
0000
0100
0000
0001
,
0000
0100
0000
0001
,
0000
0001
0000
0100
,
0000
1000
0000
0010
,
0000
1000
0000
0100
,
0000
1000
0000
0100
,
0000
0001
0000
0100
,
0000
1000
0000
0100
,
0000
0010
0000
1000
,
0000
0001
0000
1000
,
0000
0010
0000
0100
,
0000
0001
0000
0100
,
0000
0010
0001
0001
,
0000
1000
0100
0001
0001
1000
0100
0010
,
0001
1000
0001
1000
0100
0001
1000
0010
,
0100
0001
0000
0000
0000
0000
0100
0000
,
0000
0000
0001
0000
0000
0100
0000
0000
,
0000
0001
0000
0000
0000
0100
0000
0000
,
0000
1000
0000
0000
0000
0010
0000
0000
,
0000
0001
0000
0000
0000
0010
0000
0000
,
0000
0100
0000
0000
0000
1000
0000
0000
,
0000
0000
0000
0001
0000
0000
0000
1000
,
0000
0000
0000
0010
0000
0000
0000
0100
,
0000
1000
0000
1000
,
0000
0001
0000
1000
,
0000
0010
0100
0001
,
1000
0001
0000
0010
,
0000
0001
0000
1000
,
0000
0001
0000
0100
,
0000
1000
0000
0001
,
1000
0001
1000
0100
,
0001
0010
0000
0100
,
0000
0010
1000
1000
,
0100
0100
0001
1000
,
0001
1000
0001
0100
,
0001
1000
0000
1000
,
0010
0101
0100
0000
,
1000
0001
0100
0000
,
1000
0000
0000
0100
,
0001
0000
1000
0000
,
0200
0000
0000
0300
,
0000
0010
0000
0100
,
0001
0000
0000
0001
,
0000
1000
0001
0000
,
0100
0000
0000
0010
,
0100
0000
0001
0200
,
0000
0000
0000
0000
,
0300
1000
0000
0001
,
0000
0010
0000
0100
,
0000
1000
0000
0010
,
0000
0001
0000
1000
,
0000
0001
0000
0010
,
0000
1000
0000
0100
,
0000
0001
0000
0010
,
0000
0001
0000
0010
,
0000
1000
0000
0100
,
0000
1000
0000
0001
,
0000
0100
0000
0010
,
0000
0010
0000
0100
,
1000
0100
0010
0001
,
1000
0100
0001
0010
,
0100
0000
1000
0000
,
0001
0000
0010
0000
,
0001
0000
0100
0000
,
1000
0000
0010
0000
,
0001
0000
0100
0000
,
0001
0010
0100
0000
,
1000
0000
0001
0000
,
1000
0000
0000
0000
;
