#VERSION:0.83;
#TITLE:Hypernova;
#SUBTITLE:;
#ARTIST:A4Paper;
#TITLETRANSLIT:;
#SUBTITLETRANSLIT:;
#ARTISTTRANSLIT:;
#GENRE:;
#ORIGIN:;
#CREDIT:;
#BANNER:Hypernova.png;
#BACKGROUND:Hypernova-BG.png;
#PREVIEWVID:;
#JACKET:Hypernova-Jacket.png;
#CDIMAGE:;
#DISCIMAGE:;
#LYRICSPATH:;
#CDTITLE:;
#MUSIC:Hypernova.ogg;
#OFFSET:-1.591001;
#SAMPLESTART:15.437000;
#SAMPLELENGTH:24.000000;
#SELECTABLE:YES;
#BPMS:0.000=156.000;
#STOPS:;
#DELAYS:;
#WARPS:;
#TIMESIGNATURES:0.000=4=4;
#TICKCOUNTS:0.000=4;
#COMBOS:0.000=1;
#SPEEDS:0.000=1.000=0.000=0;
#SCROLLS:0.000=1.000;
#FAKES:;
#LABELS:0.000=Song Start;
#BGCHANGES:-3.500=Hypernova.avi=1.000=1=0=1===CrossFade==,
99999=-nosongbg-=1.000=0=0=0 // don't automatically add -songbackground-
;
#KEYSOUNDS:;
#ATTACKS:
;

//---------------dance-single - ----------------
#NOTEDATA:;
#CHARTNAME:;
#STEPSTYPE:dance-single;
#DESCRIPTION:;
#CHARTSTYLE:;
#DIFFICULTY:Hard;
#METER:10;
#RADARVALUES:0.528315,0.989519,0.485479,0.349830,0.453351,518.000000,450.000000,68.000000,49.000000,0.000000,2.000000,0.000000,0.000000,0.000000,0.528315,0.989519,0.485479,0.349830,0.453351,518.000000,450.000000,68.000000,49.000000,0.000000,2.000000,0.000000,0.000000,0.000000;
#CREDIT:;
#DISPLAYBPM:0.000000;
#NOTES:
// measure 0
0000
0000
0000
0000
,  // measure 1
1001
0000
0000
0001
0000
0000
0101
0000
0000
0000
0100
0000
0000
0000
0010
0000
,  // measure 2
0110
0000
0000
0100
0000
0000
0101
0000
0000
0000
0001
0000
0001
1000
0001
1000
,  // measure 3
1001
0000
0000
0000
0000
0000
0101
0000
0000
0000
0000
0000
1000
0100
0010
0001
,  // measure 4
1100
0000
0000
1010
0000
0000
0101
0000
0000
0000
0000
0000
1000
0000
0000
0000
,  // measure 5
0101
0000
0000
0000
0000
0000
0000
0000
1010
0000
0000
0100
0000
0000
0001
0000
,  // measure 6
0000
1010
0000
0000
0101
0000
0000
1001
0000
0000
1001
0000
0000
0000
0100
0010
,  // measure 7
0100
0000
0010
0000
0001
0000
1000
0000
0100
1000
0001
0010
0100
1000
0001
0010
,  // measure 8
0200
0000
0000
0300
,  // measure 9
1000
0000
0001
0010
0000
0100
0010
1000
,  // measure 10
0000
0000
1000
0000
0001
0000
0000
0000
0010
0000
0000
0100
0000
0000
0001
0000
,  // measure 11
1000
0000
1000
0010
0000
0100
0010
1000
,  // measure 12
0000
0000
0001
0000
1000
0000
0000
0000
0010
0000
0000
0100
0000
0000
0001
0000
,  // measure 13
1000
0000
1000
0010
0000
0100
0010
0100
,  // measure 14
0000
0000
0001
0000
1000
0000
0000
0000
0010
0000
0000
0100
0000
0000
0001
0000
,  // measure 15
1000
0000
0000
0001
0000
0000
0001
0000
0010
0000
0000
0000
0010
0000
0100
0000
,  // measure 16
0000
0000
1000
0000
0001
0000
0000
0000
1000
0000
0000
0100
0000
0000
0010
0000
,  // measure 17
0002
1000
0100
0010
,  // measure 18
0023
0000
1000
0230
0000
0000
1320
0000
,  // measure 19
1032
0000
0100
2003
0001
0000
3020
0000
,  // measure 20
1000
0000
0100
0000
0001
0000
1030
0100
,  // measure 21
2000
0001
0010
0100
,  // measure 22
3002
0000
1000
0203
0010
0000
0320
0000
,  // measure 23
2030
0000
0010
3002
1000
0203
0001
0320
,  // measure 24
0100
0000
2030
0000
0001
0000
0000
0000
0010
0000
0000
0000
3001
0010
0100
1000
,  // measure 25
0002
1000
0100
0010
,  // measure 26
0023
0000
1000
0230
0001
0000
2300
0000
,  // measure 27
3020
0000
1000
0230
0001
0000
0302
0000
,  // measure 28
0010
2003
0000
0000
3001
0000
1010
0101
,  // measure 29
1001
0000
0000
0000
1000
0000
0001
0000
0000
0000
0010
0000
0100
0000
0010
0100
,  // measure 30
0010
0000
0000
1010
0000
0000
0101
0000
1001
0000
0000
0000
0110
0000
0000
0000
,  // measure 31
1000
0100
0010
0001
1000
0100
0010
0001
0010
0100
1000
0001
0010
0100
1000
0000
,  // measure 32
2002
0000
0000
3003
,  // measure 33
0002
0000
0000
0000
,  // measure 34
0000
0000
2003
0000
,  // measure 35
3020
0000
0000
0000
,  // measure 36
0230
0000
0000
0000
,  // measure 37
0302
0000
0000
0000
,  // measure 38
0000
0000
2003
0000
,  // measure 39
3020
0000
0000
0000
,  // measure 40
0230
0000
0302
0000
,  // measure 41
1003
0000
0000
0000
,  // measure 42
0000
0000
0000
0000
,  // measure 43
0000
0000
0000
0000
,  // measure 44
0000
0000
0000
0000
,  // measure 45
0000
0000
0000
0000
,  // measure 46
0000
0000
0000
0000
,  // measure 47
0000
0000
0000
0000
,  // measure 48
0000
0000
0000
0000
,  // measure 49
1001
0000
0000
0101
0000
0000
0110
0000
0000
0000
0000
0000
1001
0000
1000
0001
,  // measure 50
1000
0000
0000
0110
0000
0000
0101
0000
1001
0000
0001
0000
0000
0101
0000
0000
,  // measure 51
1010
0000
0000
0110
0000
0000
1001
0000
0000
1100
0000
0000
1010
0000
1000
0100
,  // measure 52
1000
0000
0001
0010
0001
0000
0000
0000
0101
0000
0000
0000
1000
0100
0010
0100
,  // measure 53
1000
0000
0000
0101
0000
0000
1001
0000
0000
1010
0000
0000
1000
0100
0001
0000
,  // measure 54
1001
0000
0000
0110
0000
0000
1000
0100
0010
0100
0010
0001
1000
0100
1000
0001
,  // measure 55
0010
0001
1000
0010
0001
0010
1000
0001
0100
1000
0100
0001
1000
0010
1000
0010
,  // measure 56
0100
0001
0100
0001
1000
0001
1000
0000
2002
0000
3003
0202
0000
0303
2020
0000
,  // measure 57
3030
0000
0000
0000
0000
0000
0000
0000
0000
0000
0000
0000
0000
0000
0000
0001
,  // measure 58
1000
0000
0000
1000
0001
0000
0000
0001
1000
0000
0000
0000
2002
0000
3003
0000
,  // measure 59
0010
0000
0000
0100
0000
0000
0001
0000
0000
0010
0000
0000
1000
0000
0100
0000
,  // measure 60
0001
0000
0000
1000
0000
0000
0010
0000
0100
0000
0000
0001
0000
0000
1000
0000
,  // measure 61
0010
0000
0000
0100
0000
0000
0001
0000
0000
0010
0000
0000
1000
0000
0100
0000
,  // measure 62
1000
0000
0000
0001
0000
0000
0000
0000
0001
1000
0000
0000
1000
0000
0010
0000
,  // measure 63
0110
0000
0000
0100
0000
0000
0001
0000
0000
1000
0000
0000
0010
0000
0100
0000
,  // measure 64
0001
0000
0000
0010
0000
0000
1000
0000
0010
0000
0000
0001
0000
0000
0010
0000
,  // measure 65
0110
0000
0000
0001
0000
0000
1000
0000
1010
0000
0010
0000
0100
0010
0001
0010
,  // measure 66
0100
1000
0100
1000
0100
0000
0010
0001
0000
0000
1000
0000
0001
0010
0100
1000
,  // measure 67
0001
0000
0000
0100
0000
0000
0010
0000
0000
1000
0000
0000
0001
0000
1000
0000
,  // measure 68
0001
0000
0000
0010
0000
0000
0100
0000
0010
0000
0000
0001
0000
0000
1000
0000
,  // measure 69
0010
0000
0000
0100
0000
0000
0010
0000
0000
1000
0000
0000
0001
0000
1000
0000
,  // measure 70
0010
0000
0000
0100
0000
0000
0000
0000
0010
1000
0000
0000
0001
0000
0010
0000
,  // measure 71
0011
0000
0000
1000
0000
0000
0010
0000
0000
0100
0000
0000
0010
0000
1000
0000
,  // measure 72
1010
0000
0000
0001
0000
0000
0100
0000
0010
0000
0000
1000
0000
0000
0001
0000
,  // measure 73
1001
0000
0000
0110
0000
0000
1010
0000
0000
0000
0100
0010
0001
1000
0100
1000
,  // measure 74
0100
0010
0001
0010
0001
0000
1000
0100
0010
0000
0000
1010
0000
0000
0101
0000
,  // measure 75
0101
0000
0000
1010
0000
1000
0100
0010
,  // measure 76
0001
0000
0000
1001
0000
0000
0110
0000
0000
0000
0000
0000
0220
0330
0220
0330
,  // measure 77
0110
0000
0000
1010
0000
0000
1001
0000
0000
0000
0010
0000
1000
0100
1000
0100
,  // measure 78
1000
0000
0000
0101
0000
1000
0010
0100
,  // measure 79
0001
0010
0100
1000
0001
0010
0001
1000
,  // measure 80
0100
1000
0100
0010
0100
1000
0100
0010
0001
0010
0100
0010
0001
0010
0100
0010
,  // measure 81
0001
0000
1000
0001
0000
0001
1000
0000
0100
0010
0000
0010
0100
0000
1000
0010
,  // measure 82
0000
0010
1000
0000
0001
0100
0000
0100
0001
0000
0000
0000
1000
0100
1000
0001
,  // measure 83
0020
0000
0000
0000
,  // measure 84
0030
0000
0000
0000
;

//---------------dance-single - ----------------
#NOTEDATA:;
#CHARTNAME:;
#STEPSTYPE:dance-single;
#DESCRIPTION:;
#CHARTSTYLE:;
#DIFFICULTY:Medium;
#METER:7;
#RADARVALUES:0.315153,0.509752,0.014279,0.314133,0.078533,309.000000,307.000000,2.000000,44.000000,0.000000,0.000000,0.000000,0.000000,0.000000,0.315153,0.509752,0.014279,0.314133,0.078533,309.000000,307.000000,2.000000,44.000000,0.000000,0.000000,0.000000,0.000000,0.000000;
#CREDIT:;
#NOTES:
0000
0000
0000
0000
,
0001
0000
0000
1000
0000
0000
0100
0000
0000
0000
0010
0000
0000
0000
0100
0000
,
0010
0000
0000
0010
0000
0000
1000
0000
0000
0000
1000
0000
1000
0000
1000
0000
,
0001
0000
0000
1000
0000
0000
0001
0100
,
0001
0000
0000
0100
0000
0000
0010
0000
0000
0000
0000
0000
0001
0000
0000
0000
,
1000
0000
0000
0000
0000
0000
0000
0000
0100
0000
0000
0010
0000
0000
1000
0000
,
0000
0001
0000
0000
1000
0000
0000
0001
0000
0000
1000
0000
0000
0000
0010
0000
,
0010
0100
1000
0001
0010
1000
0010
1000
,
0020
0000
0000
0030
,
0001
1000
0010
0100
,
0001
1000
0100
0010
,
0001
0001
1000
0100
,
0010
0001
0100
0010
,
0001
0001
1000
0100
,
0010
0001
0100
0010
,
0001
1000
0100
0100
,
0010
1000
0001
0010
,
2000
0000
0000
0000
,
3200
0000
0000
0320
0000
0000
0230
0000
,
2300
0000
0000
3002
0000
0000
0203
0000
,
0000
0000
0000
0300
,
0002
0000
0000
0000
,
2003
0000
0000
3020
0000
0000
0230
0000
,
0302
0000
0000
2003
0000
3020
0000
0230
,
0000
0302
0000
0000
0000
0000
0003
0000
,
2000
0000
0000
0000
,
3200
0000
0000
0320
0000
0000
0032
0000
,
0203
0000
0000
0320
0000
0000
2030
0000
,
0000
3002
0000
0000
1003
0000
0001
1000
,
1000
0000
0000
0000
0001
0000
1000
0000
0000
0000
0100
0000
0010
0000
0100
0010
,
0100
0000
0000
0001
0000
0000
0010
0000
1000
0000
0000
0000
0010
0000
0000
0000
,
0001
0100
0001
0100
0100
0001
0100
0001
,
2002
0000
0000
3003
,
2000
0000
0000
0000
,
0000
0000
3002
0000
,
0203
0000
0000
0000
,
0320
0000
0000
0000
,
2030
0000
0000
0000
,
0000
0000
3002
0000
,
0203
0000
0000
0000
,
0320
0000
2030
0000
,
3001
0000
0000
0000
,
0000
0000
0000
0000
,
0000
0000
0000
0000
,
0000
0000
0000
0000
,
0000
0000
0000
0000
,
0000
0000
0000
0000
,
0000
0000
0000
0000
,
0000
0000
0000
0000
,
0001
0000
0000
1000
0000
0000
0100
0000
0000
0000
0000
0000
0001
0000
1000
0000
,
0001
0000
0000
0100
0000
0000
0010
0000
0001
0000
1000
0000
0000
0010
0000
0000
,
0001
0000
0000
0100
0000
0000
1000
0000
0000
0010
0000
0000
0100
0000
0001
0000
,
0001
1000
1000
0000
0010
0000
0001
0100
,
0001
0000
0000
0010
0000
0000
1000
0000
0000
0001
0000
0000
0000
0010
1000
0000
,
0001
0000
0000
0100
0000
0000
0001
0000
0100
0000
0100
0000
0001
0000
0001
0000
,
0100
0001
1000
0001
0010
0010
0001
0001
,
0010
0000
0010
0000
0001
0000
0001
0000
2000
0000
3000
0020
0000
0030
0200
0000
,
0300
0000
0000
0000
,
0001
0000
1000
0000
0001
0000
2002
3003
,
0100
0010
1000
0001
,
1000
0100
0010
0001
,
0100
1000
0010
0001
,
1000
0100
1000
0001
,
0100
0010
1000
0100
,
1000
0001
0100
1000
,
0010
0000
0100
0000
0001
0100
0010
1000
,
0010
0001
0010
0100
1000
0001
1000
0010
,
1000
0100
0001
1000
,
0010
0001
0100
1000
,
0010
0100
0001
1000
,
0100
0010
0100
1000
,
0001
0010
1000
0100
,
0001
0000
0010
0000
0100
0000
1000
0010
,
0001
0000
0000
0100
0000
0000
0010
0000
0000
0000
0010
0000
1000
0000
0001
0000
,
0010
0000
1000
0000
0100
0000
0001
0000
0100
0000
0000
0001
0000
0000
1000
0000
,
0010
0000
0000
0100
0000
0001
0010
0100
,
1000
0000
0000
0001
0000
0000
0010
0000
0000
0000
0000
0000
0200
0300
0020
0030
,
0100
0000
0000
0001
0000
0000
1000
0000
0000
0000
0100
0000
0001
0000
1000
0000
,
0001
0000
0000
0010
0000
0001
0100
0010
,
1000
0100
0010
0001
1000
0100
1000
0001
,
0010
0001
0010
0100
1000
0001
1000
0010
,
1000
0001
0000
0001
0010
0000
0010
1000
,
0000
1000
0100
0000
0100
0000
0001
1000
,
0200
0000
0000
0000
,
0300
0000
0000
0000
;

//---------------dance-single - ----------------
#NOTEDATA:;
#CHARTNAME:;
#STEPSTYPE:dance-single;
#DESCRIPTION:;
#CHARTSTYLE:;
#DIFFICULTY:Easy;
#METER:4;
#RADARVALUES:0.173385,0.269869,0.000000,0.028558,0.003570,170.000000,170.000000,0.000000,4.000000,0.000000,0.000000,0.000000,0.000000,0.000000,0.173385,0.269869,0.000000,0.028558,0.003570,170.000000,170.000000,0.000000,4.000000,0.000000,0.000000,0.000000,0.000000,0.000000;
#CREDIT:;
#NOTES:
0000
0000
0000
0000
,
0010
0000
0000
0100
0000
0000
0000
0100
,
0000
0000
0000
1000
0000
0000
0000
0000
,
0010
0000
0000
1000
0000
0000
0000
0000
,
0010
0000
0000
0001
0000
0000
0000
0000
,
1000
0000
0000
0000
0100
0000
0000
1000
,
0000
0000
0010
0000
0000
1000
0000
0000
,
0001
1000
0001
0010
,
0001
0000
0000
0000
,
0010
0000
0001
0000
,
0010
0000
0100
0000
,
0010
0000
1000
0000
,
0001
0000
0100
0000
,
0010
0000
1000
0000
,
0001
0000
0100
0000
,
0010
0000
0100
0000
,
0001
0000
0010
0000
,
1000
0000
0000
0000
,
0100
0000
0000
0010
0000
0000
0001
0000
,
1000
0000
0000
0010
0000
0000
0100
0000
,
0000
0000
0000
0000
,
0010
0000
0000
0000
,
1000
0000
0000
0001
0000
0000
0100
0000
,
0010
0000
0000
1000
0000
0001
0000
0100
,
0000
0010
0000
0000
0000
0000
0000
0000
,
0001
0000
0000
0000
,
1000
0000
0000
0010
0000
0000
0100
0000
,
0001
0000
0000
1000
0000
0000
0010
0000
,
0000
0100
0000
0000
1000
0000
0010
0000
,
1000
0000
0010
0000
0000
0100
0000
0000
,
0100
0000
0000
0001
0000
0000
0010
0000
,
0010
1000
0001
0100
,
0020
0000
0000
0030
,
1000
0000
0000
0000
,
0000
0000
0010
0000
,
0100
0000
0000
0000
,
0001
0000
0000
0000
,
1000
0000
0000
0000
,
0000
0000
0010
0000
,
0100
0000
0000
0000
,
0001
0000
1000
0000
,
0010
0000
0000
0000
,
0000
0000
0000
0000
,
0000
0000
0000
0000
,
0000
0000
0000
0000
,
0000
0000
0000
0000
,
0000
0000
0000
0000
,
0000
0000
0000
0000
,
0000
0000
0000
0000
,
0010
0000
0000
0100
0000
0000
1000
0000
,
0010
0000
0000
0001
0000
1000
0000
0000
,
0010
0000
0000
1000
0000
0000
0100
0000
,
0010
1000
0001
1000
,
0010
0000
0000
1000
0000
0000
0000
1000
,
0010
0000
0100
0010
,
0100
1000
0001
0010
,
0001
0010
0200
0000
,
0300
0000
0000
0000
,
0000
0000
0000
0000
,
0100
0000
1000
0000
,
1000
0000
0001
0000
,
0100
0000
0001
0000
,
1000
0000
1000
0000
,
0100
0000
1000
0000
,
1000
0000
0100
0000
,
0001
0000
0010
0001
,
0001
0001
1000
1000
,
1000
0000
0010
0000
,
0001
0000
0100
0000
,
0001
0000
0010
0000
,
0100
0000
0100
0000
,
0010
0000
1000
0000
,
0010
0000
0000
0000
0100
0000
0000
0001
,
0000
0000
0000
0100
0000
0000
0000
0000
0000
0000
0001
0000
0000
0000
0010
0000
,
0000
1000
0000
0010
0000
0000
0000
0000
,
0001
0000
0000
0100
0000
0010
0000
0100
,
0000
0000
0000
0001
0000
0000
0002
0000
,
0003
0000
0000
1000
0000
0000
0010
0000
,
0010
0000
0000
0001
0000
0000
0100
0000
,
1000
0001
1000
1000
,
0001
0001
1000
1000
,
1000
0000
0001
0001
,
0000
0100
0100
0010
,
0200
0000
0000
0000
,
0300
0000
0000
0000
;
