#VERSION:0.83;
#TITLE:ヒカリノブレスレット;
#SUBTITLE:;
#ARTIST:小野秀幸 feat. Jimmy Weckl;
#TITLETRANSLIT:Hikarinoburesuretto;
#SUBTITLETRANSLIT:;
#ARTISTTRANSLIT:Hideyuki Ono feat. Jimmy Weckl;
#GENRE:;
#ORIGIN:;
#CREDIT:;
#BANNER:Hikarinoburesuretto.png;
#BACKGROUND:Hikarinoburesuretto-BG.png;
#PREVIEWVID:;
#JACKET:Hikarinoburesuretto-Jacket.png;
#CDIMAGE:;
#DISCIMAGE:;
#LYRICSPATH:;
#CDTITLE:;
#MUSIC:Hikarinoburesuretto.ogg;
#OFFSET:-2.488996;
#SAMPLESTART:71.821999;
#SAMPLELENGTH:12.000000;
#SELECTABLE:YES;
#BPMS:0.000=180.000;
#STOPS:;
#DELAYS:;
#WARPS:;
#TIMESIGNATURES:0.000=4=4;
#TICKCOUNTS:0.000=4;
#COMBOS:0.000=1;
#SPEEDS:0.000=1.000=0.000=0;
#SCROLLS:0.000=1.000;
#FAKES:;
#LABELS:0.000=Song Start;
#BGCHANGES:;
#KEYSOUNDS:;
#ATTACKS:
;

//---------------dance-single - ----------------
#NOTEDATA:;
#CHARTNAME:;
#STEPSTYPE:dance-single;
#DESCRIPTION:;
#CHARTSTYLE:;
#DIFFICULTY:Hard;
#METER:8;
#RADARVALUES:0.418357,0.536214,0.065078,0.412159,0.007231,405.000000,396.000000,9.000000,57.000000,0.000000,0.000000,0.000000,0.000000,0.000000,0.418357,0.536214,0.065078,0.412159,0.007231,405.000000,396.000000,9.000000,57.000000,0.000000,0.000000,0.000000,0.000000,0.000000;
#CREDIT:;
#NOTES:
1000
0000
0100
1000
0000
0010
0100
0010
,
0001
0000
0100
1000
0000
0001
0010
0100
,
1000
0000
0001
0010
0000
0100
1000
0001
,
1000
0010
0100
0001
0000
0000
1000
0000
,
0010
0000
0100
0010
0000
0010
1000
0001
,
0100
0000
0010
0001
0000
1000
0100
0010
,
0100
0000
0010
1000
0000
0001
0100
0010
,
1010
0000
0110
0000
0101
0000
0010
0100
,
0001
0000
0010
0001
0000
0100
0010
0100
,
1000
0000
0010
0001
0000
1000
0100
0010
,
0001
0000
1000
0100
0000
0010
0001
1000
,
0001
0100
0010
1000
0000
0000
0001
0000
,
0100
0000
0010
0100
0000
0100
0001
1000
,
0010
0000
0100
1000
0000
0001
0010
0100
,
0010
0000
0100
0001
0000
1000
0010
0100
,
0101
0110
1010
0100
,
0010
1000
0001
0100
,
0010
0100
0001
1000
,
0100
1000
0001
0010
,
0001
0000
0100
0000
0010
0000
0100
0010
,
0100
0000
1000
0000
0100
0000
0010
0002
,
0000
0000
1003
0100
0010
0100
1000
0020
,
0000
0000
0130
0000
0010
0100
1000
0002
,
0000
0000
0103
0020
0000
0000
1030
0100
,
0010
0000
1000
0000
0001
0000
0100
0020
,
0000
0000
1030
0010
0100
0001
1000
0200
,
0000
0301
0020
1000
,
0230
0000
0000
0301
0010
0000
0010
0100
,
0010
0000
1000
0000
0001
0000
0100
0002
,
0000
0000
1003
0010
0100
0010
1000
0200
,
0000
0000
0310
0000
0010
0100
0010
0002
,
1000
0000
0100
2003
0000
0000
3010
0100
,
0010
0000
1000
0000
0001
0000
0100
2000
,
0000
0000
3001
0100
0010
0100
0001
0020
,
0100
1000
0230
0001
,
0302
0000
1000
2003
0010
0000
3001
0000
,
1000
0010
0100
0010
,
0001
0000
1000
0001
0000
0100
0000
0020
,
0000
1030
0002
0000
,
0203
0000
0320
0000
,
1030
0000
0100
0000
0010
0100
0000
0100
,
0001
0000
0010
1000
0000
0200
0000
0000
,
0301
0000
0010
0100
2000
0000
0000
0000
,
3020
0000
0230
0000
,
0302
0000
0000
0000
0000
1003
0000
0020
,
0000
0000
1030
0100
0000
0100
0000
0002
,
0000
0000
2003
0000
,
3020
0000
0000
0230
0000
0000
0310
0001
,
0010
0000
0200
0000
0000
0310
0000
2000
,
0000
0000
3001
0000
0010
0000
0100
0010
,
0001
0100
0010
1000
,
0100
0000
1000
0000
0001
0010
0100
0010
,
0001
0000
1000
0100
0000
0010
0000
0100
,
0000
0001
0000
1000
0000
0010
0000
0000
,
0100
0000
0010
0100
0000
0001
0000
1000
,
0000
0200
0000
0000
0000
0000
0300
0000
,
0010
0000
0010
1000
0000
0001
0000
0100
,
0000
0000
0010
0001
0000
1000
0000
0000
,
0010
0000
0000
0000
0100
0000
1000
0100
0010
0000
0000
0000
0010
0000
0000
0000
,
0200
0000
0302
0000
,
1003
0000
0010
0100
0000
0001
0000
1000
,
0000
0010
0000
0100
0000
0001
0000
0000
,
0100
0000
0010
0001
0000
1000
0000
0200
,
0000
0000
0000
0320
0000
0000
0000
0030
,
1000
0000
0001
1000
0000
0010
0000
0100
,
0000
0000
0001
0010
0100
0000
0010
2000
,
0000
0000
0000
0000
,
0000
0000
0000
3000
,
0020
0000
0000
0000
0000
0000
0130
0010
,
0200
0000
0000
0000
0301
1000
0010
0002
,
0000
0000
0000
0000
,
0000
0000
0000
0003
,
2000
0000
0000
0000
0000
3010
1000
0002
,
0000
0000
0000
0000
0013
0100
0001
0020
,
0000
0000
0000
0000
,
0000
0000
0000
0030
,
0002
0000
0000
0000
0000
1003
0010
0200
,
0000
0000
0000
0000
0310
0001
0100
2000
,
0000
0000
0000
0000
,
0000
0000
0000
0000
0000
0000
0000
3000
,
0200
0000
0000
0000
0000
0310
1000
0002
,
0000
0000
0000
0000
0103
0010
0001
0020
,
0000
0000
0000
0000
,
1030
0000
0001
0000
1000
0100
0010
0100
,
1000
0000
0001
0010
0000
0100
0000
0010
,
0000
1000
0000
0001
0000
0100
0000
0000
,
0010
0000
0100
0010
0000
1000
0000
0001
,
0000
0020
0000
0000
0000
0000
0031
0000
,
0100
0000
0100
0001
0000
1000
0000
0010
,
0000
0000
0100
1000
0000
0001
0000
0000
,
0100
0000
0000
0000
0010
0000
0001
0010
0100
0000
0000
0000
0100
0000
0000
0000
,
0020
0000
2030
0000
,
3001
0000
0100
0010
0000
1000
0000
0001
,
0000
0100
0000
0010
0000
1000
0000
0000
,
0010
0000
0100
1000
0000
0001
0000
0020
,
0000
0000
0000
0230
0000
0000
0000
0300
,
0001
0000
1000
0001
0000
0100
0000
0010
,
0000
0000
1000
0100
0010
0000
0100
0002
,
0000
0003
0000
1001
0000
0000
1010
1010
;

//---------------dance-single - ----------------
#NOTEDATA:;
#CHARTNAME:;
#STEPSTYPE:dance-single;
#DESCRIPTION:;
#CHARTSTYLE:;
#DIFFICULTY:Medium;
#METER:6;
#RADARVALUES:0.305762,0.428971,0.050616,0.390467,0.000000,296.000000,289.000000,7.000000,54.000000,0.000000,0.000000,0.000000,0.000000,0.000000,0.305762,0.428971,0.050616,0.390467,0.000000,296.000000,289.000000,7.000000,54.000000,0.000000,0.000000,0.000000,0.000000,0.000000;
#CREDIT:;
#NOTES:
0010
0001
0100
0001
,
1000
0001
1000
0100
,
0010
1000
0100
0010
,
0010
0001
1000
0010
,
0100
0001
1000
0010
,
0001
0100
1000
0001
,
0001
0100
0010
0001
,
0101
0101
1010
0100
,
1000
0100
0010
0100
,
0010
0100
1000
0001
,
1000
0010
0001
1000
,
1000
0100
0010
1000
,
0001
0100
0001
1000
,
0100
0001
0010
0100
,
0100
0001
1000
0100
,
1010
0101
1010
0001
,
0100
0010
1000
0001
,
0100
0001
1000
0010
,
0001
0010
1000
0100
,
1000
0001
0100
0001
,
0001
0000
0010
0000
0001
0000
0100
2000
,
0000
0000
3000
0000
0100
0000
0010
0200
,
0000
0000
0301
0000
0100
0000
0010
2000
,
0000
0000
3001
0200
0000
0000
0310
0000
,
0100
0000
0010
0000
1000
0000
0001
0200
,
0000
0000
0310
0000
0001
0000
0010
0002
,
0000
1003
0200
0000
,
0000
0000
0300
0100
,
0100
0000
0010
0000
1000
0000
0001
2000
,
0000
0000
3010
0000
0001
0000
0010
0002
,
0000
0000
0003
0000
0100
0000
0100
2000
,
0000
0000
0000
3020
0000
0000
0030
0000
,
0100
0010
1000
0020
,
0000
1030
0100
0200
,
0000
0000
0302
0000
,
2003
0000
0000
3000
,
0010
0100
0001
0100
,
1000
0010
0100
0200
,
0000
0300
2000
0000
,
3002
0000
0203
0000
,
0310
0001
0100
0001
,
1000
0100
0002
0000
,
1003
0100
0020
0000
,
0230
0000
0302
0000
,
2003
0000
0000
0000
0000
3000
0200
0000
,
0000
0310
0001
2000
,
0000
0000
3020
0000
,
0230
0000
0000
0000
0000
0000
0000
0300
,
0100
0000
0002
0000
0000
0003
0000
0020
,
0000
1030
0100
0001
,
1000
0001
0100
0010
,
0001
0010
1000
0001
,
1000
0010
0001
0100
,
1000
0010
0100
1000
,
0001
0100
0001
1000
,
0002
0000
0000
0003
,
0100
0100
0010
1000
,
0001
0100
1000
0010
,
0100
0001
0100
0100
,
0002
0000
2003
0000
,
3000
0100
0001
1000
,
0010
0100
0001
1000
,
0001
0100
1000
0002
,
0000
0000
0000
0203
0000
0000
0000
0300
,
0010
1000
0001
0100
,
0001
0000
1000
0000
0001
0000
0100
0020
,
0000
0000
0000
0000
,
0000
0000
0000
0030
,
0200
0000
0000
0300
,
0002
0000
0003
2000
,
0000
0000
0000
0000
,
0000
0000
0000
3000
,
0020
0000
0000
0000
0000
0030
0000
2000
,
0000
0000
3000
0200
,
0000
0000
0000
0000
,
0000
0000
0000
0300
,
2000
0000
0000
0000
0000
3000
0000
0002
,
0000
0000
0003
0020
,
0000
0000
0000
0000
,
0000
0000
0000
0000
0000
0000
0000
0030
,
0002
0000
0000
0000
0000
0003
0000
2000
,
0000
0000
3000
0200
,
0000
0000
0000
0000
,
0310
1000
0010
0100
,
0010
1000
0001
0100
,
0010
1000
0100
0001
,
0100
0001
0010
1000
,
0200
0000
0000
1300
,
0001
0001
1000
0010
,
0100
0001
0010
1000
,
0001
0100
0001
0001
,
0200
0000
0320
0000
,
0030
0001
0100
0010
,
1000
0001
0010
1000
,
0100
0001
0100
0200
,
0000
0000
0000
0302
0000
0000
0000
0003
,
1000
0010
0100
1000
,
0001
0000
0010
0000
0100
0000
0001
2000
,
0000
3000
0000
1010
0000
0000
0100
0010
;

//---------------dance-single - ----------------
#NOTEDATA:;
#CHARTNAME:;
#STEPSTYPE:dance-single;
#DESCRIPTION:;
#CHARTSTYLE:;
#DIFFICULTY:Easy;
#METER:2;
#RADARVALUES:0.168376,0.178738,0.000000,0.195233,0.000000,163.000000,163.000000,0.000000,27.000000,0.000000,0.000000,0.000000,0.000000,0.000000,0.168376,0.178738,0.000000,0.195233,0.000000,163.000000,163.000000,0.000000,27.000000,0.000000,0.000000,0.000000,0.000000,0.000000;
#CREDIT:;
#NOTES:
// measure 0
0001
0000
1000
0000
,  // measure 1
0100
0000
0100
0000
,  // measure 2
0001
0000
1000
0000
,  // measure 3
0001
0000
0100
0000
,  // measure 4
1000
0000
0100
0000
,  // measure 5
0010
0000
0100
0000
,  // measure 6
0010
0000
0001
0000
,  // measure 7
0010
0000
0100
0000
,  // measure 8
0100
0000
0001
0000
,  // measure 9
0001
0000
0100
0000
,  // measure 10
0100
0000
0010
0000
,  // measure 11
0100
0000
0001
0000
,  // measure 12
0010
0000
0010
0000
,  // measure 13
1000
0000
0001
0000
,  // measure 14
1000
0000
0100
0000
,  // measure 15
0001
0000
0100
0000
,  // measure 16
1000
0000
0100
0000
,  // measure 17
1000
0000
0100
0000
,  // measure 18
0010
0000
0100
0000
,  // measure 19
0100
0000
1000
0000
,  // measure 20
0010
0000
0010
0100
,  // measure 21
0000
0000
1000
2000
,  // measure 22
0000
3000
1000
0000
,  // measure 23
0100
1000
0000
0001
,  // measure 24
0000
0001
0000
1000
,  // measure 25
0000
0001
0000
0020
,  // measure 26
0000
0030
2000
0000
,  // measure 27
0000
0000
3000
1000
,  // measure 28
0000
0001
0000
0100
,  // measure 29
0000
0001
0000
0020
,  // measure 30
0000
0030
1000
0100
,  // measure 31
0000
0002
0000
0003
,  // measure 32
1000
0000
0100
0001
,  // measure 33
0000
0100
0000
2000
,  // measure 34
0000
0000
3010
0000
,  // measure 35
0200
0000
0000
0300
,  // measure 36
0001
0000
0010
0000
,  // measure 37
0100
0000
1000
0001
,  // measure 38
0000
0000
0200
0000
,  // measure 39
0310
0000
2000
0000
,  // measure 40
3000
0010
0000
0010
,  // measure 41
0000
1000
0010
0000
,  // measure 42
0100
0000
0002
0000
,  // measure 43
1003
0000
0020
0000
,  // measure 44
0130
0000
0000
2000
,  // measure 45
0000
3001
0000
0200
,  // measure 46
0000
0000
0301
0000
,  // measure 47
2000
0000
0000
0000
0000
0000
0000
3000
,  // measure 48
0000
0010
0000
0002
,  // measure 49
0000
0003
1000
0000
,  // measure 50
0100
0000
1000
0000
,  // measure 51
0010
0000
0100
0000
,  // measure 52
0100
0000
0010
0000
,  // measure 53
0100
0000
1000
0000
,  // measure 54
0010
0000
0010
0000
,  // measure 55
0020
0000
0000
0030
,  // measure 56
1000
0000
0001
0000
,  // measure 57
0010
0000
0100
0000
,  // measure 58
1000
0000
1000
0000
,  // measure 59
0020
0000
0000
0000
,  // measure 60
0030
1000
0000
0100
,  // measure 61
0000
1000
0000
0100
,  // measure 62
0000
1000
0000
0020
,  // measure 63
0000
0000
0000
0000
,  // measure 64
0030
0100
0000
1000
,  // measure 65
0000
0100
0000
0002
,  // measure 66
0000
0000
0000
0000
,  // measure 67
0000
0000
0000
0003
,  // measure 68
1000
0000
0000
0000
,  // measure 69
0010
0000
0000
0200
,  // measure 70
0000
0000
0000
0000
,  // measure 71
0000
0000
0000
0300
,  // measure 72
0001
0000
0000
0100
,  // measure 73
0000
0000
0000
2000
,  // measure 74
0000
0000
0000
0000
,  // measure 75
0000
0000
0000
3000
,  // measure 76
0100
0000
0000
0010
,  // measure 77
0000
0000
0000
0002
,  // measure 78
0000
0000
0000
0000
,  // measure 79
0000
0000
0000
0000
0000
0000
0000
0003
,  // measure 80
0010
0000
0000
0100
,  // measure 81
0000
0000
0000
2000
,  // measure 82
0000
0000
0000
0000
,  // measure 83
3000
0100
0000
1000
,  // measure 84
0000
0100
0000
1000
,  // measure 85
0000
0100
0000
0010
,  // measure 86
0000
0010
0000
0100
,  // measure 87
2000
0000
0000
3000
,  // measure 88
0010
0000
0100
0000
,  // measure 89
1000
0000
0001
0000
,  // measure 90
0010
0000
0010
0000
,  // measure 91
2000
0000
0000
0000
,  // measure 92
3000
0010
0000
0001
,  // measure 93
0000
0010
0000
0100
,  // measure 94
0000
0010
0000
2000
,  // measure 95
0000
0000
0000
0000
,  // measure 96
3000
0001
0000
0100
,  // measure 97
0000
0001
0000
0200
,  // measure 98
0000
0300
0000
0001
0000
0000
1000
0001
;
