#VERSION:0.83;
#TITLE:GO Back 2 RAVE;
#SUBTITLE:;
#ARTIST:DOT96;
#TITLETRANSLIT:;
#SUBTITLETRANSLIT:;
#ARTISTTRANSLIT:;
#GENRE:;
#ORIGIN:;
#CREDIT:;
#BANNER:GO Back 2 RAVE.png;
#BACKGROUND:GO Back 2 RAVE-BG.png;
#PREVIEWVID:;
#JACKET:GO Back 2 RAVE-Jacket.png;
#CDIMAGE:;
#DISCIMAGE:;
#LYRICSPATH:;
#CDTITLE:;
#MUSIC:GO Back 2 RAVE.ogg;
#OFFSET:-1.691000;
#SAMPLESTART:29.636000;
#SAMPLELENGTH:24.000000;
#SELECTABLE:YES;
#BPMS:0.000=146.000;
#STOPS:;
#DELAYS:;
#WARPS:;
#TIMESIGNATURES:0.000=4=4;
#TICKCOUNTS:0.000=4;
#COMBOS:0.000=1;
#SPEEDS:0.000=1.000=0.000=0;
#SCROLLS:0.000=1.000;
#FAKES:;
#LABELS:0.000=Song Start;
#BGCHANGES:-0.500=GO Back 2 RAVE.avi=1.000=1=0=1===CrossFade==,
99999=-nosongbg-=1.000=0=0=0 // don't automatically add -songbackground-
;
#KEYSOUNDS:;
#ATTACKS:
;

//---------------dance-single - ----------------
#NOTEDATA:;
#CHARTNAME:;
#STEPSTYPE:dance-single;
#DESCRIPTION:;
#CHARTSTYLE:;
#DIFFICULTY:Hard;
#METER:10;
#RADARVALUES:0.747896,0.835827,0.987042,0.623811,0.608018,663.000000,538.000000,125.000000,79.000000,0.000000,0.000000,0.000000,0.000000,0.000000,0.747896,0.835827,0.987042,0.623811,0.608018,663.000000,538.000000,125.000000,79.000000,0.000000,0.000000,0.000000,0.000000,0.000000;
#CREDIT:;
#DISPLAYBPM:0.000000;
#NOTES:
// measure 0
1000
0000
0000
0001
0000
0000
0010
0100
0010
0001
0010
0000
1000
0000
1000
0000
,  // measure 1
1000
0000
0000
0001
0000
0000
1000
0100
0010
0100
1000
0000
0001
0000
0001
0000
,  // measure 2
0001
0000
0000
1000
0000
0000
0100
0010
0001
0010
0100
0000
0010
0000
0010
0000
,  // measure 3
0010
0000
0000
0100
0000
0000
0010
1000
0010
0001
0010
0000
0100
0000
0100
0000
,  // measure 4
0110
0000
0000
0010
0000
0000
1000
0100
0010
0001
1000
0000
0010
0000
0010
0000
,  // measure 5
1010
0000
0000
0100
0000
0000
0001
0010
0100
1000
0001
0000
0010
0000
0010
0000
,  // measure 6
0011
0000
0001
1000
0000
1000
0010
0000
0010
0100
0000
0000
0100
0001
0000
0000
,  // measure 7
2002
0000
0000
3003
,  // measure 8
1000
0000
0001
0000
1000
0100
0010
0001
0000
0001
0010
0100
1000
0000
0000
0000
,  // measure 9
1000
0000
1000
0001
0000
0010
0000
0000
0100
1000
0100
1000
0000
0010
0001
0010
,  // measure 10
0001
0000
1000
0000
1000
0010
0000
0010
0100
0000
0000
0000
0110
0000
0000
0000
,  // measure 11
0100
1000
0100
1000
0010
0001
0010
0001
1000
0010
1000
0010
0100
0001
0100
0001
,  // measure 12
0000
0000
1000
0000
1001
0001
0100
0001
0100
0010
1000
0010
1000
0000
0000
0000
,  // measure 13
1000
0000
0000
1000
0001
0000
0010
0000
0100
1000
0100
0010
0000
0100
0010
0001
,  // measure 14
0010
0000
1100
0000
0000
1010
0000
0101
0000
0000
0101
0000
0001
0000
0000
0000
,  // measure 15
1010
0000
0000
1000
0010
0000
0100
0000
0001
0100
0001
0100
0010
1000
0010
1000
,  // measure 16
0002
0000
2003
0000
3020
0000
0230
0300
,  // measure 17
0110
0000
0101
0000
1010
0000
2002
3003
,  // measure 18
0101
0000
1100
0000
0110
0000
2020
3030
,  // measure 19
1100
0000
1010
0000
1001
0000
2002
3003
,  // measure 20
0110
0000
0000
0000
1000
0100
0010
0100
1000
0000
0000
0000
2002
0000
3003
0000
,  // measure 21
1100
0000
0110
0000
0011
0000
2002
3003
,  // measure 22
0110
0000
1010
0000
0101
0000
0220
0330
,  // measure 23
1010
0000
0101
0000
1001
0000
0220
0330
,  // measure 24
1001
0000
0000
0000
0001
0010
0100
1000
0001
0000
0000
0000
2002
0000
3003
0000
,  // measure 25
0002
0023
0000
0230
2300
3000
1001
0000
,  // measure 26
2000
3020
0000
0230
0302
0003
1001
0000
,  // measure 27
0020
0230
0000
0302
2003
3000
1001
0000
,  // measure 28
0020
0000
0230
0000
0302
0000
2003
3000
,  // measure 29
1010
0000
0000
0110
0000
0000
0101
0000
0000
1001
0000
0000
0110
0000
0000
0000
,  // measure 30
1100
0000
0000
0110
0000
0000
0011
0000
0000
0110
0000
0000
1100
0000
0000
0000
,  // measure 31
1010
0000
0000
0101
0000
0000
0110
0000
0000
1001
0000
0000
0110
0000
0000
0000
,  // measure 32
1000
0100
1000
0001
0010
0001
1001
0000
,  // measure 33
0100
0000
0010
0000
0001
0000
0010
0000
0100
0000
0000
0100
0000
0000
0100
0000
,  // measure 34
0000
1000
0100
0000
0000
0100
0000
0000
0001
0000
0000
0010
0000
0000
0010
0100
,  // measure 35
1000
0000
1000
0000
0010
0000
0100
0000
0001
0000
0000
0010
0000
0000
0100
0000
,  // measure 36
0000
0000
0000
0010
0000
0000
1000
0000
0000
0000
0000
0000
0000
0000
0000
1000
0000
0000
0000
0000
0000
0000
0000
0000
0001
0000
0000
0000
0010
0000
0000
0000
0100
0000
0000
0000
1000
0000
0000
0000
0100
0000
0000
0000
0010
0000
0000
0000
,  // measure 37
0001
0000
0100
1000
0100
0000
0001
0010
0001
0000
0100
0010
0100
0000
1000
0010
,  // measure 38
1000
0000
0001
0100
0001
0000
0100
0010
0100
0000
0001
1000
0001
0000
0010
1000
,  // measure 39
0010
0000
1000
0100
0010
0000
0001
0010
0100
0000
1000
0100
1000
0000
0001
0010
,  // measure 40
0002
0000
0000
0003
,  // measure 41
1000
0000
0000
0001
0000
0000
0001
0010
0100
0010
0001
0000
1010
0000
0101
0000
,  // measure 42
0100
0000
0000
0010
0000
0000
0100
1000
0100
0010
0100
0000
0110
0000
1001
0000
,  // measure 43
1000
0000
0000
0010
0000
0000
0001
0010
1000
0010
0001
0000
1100
0000
0011
0000
,  // measure 44
0100
0000
0000
0010
0000
0000
0100
1000
0100
0001
0100
0000
0101
0000
1010
0000
,  // measure 45
0001
0000
0000
0100
0000
0000
0010
0100
1000
0001
0010
0000
1010
0000
0011
0000
,  // measure 46
0010
0000
0000
0100
0000
0000
0010
1000
0001
0100
0010
0000
1100
0000
0110
0000
,  // measure 47
0010
0000
0000
0100
0000
0000
0001
1000
0001
0100
0001
0000
0110
0000
1010
0000
,  // measure 48
0010
0000
0000
0100
0000
0000
1000
0010
0001
0100
1000
0000
0011
0000
0110
0000
,  // measure 49
0010
0100
0010
0100
0000
1000
0010
1000
0001
0100
0001
0000
1001
0000
1001
0000
,  // measure 50
1000
0100
1000
0100
0000
0001
0010
0001
1000
0010
1000
0000
0100
0010
0100
0000
,  // measure 51
0001
0010
0001
0000
0010
0100
0010
0000
1000
0100
1000
0000
0011
0000
0011
0000
,  // measure 52
1000
0100
0010
0000
0100
0010
0001
0000
1000
0010
0001
1000
0100
0000
0100
0000
,  // measure 53
0001
0010
0001
0000
1000
0100
1000
0000
0010
0100
0010
0000
0010
0000
0010
0000
,  // measure 54
1000
0010
0001
0000
1000
0100
0001
0000
0010
0100
0001
0000
0010
1000
0100
0000
,  // measure 55
0010
1000
0001
0000
0100
1000
0100
0000
0001
0010
0001
0000
1000
0000
0010
0000
,  // measure 56
0100
0001
0100
1000
0001
0010
0100
0001
,  // measure 57
1010
0000
0110
0000
0011
0000
2002
3003
,  // measure 58
1010
0000
0101
0000
1001
0000
0220
0330
,  // measure 59
1100
0000
0011
0000
0110
0000
2002
3003
,  // measure 60
1001
0000
0000
0000
1000
0100
0010
0001
0010
0000
0000
0000
0220
0000
0330
0000
,  // measure 61
1100
0000
1100
0000
1100
0000
2200
3300
,  // measure 62
0011
0000
0011
0000
0011
0000
0022
0033
,  // measure 63
0110
0000
0110
0000
0110
0000
0220
0330
,  // measure 64
1001
0000
0000
0000
1000
0001
1000
0001
1000
0000
0000
0000
2002
0000
3003
0000
,  // measure 65
0020
0230
0000
0302
2003
3000
1001
0000
,  // measure 66
2000
3020
0000
0230
0302
0003
0011
0000
,  // measure 67
0020
0032
0000
2003
3200
0300
1100
0000
,  // measure 68
0020
0000
0230
0000
0302
0000
2003
3000
,  // measure 69
1010
0000
0000
1010
0000
0000
0101
0000
0000
0101
0000
0000
2002
0000
3003
0000
,  // measure 70
1100
0000
0000
1100
0000
0000
0011
0000
0000
0011
0000
0000
0220
0000
0330
0000
,  // measure 71
1100
0000
0000
0110
0000
0000
0011
0000
0000
1001
0000
0000
0220
0000
0330
0000
,  // measure 72
1000
0100
0010
0001
0010
0100
2002
0000
,  // measure 73
3003
0000
0000
0000
;

//---------------dance-single - ----------------
#NOTEDATA:;
#CHARTNAME:;
#STEPSTYPE:dance-single;
#DESCRIPTION:;
#CHARTSTYLE:;
#DIFFICULTY:Medium;
#METER:6;
#RADARVALUES:0.350823,0.432324,0.110549,0.394817,0.000000,311.000000,297.000000,14.000000,50.000000,0.000000,0.000000,0.000000,0.000000,0.000000,0.350823,0.432324,0.110549,0.394817,0.000000,311.000000,297.000000,14.000000,50.000000,0.000000,0.000000,0.000000,0.000000,0.000000;
#CREDIT:;
#NOTES:
1000
0001
0010
1000
,
1000
0001
0100
0001
,
0001
1000
0001
0100
,
0100
0010
1000
0010
,
0110
0100
0100
0100
,
1100
0010
0010
0100
,
0101
0000
1000
0100
0100
0010
0010
0001
,
2002
0000
0000
3003
,
1000
1000
0001
0010
,
1000
0001
0010
1000
,
0001
1000
0100
0100
,
0010
1000
0001
0010
,
0001
0100
1000
0000
0001
0000
1000
0000
,
1000
0001
0010
0100
,
0001
0000
1000
0010
0000
0000
0001
0000
,
0100
0000
1000
0010
0001
0000
0010
0000
,
0002
0000
2003
0000
3200
0000
0320
0030
,
0100
0000
0010
0000
0100
0000
2000
3000
,
0001
1000
0100
1000
,
0010
0000
0100
0000
0001
0000
2000
3000
,
0100
0000
1000
0000
0010
0000
0002
0003
,
0010
0000
0010
0000
0001
0000
2000
3000
,
0010
0000
0100
0000
0010
0000
0200
0300
,
1000
0000
0010
0000
0001
0000
0020
0030
,
1000
0000
0001
0000
1000
0000
0002
0003
,
0200
0320
0030
1001
,
2000
0000
3020
0000
0000
0030
1001
0000
,
0020
0000
0000
0032
0000
0003
1001
0000
,
0200
0000
0320
0000
0032
0000
2003
3000
,
1000
0000
0100
0010
0000
1000
0100
0000
,
0010
0000
0010
0001
0000
0100
1000
0000
,
0100
0000
0010
0100
0000
0001
0010
0000
,
1000
0010
1000
0001
0100
0001
1000
0000
,
0010
0000
0001
0000
0010
0000
0010
0010
,
0000
1000
0000
0010
0001
0000
0100
0100
,
1000
1000
0100
0010
0001
0000
0100
0000
,
0000
0100
0000
1000
0001
0010
1000
0100
,
0001
1000
0100
0010
,
0001
0010
1000
0100
,
0010
0100
0001
1000
,
0002
0000
0000
0003
,
1000
0001
0010
1000
,
0010
0100
1000
0100
,
1000
0100
0001
1000
,
0010
0100
1000
0001
,
0010
0100
1000
0100
,
0100
0010
0001
1000
,
0100
0010
0001
0010
,
0100
0010
0001
0100
,
0100
0010
1000
0001
,
1000
0010
0001
0010
,
0001
0100
1000
0001
,
1000
0010
1000
0010
,
0001
1000
0100
0100
,
1000
1000
0100
0100
,
0100
0010
0001
1000
,
0010
0010
0001
0010
,
1000
0000
0100
0000
0100
0000
0002
0003
,
1000
0000
0010
0000
0001
0000
0200
0300
,
1000
0000
0001
0000
0010
0000
0002
0003
,
1000
0000
1000
0000
0001
0000
0200
0300
,
0010
0000
1000
0000
0010
0000
2000
3000
,
0001
0000
0100
0000
0001
0000
0200
0300
,
0010
0000
0100
0000
0010
0000
0200
0300
,
1000
0000
1000
0000
0001
0000
2000
3000
,
0020
0000
0000
2030
0000
3000
1001
0000
,
0200
0000
0000
0302
0000
0003
0101
0000
,
0002
0000
0000
2003
0000
3000
1010
0000
,
0200
0000
0320
0000
0032
0000
2003
3000
,
1000
0000
0100
0000
0100
0000
2002
3003
,
1000
0000
0010
0000
0100
0000
0220
0330
,
1000
0000
0100
0000
0001
0000
0220
0330
,
1000
0100
0100
2002
,
3003
0000
0000
0000
;

//---------------dance-single - ----------------
#NOTEDATA:;
#CHARTNAME:;
#STEPSTYPE:dance-single;
#DESCRIPTION:;
#CHARTSTYLE:;
#DIFFICULTY:Easy;
#METER:3;
#RADARVALUES:0.197408,0.288216,0.102652,0.276372,0.000000,175.000000,162.000000,13.000000,35.000000,0.000000,0.000000,0.000000,0.000000,0.000000,0.197408,0.288216,0.102652,0.276372,0.000000,175.000000,162.000000,13.000000,35.000000,0.000000,0.000000,0.000000,0.000000,0.000000;
#CREDIT:;
#NOTES:
1000
0000
0100
0000
,
1000
0000
0001
0000
,
0010
0000
0010
0000
,
0001
0000
1000
0000
,
0101
0000
0001
0000
,
1001
0000
0100
0000
,
0011
1000
0001
0100
,
0020
0000
0000
0030
,
1000
0000
0010
0000
,
1000
0000
0100
0000
,
0010
0000
0001
0000
,
0100
0000
0010
0000
,
0010
1000
0000
1000
,
0000
0010
0000
0001
,
0000
1000
0000
0010
,
0000
1000
0010
0100
,
0020
0000
0000
0000
0000
0000
0000
0030
,
0001
0000
0000
0000
0000
0000
2000
3000
,
0010
0000
0000
0000
0000
0000
0020
0030
,
1000
0000
0000
0000
0000
0000
2000
3000
,
0001
0000
0000
0000
0000
0000
0020
0030
,
0100
0000
0000
0000
0000
0000
2000
3000
,
0100
0000
0000
0000
0000
0000
0002
0003
,
1000
0000
0000
0000
0000
0000
0200
0300
,
1000
0000
0000
0000
0000
0000
0020
0030
,
0200
0000
0300
1010
,
2000
0000
3000
1010
,
0002
0000
0000
0000
0000
0003
1010
0000
,
0200
0000
0000
0000
0000
0000
0000
0300
,
1000
0001
0100
0001
,
0100
0100
0010
1000
,
0001
0100
0001
0100
,
1000
1000
0001
1000
,
0100
0000
0100
0100
,
0000
0100
0010
0001
,
1000
0001
0010
0001
,
0000
1000
0010
1000
,
0010
0000
0001
0000
,
0010
0000
1000
0000
,
0100
0000
0010
0000
,
0020
0000
0000
0030
,
1000
0000
0100
0000
,
0100
0000
1000
0000
,
1000
0000
0010
0000
,
0100
0000
1000
0000
,
0100
0000
1000
0000
,
0001
0000
0010
0000
,
0001
0000
0010
0000
,
0001
0000
0010
0000
,
0001
0000
1000
0000
,
1000
0000
0010
0000
,
0010
0000
1000
0000
,
1000
0000
1000
0000
,
0010
0000
0001
0000
,
1000
0000
0001
0000
,
0001
0000
0010
0000
,
0100
0000
0010
0000
,
1000
0000
0000
0000
0000
0000
0020
0030
,
1000
0000
0000
0000
0000
0000
0002
0003
,
1000
0000
0000
0000
0000
0000
0020
0030
,
1000
0000
0000
0000
0000
0000
0002
0003
,
0100
0000
0000
0000
0000
0000
2000
3000
,
0010
0000
0000
0000
0000
0000
0002
0003
,
0100
0000
0000
0000
0000
0000
0002
0003
,
1000
0000
0000
0000
0000
0000
2000
3000
,
0200
0000
0000
0000
0000
0300
1010
0000
,
0002
0000
0000
0000
0000
0003
0011
0000
,
0020
0000
0000
0000
0000
0030
1100
0000
,
0200
0000
0000
0000
0000
0000
0000
0300
,
1000
0000
0000
0000
0001
0000
2020
3030
,
1000
0000
0000
0000
0001
0000
0202
0303
,
1000
0000
0000
0000
0010
0000
0202
0303
,
1000
0000
0001
2020
,
3030
0000
0000
0000
;
