#TITLE:GIGAHERTZ;
#SUBTITLE:;
#ARTIST:Snack X;
#TITLETRANSLIT:;
#SUBTITLETRANSLIT:;
#ARTISTTRANSLIT:;
#GENRE:;
#CREDIT:;
#BANNER:Gigahertz.png;
#BACKGROUND:Gigahertz-BG.png;
#LYRICSPATH:;
#CDTITLE:;
#MUSIC:Gigahertz.ogg;
#OFFSET:0.010000;
#SAMPLESTART:14.679000;
#SAMPLELENGTH:24.000000;
#SELECTABLE:YES;
#BPMS:0.000000=277.750000
;
#STOPS:
;
#BGCHANGES:;
#KEYSOUNDS:;
#ATTACKS:;

//---------------dance-single - ----------------
#NOTES:
     dance-single:
     :
     Hard:
     10:
     0.746418,0.943047,0.559475,0.227583,0.009483,551.000000,492.000000,59.000000,24.000000,0.000000,0.000000,0.746418,0.943047,0.559475,0.227583,0.009483,551.000000,492.000000,59.000000,24.000000,0.000000,0.000000:
// measure 0
0000
0000
0000
0000
,  // measure 1
1000
0100
0010
0100
1000
0100
0010
0001
,  // measure 2
0000
1000
0000
0010
0000
0000
0001
0000
,  // measure 3
0100
0000
0000
0100
0000
0000
0010
0000
,  // measure 4
0001
0000
0010
0000
0100
0000
1000
0100
,  // measure 5
0001
0000
0000
0010
0000
0000
0100
0000
,  // measure 6
0010
0000
0000
1000
0000
0000
0001
0000
,  // measure 7
0100
0000
0000
0010
0000
0000
1000
0000
,  // measure 8
0100
0010
0001
1000
,  // measure 9
1001
0000
0000
0001
0000
0000
1000
0000
,  // measure 10
0010
0000
0000
0010
0000
0000
1000
0000
,  // measure 11
0001
0010
0100
0010
,  // measure 12
0001
1000
0100
0010
,  // measure 13
0001
0000
1000
0100
1000
0100
1000
0100
,  // measure 14
0010
0001
0010
0001
0010
0001
0010
0001
,  // measure 15
2000
3002
0203
0320
,  // measure 16
0032
2003
3020
0230
,  // measure 17
0301
0010
0100
0010
0001
1000
0001
1000
,  // measure 18
0010
1000
0010
1000
0100
1000
0001
0010
,  // measure 19
0100
0010
0001
1000
0100
0010
0001
0010
,  // measure 20
0100
1000
0001
0010
0100
0010
0001
1000
,  // measure 21
0100
0010
0100
1000
0001
0010
0001
0010
,  // measure 22
0001
1000
0100
1000
0100
1000
0001
0100
,  // measure 23
0001
0100
0001
1000
0010
1000
0010
1000
,  // measure 24
0002
0000
2000
0000
,  // measure 25
3003
1000
0100
0010
,  // measure 26
0100
0001
0010
1000
,  // measure 27
0010
0100
0001
0010
,  // measure 28
0001
1000
0100
1000
,  // measure 29
1001
0001
0010
0011
,  // measure 30
0011
1000
0100
1100
,  // measure 31
1100
1010
1010
1001
,  // measure 32
1000
0000
0000
0100
0000
0000
0010
0000
0000
0001
0000
0000
0010
0000
0100
0000
0000
0000
0100
0000
0010
0000
0000
0000
,  // measure 33
1000
0000
0000
0010
0100
0000
0100
0000
,  // measure 34
0001
0000
0000
0001
1000
0000
1000
0000
,  // measure 35
0001
0000
0000
0010
0100
0000
0010
0000
,  // measure 36
0001
0000
0000
0010
0000
0000
1000
0000
,  // measure 37
0001
0000
0000
0001
1000
0000
1000
0000
,  // measure 38
0100
0020
0000
0000
0000
0000
1030
0000
,  // measure 39
0001
0000
0000
0010
0001
0000
1000
0000
,  // measure 40
0010
0000
0000
0100
0000
0000
0001
0000
,  // measure 41
0101
0000
0000
1001
0000
0000
1010
0000
,  // measure 42
0000
0110
0000
0000
0001
0010
0100
1000
,  // measure 43
0001
0000
0000
0101
0000
0000
1010
0000
,  // measure 44
0000
0110
0000
0000
0202
0000
0000
0303
,  // measure 45
0101
0000
0000
1010
0000
0000
0101
0000
,  // measure 46
0000
0110
0000
0000
1010
0000
0000
1100
,  // measure 47
0000
0000
1001
0000
0000
0101
0000
0000
,  // measure 48
0011
0000
0000
1001
0000
0000
1010
0000
,  // measure 49
1010
0000
0000
0000
,  // measure 50
0000
0000
0000
1000
0000
0000
0001
0000
,  // measure 51
0000
0010
0000
0000
0001
0000
0000
1000
,  // measure 52
0000
0000
0000
1000
0000
0000
0001
0000
,  // measure 53
0000
0010
0000
0000
0001
0000
0000
1000
,  // measure 54
0000
0000
0000
1000
0000
0000
0010
0000
,  // measure 55
0000
0100
0000
0000
0001
0000
0000
0010
,  // measure 56
0000
0000
0000
0100
0000
0000
0001
0000
,  // measure 57
0000
0010
0000
0000
0100
0000
0000
1000
,  // measure 58
0000
0000
0000
0001
0000
0000
1000
0000
,  // measure 59
1000
0100
0010
0001
,  // measure 60
0010
0100
1000
0001
,  // measure 61
0100
0010
1000
0001
,  // measure 62
1000
0100
0010
0100
,  // measure 63
1000
0001
0010
0100
,  // measure 64
0010
0001
1000
0010
,  // measure 65
0001
0010
0100
1000
0100
0010
0001
0010
,  // measure 66
0100
0000
0000
1100
0000
0000
0110
0000
,  // measure 67
0000
0011
0000
0000
0202
0000
0000
0303
,  // measure 68
0000
1010
0000
0000
0110
0000
0000
1010
,  // measure 69
0000
0000
0101
0000
0000
2002
0000
0000
,  // measure 70
3003
0110
0000
0000
0101
0000
0000
0011
,  // measure 71
0000
0000
1001
0000
0000
2020
0000
3030
,  // measure 72
0000
1010
0000
0000
0101
0000
0000
0011
,  // measure 73
0000
0000
0110
0000
0000
2200
0000
0000
,  // measure 74
3300
0000
1010
0000
0000
0110
0000
0000
,  // measure 75
1100
0000
0000
0101
0000
0000
1010
0000
,  // measure 76
0000
0110
0000
0000
0101
0000
0000
0011
,  // measure 77
0000
0000
1010
0000
0000
0101
0000
0000
,  // measure 78
1000
0001
0100
0010
,  // measure 79
0001
0010
0100
1000
0100
0010
0001
0010
,  // measure 80
0100
1000
0100
0010
0100
1000
0100
0010
,  // measure 81
0001
0010
0100
0010
0001
0010
0100
0000
,  // measure 82
2002
0000
0000
0000
,  // measure 83
0000
0000
0000
0000
,  // measure 84
3003
1000
0010
0100
,  // measure 85
0001
0010
0001
1000
,  // measure 86
0010
0100
0010
0001
,  // measure 87
1000
0010
0100
1000
,  // measure 88
0001
0010
0001
0100
,  // measure 89
0010
0001
1000
0100
,  // measure 90
0010
0001
1000
0010
,  // measure 91
0100
0001
0010
0001
,  // measure 92
1000
0010
0100
0010
,  // measure 93
1000
0001
0100
0010
,  // measure 94
0001
1000
0010
0100
,  // measure 95
0001
1000
0100
1000
,  // measure 96
0001
0010
0001
0010
,  // measure 97
0100
1000
0001
0010
,  // measure 98
0001
1000
0100
1000
,  // measure 99
0010
0100
0010
0001
,  // measure 100
0001
0010
0001
0010
0001
0000
1000
0100
,  // measure 101
1000
0100
1000
0000
0010
0100
0010
0100
,  // measure 102
0010
0001
0010
0001
0010
0000
0100
0010
,  // measure 103
0100
0010
0100
0000
1000
0100
1000
0100
,  // measure 104
1000
0010
1000
0010
1000
0000
0001
0010
,  // measure 105
0001
0010
0001
0000
1000
0010
1000
0010
,  // measure 106
1000
0001
1000
0001
1000
0000
0001
0100
,  // measure 107
0001
0100
0001
0000
1000
0010
1000
0010
,  // measure 108
1000
0000
0001
0010
0000
0010
0000
0010
,  // measure 109
0000
0010
0100
0000
0100
0000
0100
0000
,  // measure 110
0100
0000
0100
1000
0001
0010
0100
1000
,  // measure 111
0001
0010
0000
0010
0000
0010
0001
1000
,  // measure 112
0100
0000
0100
0010
0000
0010
0000
0001
,  // measure 113
0000
1000
0100
1000
0000
0001
0000
0001
,  // measure 114
0000
0010
0100
0000
0100
0000
0100
0001
,  // measure 115
0000
1000
0010
0100
0001
1000
0100
0010
,  // measure 116
0002
0000
0000
0000
,  // measure 117
0003
0000
0000
0000
;

//---------------dance-single - ----------------
#NOTES:
     dance-single:
     :
     Medium:
     8:
     0.518835,0.721154,0.028448,0.123274,0.000000,383.000000,380.000000,3.000000,13.000000,0.000000,0.000000,0.518835,0.721154,0.028448,0.123274,0.000000,383.000000,380.000000,3.000000,13.000000,0.000000,0.000000:
0000
0000
0000
0000
,
0100
1000
0100
1000
,
0000
0000
0000
1000
0000
0000
0001
0000
,
0010
0000
0000
0010
0000
0000
1000
0000
,
0001
1000
0010
0100
,
0001
0000
0000
1000
0000
0000
0010
0000
,
1000
0000
0000
0100
0000
0000
0001
0000
,
0010
0000
0000
1000
0000
0000
0100
0000
,
0010
1000
0001
0100
,
0001
0000
0000
0001
0000
0000
0100
0000
,
1000
0000
0000
1000
0000
0000
0100
0000
,
0001
0000
0000
1000
0000
0000
1000
0000
,
0001
0100
0010
1000
,
0001
0100
0100
0100
,
1000
1000
1000
1000
,
0202
0000
0000
0000
,
0000
0000
0000
0000
,
0303
0010
0001
0001
,
1000
1000
0010
0001
,
0010
0001
0010
0001
,
0010
0001
0010
0001
,
0010
0010
0001
0001
,
0001
0010
0010
0001
,
0001
0001
1000
1000
,
0002
0000
0200
0000
,
0303
0100
0010
1000
,
0010
0001
1000
0100
,
1000
0010
0001
1000
,
0001
0100
0010
0100
,
0100
0001
1000
0001
,
1000
0100
0010
0100
,
0010
1000
1000
0001
,
0100
1000
1000
0010
,
0100
0000
0000
1000
0000
0000
0010
0000
,
0001
0000
0000
0001
0000
0000
0100
0000
,
0001
0000
0000
1000
0000
0000
1000
0000
,
0001
0000
0000
1000
0000
0000
0100
0000
,
0001
0000
0000
0001
0000
0000
0100
0000
,
0010
0000
0000
0100
,
0001
0000
0000
1000
0000
0000
0100
0000
,
1000
0000
0000
0010
0000
0000
0001
0000
,
0010
0000
0000
0001
0000
0000
0100
0000
,
0000
1000
0000
0000
0001
0000
0010
0000
,
0001
0000
0000
0010
0000
0000
0100
0000
,
0000
1000
0000
0000
0022
0000
0000
0033
,
0001
0000
0000
0100
0000
0000
0001
0000
,
0000
0010
0000
0000
0100
0000
0000
0010
,
0000
0000
0001
0000
0000
0010
0000
0000
,
0001
0000
0000
0100
0000
0000
1000
0000
,
0100
0000
0000
0000
,
0000
0000
0000
0100
0000
0000
0001
0000
,
0000
1000
0000
0000
0001
0000
0000
0100
,
0000
0000
0000
0100
0000
0000
0001
0000
,
0000
1000
0000
0000
0001
0000
0000
0100
,
0000
0000
0000
0100
0000
0000
1000
0000
,
0000
0010
0000
0000
0001
0000
0000
1000
,
0000
0000
0000
0010
0000
0000
0001
0000
,
0000
1000
0000
0000
0010
0000
0000
0100
,
0000
0000
0000
0001
0000
0000
0100
0000
,
0100
0010
1000
0001
,
1000
0010
0100
0001
,
0010
1000
0100
0001
,
0100
0010
1000
0010
,
0100
0001
1000
0010
,
1000
0001
0100
1000
,
0001
1000
0010
0100
0010
1000
0001
1000
,
0010
0000
0000
0100
0000
0000
1000
0000
,
0000
0001
0000
0000
0020
0000
0000
0030
,
0000
0100
0000
0000
1000
0000
0000
0100
,
0000
0000
0001
0000
0000
0200
0000
0000
,
0300
1000
0000
0000
0010
0000
0000
0001
,
0000
0000
0100
0000
0000
2000
0000
3000
,
0000
0100
0000
0000
0001
0000
0000
1000
,
0000
0000
0010
0000
0000
0200
0000
0000
,
0300
0000
1000
0000
0000
0010
0000
0000
,
0100
0000
0000
0001
0000
0000
0100
0000
,
0000
1000
0000
0000
0010
0000
0000
0001
,
0000
0000
0100
0000
0000
0001
0000
0000
,
0100
0001
0010
1000
,
0001
0010
0010
0001
,
0010
0010
0010
0010
,
0001
0010
0001
0010
,
0202
0000
0000
0000
,
0000
0000
0000
0000
,
0303
0100
1000
0010
,
0001
1000
0001
0100
,
1000
0010
1000
0001
,
0100
1000
0010
0100
,
0001
1000
0001
0010
,
1000
0001
0100
0010
,
1000
0001
0100
1000
,
0010
0001
1000
0001
,
0100
1000
0010
1000
,
0100
0001
0010
1000
,
0001
0100
1000
0010
,
0001
0100
0010
0100
,
0001
1000
0001
1000
,
0010
0100
0001
1000
,
0001
0100
0010
0100
,
1000
0010
1000
0001
,
0001
0001
0001
0100
,
0100
0100
1000
1000
,
1000
1000
1000
0010
,
0010
0010
0100
0100
,
0100
0100
0100
0001
,
0001
0001
0100
0100
,
0100
0100
0100
0001
,
0001
0001
0100
0100
,
0100
0000
0000
1000
0000
1000
0000
1000
,
0000
1000
0010
0000
0010
0000
0010
0000
,
0010
0010
0001
0010
,
0001
0000
0000
1000
0000
0000
0001
0000
,
0010
0000
0000
1000
0000
1000
0000
0001
,
0000
0100
0000
0100
0000
0001
0000
0001
,
0000
1000
0000
0000
0010
0000
0010
0000
,
0000
1000
0001
0010
,
0002
0000
0000
0000
,
0003
0000
0000
0000
;

//---------------dance-single - ----------------
#NOTES:
     dance-single:
     :
     Easy:
     5:
     0.319700,0.332840,0.000000,0.085344,0.000000,236.000000,236.000000,0.000000,9.000000,0.000000,0.000000,0.319700,0.332840,0.000000,0.085344,0.000000,236.000000,236.000000,0.000000,9.000000,0.000000,0.000000:
0000
0000
0000
0000
,
1000
0000
0100
0000
,
0000
0000
0000
1000
0000
0000
0001
0000
,
0000
0000
0000
0010
0000
0000
0010
0000
,
0000
0100
0000
0010
,
0000
0000
0000
0100
0000
0000
0010
0000
,
0000
0000
0000
0100
0000
0000
0100
0000
,
0000
0000
0000
1000
0000
0000
0100
0000
,
0000
1000
0000
1000
,
0000
0000
0000
0001
0000
0000
0100
0000
,
0000
0000
0000
0100
0000
0000
1000
0000
,
0000
0000
0000
0100
0000
0000
0100
0000
,
0000
1000
0000
0010
,
0000
1000
0000
0001
,
0000
0100
0000
0010
,
0002
0000
0000
0000
,
0000
0000
0000
0000
,
0003
0010
0000
0001
,
0000
0010
0000
0001
,
0000
1000
0000
0100
,
0000
0010
0000
0001
,
0000
1000
0000
0100
,
0000
0100
0000
0100
,
0000
0010
0000
0100
,
0002
0000
0000
0000
,
0003
1000
0000
0010
,
0000
0010
0000
0010
,
0000
0010
0000
0100
,
0000
1000
0000
0100
,
0000
0100
0000
0100
,
0000
0100
0000
1000
,
0000
1000
0000
0100
,
0000
1000
0000
1000
,
0000
0000
0000
0010
0000
0000
0010
0000
,
0000
0000
0000
1000
0000
0000
1000
0000
,
0000
0000
0000
0010
0000
0000
0100
0000
,
0000
0000
0000
0010
0000
0000
1000
0000
,
0000
0000
0000
0100
0000
0000
0100
0000
,
0000
0000
0000
0010
,
0000
0000
0000
0010
0000
0000
0010
0000
,
0000
0000
0000
0010
0000
0000
0010
0000
,
0000
0000
0000
0010
0000
0000
1000
0000
,
0000
0010
0000
0000
0001
0000
0000
0000
,
0010
0000
0000
0010
0000
0000
1000
0000
,
0000
1000
0000
0000
0002
0000
0000
0003
,
0100
0000
0000
0100
0000
0000
0001
0000
,
0000
0100
0000
0000
0010
0000
0000
0010
,
0000
0000
1000
0000
0000
0010
0000
0000
,
1000
0000
0000
0100
0000
0000
1000
0000
,
0100
0000
0000
0000
,
0000
0000
0000
1000
0000
0000
0001
0000
,
0000
0010
0000
0000
0010
0000
0000
0010
,
0000
0000
0000
0010
0000
0000
0100
0000
,
0000
0100
0000
0000
0001
0000
0000
0100
,
0000
0000
0000
1000
0000
0000
0010
0000
,
0000
0001
0000
0000
1000
0000
0000
0010
,
0000
0000
0000
0100
0000
0000
0100
0000
,
0000
0100
0000
0000
0010
0000
0000
1000
,
0000
0000
0000
0010
0000
0000
0010
0000
,
0000
1000
0000
0100
,
0000
0100
0000
0001
,
0000
0010
0000
0001
,
0000
0010
0000
0100
,
0000
0010
0000
0001
,
0000
0100
0000
0010
,
0100
0000
0001
0000
,
0100
0000
0000
0010
0000
0000
0100
0000
,
0000
0010
0000
0000
0200
0000
0000
0300
,
0000
1000
0000
0000
1000
0000
0000
1000
,
0000
0000
0001
0000
0000
2000
0000
0000
,
3000
0010
0000
0000
1000
0000
0000
0001
,
0000
0000
0100
0000
0000
0020
0000
0030
,
0000
1000
0000
0000
1000
0000
0000
0010
,
0000
0000
0100
0000
0000
2000
0000
0000
,
3000
0000
0100
0000
0000
1000
0000
0000
,
0001
0000
0000
0100
0000
0000
0010
0000
,
0000
0010
0000
0000
0100
0000
0000
0001
,
0000
0000
0100
0000
0000
0001
0000
0000
,
0100
0010
0000
0100
,
1000
0000
0100
0000
,
1000
0000
0001
0000
,
0010
0000
1000
0000
,
2000
0000
0000
0000
,
0000
0000
0000
0000
,
3000
0010
0000
0100
,
0000
0001
0000
1000
,
0000
0100
0000
0001
,
0000
0010
0000
1000
,
0000
0010
0000
0001
,
0000
1000
0000
0010
,
0000
1000
0000
0010
,
0000
0010
0000
0001
,
0000
0010
0000
0010
,
0000
0001
0000
0100
,
0000
0100
0000
1000
,
0000
1000
0000
0100
,
0000
0010
0000
0100
,
0000
0001
0000
0010
,
0000
0100
0000
0100
,
0000
0100
0000
0100
,
0000
0010
0000
0100
,
0000
1000
0000
1000
,
0000
0100
0000
1000
,
0000
0100
0000
1000
,
0000
0100
0000
0100
,
0000
0100
0000
0010
,
0000
0010
0000
0100
,
0000
1000
0000
0010
,
0000
0000
0000
1000
0000
0000
0000
0010
,
0000
0100
0000
0100
,
0000
0100
0000
1000
,
0000
0000
0000
0010
0000
0000
1000
0000
,
0000
0000
0000
0100
0000
0000
0000
0001
,
0000
0000
0000
1000
0000
0000
0000
1000
,
0000
0000
0100
0000
,
0000
0001
0000
0100
,
0002
0000
0000
0000
,
0003
0000
0000
0000
;
