#TITLE:Fun GABBAKICK;
#SUBTITLE:;
#ARTIST:アクジ;
#TITLETRANSLIT:;
#SUBTITLETRANSLIT:;
#ARTISTTRANSLIT:AKUJI;
#GENRE:;
#CREDIT:;
#BANNER:Fun GABBAKICK.png;
#BACKGROUND:Fun GABBAKICK-BG.png;
#LYRICSPATH:;
#CDTITLE:;
#MUSIC:Fun GABBAKICK.ogg;
#OFFSET:0.021002;
#SAMPLESTART:91.407997;
#SAMPLELENGTH:12.000000;
#SELECTABLE:YES;
#BPMS:0.000000=178.500000
;
#STOPS:
;
#BGCHANGES:;
#KEYSOUNDS:;
#ATTACKS:;

//---------------dance-single - ----------------
#NOTES:
     dance-single:
     :
     Hard:
     9:
     0.540611,0.606673,0.453518,0.215607,0.211890,509.000000,448.000000,61.000000,29.000000,0.000000,0.000000,0.540611,0.606673,0.453518,0.215607,0.211890,509.000000,448.000000,61.000000,29.000000,0.000000,0.000000:
0000
0000
0000
0000
,
0000
0000
0000
0000
,
0000
0000
0000
0000
,
0000
0000
0000
0000
,
0000
0000
0000
0000
,
0000
0000
0000
0000
,
0000
0000
0000
0000
,
0000
0000
0000
0000
,
1001
0000
0000
0000
0001
0000
0000
0100
0001
0000
0000
0000
1000
0000
0000
0000
,
0010
0000
0000
0100
0010
0000
0000
0100
0010
0000
0000
0000
1000
0000
0000
0000
,
0001
0000
0000
0000
1000
0000
0000
0010
1000
0000
0000
0000
0001
0000
0000
0000
,
0001
0000
0000
0100
0001
0000
0000
0100
0001
0000
0000
0000
0010
0000
0000
0000
,
0100
0000
0000
0000
0010
0000
0000
1000
0010
0000
0000
0000
0100
0000
0000
0000
,
0001
0000
0000
1000
0001
0000
0000
0100
0001
0000
0000
0000
1000
0000
0000
0000
,
0010
0000
0000
0000
0010
0000
0000
0001
0010
0000
0000
0000
0100
0000
0000
0000
,
1000
0000
0000
0010
1000
0000
0000
0010
1000
0000
0000
0000
0000
0000
0000
0000
,
1001
0000
0000
0000
0001
0000
0000
0100
0001
0000
0000
0000
0010
0000
0000
0000
,
1000
0000
0000
0010
1000
0000
0000
0010
1000
0000
0000
0000
0010
0000
0000
0001
,
0010
0000
0000
0000
0100
0000
0000
0010
0100
0000
0000
0000
1000
0000
0000
0000
,
0002
0023
0230
2300
,
3001
0000
0000
0000
0010
0000
0000
0001
0010
0000
0000
0000
1000
0000
0000
0000
,
0100
0000
0000
1000
0100
0000
0000
1000
0100
0000
0000
0000
1000
0000
0000
0010
,
1000
0000
0000
0000
0001
0000
0000
1000
0001
0000
0000
0000
0100
0000
0000
0000
,
0020
2030
3002
0203
,
0310
0000
0000
0000
0100
0000
0000
1000
0100
0000
0000
0000
0001
0000
0000
0000
,
0010
0000
0000
0001
0010
0000
0000
0001
0010
0000
0000
0000
0001
0000
0000
0100
,
0001
0000
0000
0000
1000
0000
0000
0001
1000
0000
0000
0000
0010
0000
0000
0000
,
0200
0302
2003
3020
,
0130
0000
0000
0000
1000
0000
0000
0010
1000
0000
0000
0000
0100
0000
0000
0000
,
0001
0000
0000
0100
0001
0000
0000
0100
0001
0000
0000
0000
0100
0000
0000
1000
,
0100
0000
0000
0000
0010
0000
0000
0100
0010
0000
0000
0000
0001
0000
0000
0000
,
2000
3200
0320
0032
,
1003
1010
0101
0000
,
1001
1010
0101
0000
,
0110
1001
0110
0000
,
1100
0110
0011
0000
,
1001
0000
0001
1000
0001
0000
0000
0000
,
0110
0000
0100
0010
0100
0000
0000
0000
,
1010
0000
1000
0100
0010
0000
0100
0010
,
0002
0023
0230
2300
,
3001
0000
0001
0010
0001
0000
1000
0000
,
1000
0000
1000
0100
1000
0000
0010
0000
,
0010
0000
0010
0100
0010
0000
0001
0010
,
0100
0000
1000
0100
0010
0000
1000
0000
,
0001
0000
0010
0000
0100
0010
1000
0000
,
0001
1000
0100
0010
,
0001
1000
0010
0100
,
0001
0000
0010
0000
0100
0010
0000
1000
,
0010
0100
0001
1000
,
0100
0000
1000
0010
0001
0000
0010
0000
,
0001
1000
0010
0100
,
0010
0000
0001
0010
1000
0000
0100
0000
,
0010
0100
1000
0001
,
0100
0010
0001
0000
1000
0000
0010
0000
,
0100
0000
0001
0000
1000
0000
0010
0100
,
0010
0000
1000
0001
1000
0100
0010
0001
,
1000
0010
0100
0001
0010
0100
1000
0001
,
0100
0010
1000
0001
0010
0001
0010
0100
,
1000
0100
1000
0010
0100
0010
0100
1000
,
0001
1000
0001
1000
0100
0010
0100
0010
,
0001
0000
0000
1000
0001
0000
0000
0000
1001
0000
0000
0000
0101
0000
0000
0000
,
0010
0000
0000
0100
0010
0000
0000
0000
0110
0000
0000
0000
0011
0000
0000
0000
,
0100
0000
0000
0010
0100
0000
0000
0000
0110
0000
0000
0000
1100
0000
0000
0000
,
0001
0000
0010
0000
0100
0000
1000
0001
,
1000
0000
0000
0001
1000
0000
0000
0000
1001
0000
0000
0000
1010
0000
0000
0000
,
0100
0000
0000
0010
0100
0000
0000
0000
0110
0000
0000
0000
1100
0000
0000
0000
,
0010
0000
0000
0100
0010
0000
0000
0000
0110
0000
0000
0000
0011
0000
0000
0000
,
1000
0000
0100
0000
0010
0000
0001
1000
,
0001
0000
0001
0010
1000
0000
1000
0000
,
1000
0000
1000
0100
0001
0000
0001
0000
,
0010
0000
0100
0010
0100
0000
0010
0100
,
0010
0000
1000
0001
2000
0000
0000
0000
,
3010
0000
0000
0100
0010
0000
0000
0000
0110
0000
0000
0000
0011
0000
0000
0000
,
1000
0000
0000
0001
1000
0000
0000
0000
1001
0000
0000
0000
1010
0000
0000
1000
,
0001
0000
0000
1000
0001
0000
0000
0000
1001
0000
0000
0000
0101
0000
0000
0000
,
0010
0000
1000
0000
0001
0000
0100
0010
,
0100
0000
0000
0010
0100
0000
0000
0000
0110
0000
0000
0000
1100
0000
0000
0000
,
0001
0000
0000
1000
0001
0000
0000
0000
1001
0000
0000
0000
0101
0000
0000
0001
,
1000
0000
0000
0001
1000
0000
0000
0000
1001
0000
0000
0000
1010
0000
0000
0000
,
0100
0000
0001
0000
2000
0000
0002
3003
,
1000
0000
0000
0001
1000
0000
0000
0000
1001
0000
0000
0000
1010
0000
0000
0000
,
0100
0000
0000
0010
0100
0000
0000
0000
0110
0000
0000
0000
1100
0000
0000
0100
,
0010
0000
0000
0100
0010
0000
0000
0000
0110
0000
0000
0000
0011
0000
0000
0000
,
1000
0000
0100
0000
0010
0000
0001
1000
,
0001
0000
0000
1000
0001
0000
0000
0000
1001
0000
0000
0000
0101
0000
0000
0000
,
0010
0000
0000
0100
0010
0000
0000
0000
0110
0000
0000
0000
0011
0000
0000
0010
,
0100
0000
0000
0010
0100
0000
0000
0000
0110
0000
0000
0000
1100
0000
0000
0000
,
0001
0000
0010
0000
0200
0000
0020
0330
,
0001
0000
0000
1000
0001
0000
0000
0000
1001
0000
0000
0000
0101
0000
0000
0000
,
0001
0000
0000
0001
0100
0000
0000
0000
0101
0000
0000
0000
1010
0000
0000
0000
,
0010
0000
0000
0100
0010
0000
0000
0000
0110
0000
0000
0000
1001
0000
0000
0000
,
1000
0010
0100
0001
,
1001
0000
0001
0100
0001
0000
1000
0000
,
1010
0000
0010
1000
0010
0000
0100
0000
,
0110
0000
0010
0100
0010
0000
0100
0010
,
0200
0302
2003
3020
,
0030
0000
0000
0000
;

//---------------dance-single - ----------------
#NOTES:
     dance-single:
     :
     Medium:
     6:
     0.354742,0.392553,0.052043,0.126390,0.000000,334.000000,327.000000,7.000000,17.000000,0.000000,0.000000,0.354742,0.392553,0.052043,0.126390,0.000000,334.000000,327.000000,7.000000,17.000000,0.000000,0.000000:
0000
0000
0000
0000
,
0000
0000
0000
0000
,
0000
0000
0000
0000
,
0000
0000
0000
0000
,
0000
0000
0000
0000
,
0000
0000
0000
0000
,
0000
0000
0000
0000
,
0000
0000
0000
0000
,
0010
1000
1000
0010
,
0001
0001
0001
0010
,
1000
0010
0010
1000
,
1000
1000
1000
0001
,
0100
0001
0001
0100
,
1000
1000
1000
0010
,
0001
0001
0001
0100
,
0010
0010
0010
0000
,
1010
1000
1000
0001
,
0010
0010
0010
0001
,
0001
0100
0100
0010
,
2000
0000
0020
0000
,
3030
0001
0001
0010
,
0100
0100
0100
0010
,
0010
1000
1000
0100
,
0002
0000
0200
0000
,
0303
0100
0100
1000
,
0001
0001
0001
1000
,
1000
0010
0010
0001
,
0200
0000
0002
0000
,
0303
0010
0010
0100
,
1000
1000
1000
0100
,
0100
0001
0001
1000
,
0020
0000
2000
0000
,
3030
0001
1100
0000
,
0010
0100
0011
0000
,
0001
0010
0101
0000
,
0010
0100
1001
0000
,
0010
1000
1000
0000
,
0100
0100
0100
0000
,
0010
0010
0001
0100
,
2000
0000
0020
0000
,
3030
1000
1000
0010
,
0010
0010
0010
0001
,
0001
0001
0001
1000
,
0100
0010
0001
0010
,
1000
0001
0100
0010
,
1000
0010
0100
0001
,
1000
0010
0001
0100
,
1000
0001
0100
0010
,
0001
0100
1000
0010
,
0100
0010
1000
0001
,
1000
0010
0001
0100
,
0001
1000
0010
0100
,
0001
0100
0010
1000
,
0100
1000
0010
0001
,
0100
1000
0010
0001
,
0100
1000
0010
0001
,
0010
0100
0001
1000
,
0100
0010
0001
0001
,
0010
0010
0100
0100
,
1000
1000
0100
0100
,
1000
1000
0010
0100
,
0001
0001
0100
1000
,
0100
0100
0001
0010
,
1000
0001
0100
0010
,
0010
0010
1000
0001
,
0100
0100
0001
0010
,
0001
0001
0100
1000
,
0010
0100
0001
1000
,
1000
1000
0010
0010
,
0010
0010
1000
1000
,
0001
0100
0100
0001
,
0001
0010
0020
0000
,
0031
0001
0100
1000
,
0010
0010
1000
0001
,
1000
1000
0010
0100
,
0001
0010
1000
0100
,
0100
0100
0001
0010
,
1000
1000
1010
1100
,
0010
0010
1000
0010
,
0100
0000
1000
0000
0020
0000
2000
3030
,
0010
0010
1000
0001
,
0100
0100
0001
0010
,
0001
0001
0100
1000
,
0010
0100
0001
1000
,
1000
1000
0010
0100
,
0001
0001
0100
1000
,
0100
0100
0001
0010
,
1000
0000
0001
0000
0200
0000
0002
0303
,
1000
1000
0010
0100
,
1000
0100
1000
0010
,
0001
0001
0100
1000
,
0010
0001
0100
1000
,
0010
1000
1000
0010
,
0010
0001
0001
0100
,
0100
0001
0001
0100
,
0200
0000
0002
0000
,
0303
0000
0000
0000
;

//---------------dance-single - ----------------
#NOTES:
     dance-single:
     :
     Easy:
     3:
     0.174185,0.178433,0.000000,0.066913,0.000000,164.000000,164.000000,0.000000,9.000000,0.000000,0.000000,0.174185,0.178433,0.000000,0.066913,0.000000,164.000000,164.000000,0.000000,9.000000,0.000000,0.000000:
// measure 0
0000
0000
0000
0000
,  // measure 1
0000
0000
0000
0000
,  // measure 2
0000
0000
0000
0000
,  // measure 3
0000
0000
0000
0000
,  // measure 4
0000
0000
0000
0000
,  // measure 5
0000
0000
0000
0000
,  // measure 6
0000
0000
0000
0000
,  // measure 7
0000
0000
0000
0000
,  // measure 8
0001
0000
0010
0000
,  // measure 9
1000
0000
1000
0000
,  // measure 10
0010
0000
0001
0000
,  // measure 11
0010
0000
0010
0000
,  // measure 12
0100
0000
1000
0000
,  // measure 13
0010
0000
0010
0000
,  // measure 14
1000
0000
1000
0000
,  // measure 15
0001
0000
0001
0000
,  // measure 16
0010
0000
0010
0000
,  // measure 17
0001
0000
0001
0000
,  // measure 18
1000
0000
0100
0000
,  // measure 19
0020
0000
0000
0000
,  // measure 20
0030
0000
1000
0000
,  // measure 21
0100
0000
0100
0000
,  // measure 22
0001
0000
0010
0000
,  // measure 23
2000
0000
0000
0000
,  // measure 24
3000
0000
0100
0000
,  // measure 25
1000
0000
1000
0000
,  // measure 26
0010
0000
0001
0000
,  // measure 27
0200
0000
0000
0000
,  // measure 28
0300
0000
0001
0000
,  // measure 29
0010
0000
0010
0000
,  // measure 30
0100
0000
1000
0000
,  // measure 31
0002
0000
0000
0000
,  // measure 32
0003
0000
0010
0000
,  // measure 33
0001
0000
1000
0000
,  // measure 34
1000
0000
0100
0000
,  // measure 35
0001
0000
0010
0000
,  // measure 36
0001
0000
0010
0000
,  // measure 37
0100
0000
0100
0000
,  // measure 38
0001
0000
1000
0000
,  // measure 39
0020
0000
0000
0000
,  // measure 40
0030
0000
0010
0000
,  // measure 41
0001
0000
0001
0000
,  // measure 42
1000
0000
1000
0000
,  // measure 43
0100
0000
1000
0000
,  // measure 44
0010
0000
0100
0000
,  // measure 45
0001
0000
0100
0000
,  // measure 46
0010
0000
1000
0000
,  // measure 47
0010
0000
0100
0000
,  // measure 48
1000
0000
0010
0000
,  // measure 49
0100
0000
0010
0000
,  // measure 50
0001
0000
1000
0000
,  // measure 51
0100
0000
0001
0000
,  // measure 52
1000
0000
0001
0000
,  // measure 53
0010
0000
0001
0000
,  // measure 54
0100
0000
0001
0000
,  // measure 55
0010
0000
1000
0000
,  // measure 56
0001
0000
1000
0000
,  // measure 57
0100
0000
1000
0000
,  // measure 58
0001
0000
0100
0000
,  // measure 59
0010
0000
0100
0000
,  // measure 60
0010
0000
0001
0000
,  // measure 61
1000
0000
0100
0000
,  // measure 62
0100
0000
1000
0000
,  // measure 63
0010
0000
0100
0000
,  // measure 64
0001
0000
0010
0000
,  // measure 65
0100
0000
1000
0000
,  // measure 66
1000
0000
0100
0000
,  // measure 67
0001
0000
1000
0000
,  // measure 68
0010
0000
0001
0000
,  // measure 69
0001
0000
0010
0000
,  // measure 70
1000
0000
0100
0000
,  // measure 71
1000
0000
0002
0000
,  // measure 72
0003
0000
0100
0000
,  // measure 73
0001
0000
0010
0000
,  // measure 74
0010
0000
0001
0000
,  // measure 75
1000
0000
0010
0000
,  // measure 76
0100
0000
1000
0000
,  // measure 77
0010
0000
0001
0000
,  // measure 78
0001
0000
0010
0000
,  // measure 79
0100
0000
0000
0000
0002
0000
0000
0003
,  // measure 80
0001
0000
0010
0000
,  // measure 81
0100
0000
1000
0000
,  // measure 82
1000
0000
0100
0000
,  // measure 83
0001
0000
1000
0000
,  // measure 84
0010
0000
0001
0000
,  // measure 85
1000
0000
0100
0000
,  // measure 86
0100
0000
1000
0000
,  // measure 87
0010
0000
0000
0000
0200
0000
0000
0300
,  // measure 88
0010
0000
0001
0000
,  // measure 89
0010
0000
0010
0000
,  // measure 90
1000
0000
0100
0000
,  // measure 91
0001
0000
0100
0000
,  // measure 92
0001
0000
0010
0000
,  // measure 93
0001
0000
1000
0000
,  // measure 94
0100
0000
1000
0000
,  // measure 95
0200
0000
0000
0000
,  // measure 96
0300
0000
0000
0000
;
