#VERSION:0.83;
#TITLE:Flying Junction;
#SUBTITLE:;
#ARTIST:Jimmy Weckl feat.小野秀幸;
#TITLETRANSLIT:;
#SUBTITLETRANSLIT:;
#ARTISTTRANSLIT:Jimmy Weckl feat. Hideyuki Ono;
#GENRE:;
#ORIGIN:;
#CREDIT:;
#BANNER:Flying Junction.png;
#BACKGROUND:Flying Junction-BG.png;
#PREVIEWVID:;
#JACKET:Flying Junction-Jacket.png;
#CDIMAGE:;
#DISCIMAGE:;
#LYRICSPATH:;
#CDTITLE:;
#MUSIC:Flying Junction.ogg;
#OFFSET:-1.007000;
#SAMPLESTART:60.527000;
#SAMPLELENGTH:12.000000;
#SELECTABLE:YES;
#BPMS:0.000=125.000;
#STOPS:;
#DELAYS:;
#WARPS:;
#TIMESIGNATURES:0.000=4=4;
#TICKCOUNTS:0.000=4;
#COMBOS:0.000=1;
#SPEEDS:0.000=1.000=0.000=0;
#SCROLLS:0.000=1.000;
#FAKES:;
#LABELS:0.000=Song Start;
#BGCHANGES:;
#KEYSOUNDS:;
#ATTACKS:
;

//---------------dance-single - ----------------
#NOTEDATA:;
#CHARTNAME:;
#STEPSTYPE:dance-single;
#DESCRIPTION:;
#CHARTSTYLE:;
#DIFFICULTY:Hard;
#METER:9;
#RADARVALUES:0.455591,0.607845,0.027258,0.109030,0.567867,351.000000,348.000000,3.000000,12.000000,0.000000,0.000000,0.000000,0.000000,0.000000,0.455591,0.607845,0.027258,0.109030,0.567867,351.000000,348.000000,3.000000,12.000000,0.000000,0.000000,0.000000,0.000000,0.000000;
#CREDIT:;
#NOTES:
1000
0000
0000
0000
0010
0000
0000
0000
0100
0000
0001
0010
0100
0010
0001
0000
,
1000
0000
0000
0000
0010
0000
1000
0000
0100
0000
0000
0001
0000
0000
0000
0010
,
0000
1000
0001
0100
,
0100
0000
0000
0000
0000
0010
0000
0000
1000
0000
0000
0000
0010
0000
0000
0000
,
0001
0000
1000
0000
0001
0000
0000
0000
0010
0100
1000
0100
0010
0001
0010
0100
,
0000
0000
0000
0010
1000
0000
0001
0100
0000
0000
0010
0000
0100
0010
0000
1000
,
0000
0000
0010
0000
0100
0000
0000
0010
0001
0010
0000
0100
0000
0010
1000
0010
,
0000
0001
0100
0010
0001
1000
0010
0100
,
1000
0100
0010
0100
1000
0100
0010
0001
0010
0100
0010
0001
0010
0100
1000
0000
,
0001
0000
0000
0010
0100
0000
0010
0100
0000
0000
0001
0000
1000
0000
0010
0000
,
0100
0000
0010
0000
0001
0000
0000
1000
0100
0010
0000
0100
0000
0001
0100
0001
,
0000
0010
1000
0001
0100
0010
0100
0010
,
0001
0000
1000
0000
0000
1000
0000
0010
0100
0000
0000
0100
0000
0001
0000
0010
,
0000
0000
0100
0000
1000
0100
0010
0100
0000
0000
0001
0000
0100
0000
1000
0000
,
0010
0000
0100
0000
0000
0010
0100
0010
0000
1000
0000
0001
0000
0100
0010
1000
,
0000
0000
0001
0000
0100
0000
0010
0000
1000
0000
0001
0000
1000
0100
0010
0100
,
0010
0000
1000
0001
0000
0100
0000
0010
0000
0000
1010
0000
0000
0000
0110
0000
,
0000
0000
0001
0010
0100
0010
0001
0010
0000
0100
0000
1000
0000
0010
0000
0000
,
0100
0000
1000
0100
0010
0100
1000
0100
0000
0010
0000
0001
0000
0100
0000
0000
,
0010
0000
1000
0100
0010
0001
0010
0100
0000
0010
0000
1000
0000
0001
0000
0000
,
0210
0000
0000
0000
0300
0010
1000
0020
0000
0000
0000
0000
0000
0000
0000
0000
,
0030
0100
0000
0000
1000
0000
0000
0001
0000
0000
0000
0000
0010
0000
0000
0100
,
0000
0010
0000
0000
1000
0000
0100
0000
0001
0000
0010
0000
1000
0000
0001
0000
,
1000
0010
0000
0000
0100
0000
0000
0010
0000
0000
0000
0000
1000
0000
0000
0001
,
0000
0100
0000
0010
0000
0000
1000
0000
0001
0000
0100
0000
0010
0000
1000
0000
,
0001
1000
0000
0000
0100
0000
0000
0010
0000
0000
0000
0000
0001
0000
0000
0100
,
0000
0010
0000
0000
1000
0000
0100
0000
0010
0000
0001
0000
1000
0000
0001
0000
,
1000
0000
0010
1000
0000
0000
0001
0000
0100
0001
0000
0000
0010
0000
0100
0010
,
0000
0000
1000
0000
0001
1000
0000
0000
0100
0000
1000
0100
0000
0000
0001
0000
,
0010
0001
0000
0000
1000
0000
0100
0000
0010
0000
0100
0000
1000
0000
0001
0000
,
0010
0000
0100
0000
0010
0000
0001
0000
1000
0100
0010
0001
0010
0100
1000
0100
,
0020
0000
0000
0000
0000
0000
0000
0000
0030
0000
0010
0100
1000
0000
0001
0000
,
0200
0000
0000
0000
0000
0000
0000
0000
0300
0000
0010
1000
0001
0000
0100
0000
,
2000
0000
0000
0000
0000
0000
0000
0000
0000
0000
0000
0000
3000
0000
0001
0010
,
0100
1000
0002
0000
0000
0000
0003
0000
,
0020
0000
0000
0000
0000
0000
0000
0000
0030
0000
0010
0100
0010
0000
0100
0000
,
0002
0000
0000
0000
0000
0000
0000
0000
0003
0000
1000
0010
0100
0000
0001
0000
,
0200
0000
0000
0000
,
0000
0000
0000
0300
,
0010
0000
0100
0000
0000
0000
0000
0000
0001
0000
0000
1000
0000
0000
0000
0010
,
0000
0000
0000
0000
0000
0000
0000
0000
0000
0000
0000
0000
0000
0000
0000
0100
,
0000
0000
0000
0000
0000
0010
0000
0000
0100
0000
0000
0000
0000
0000
0000
0001
,
0000
1000
0000
0002
0000
0000
0000
0000
0000
0000
0000
0000
0003
0000
0000
0000
,
0010
0000
0100
0000
0000
0000
0000
0000
0010
0000
0000
1000
0000
0000
0001
0000
,
0000
0000
0000
0000
0000
0000
0000
0000
0000
0000
0000
0000
0000
0000
0000
0010
,
0000
0000
0000
0000
0000
0100
0000
0000
0010
0000
0000
0000
0000
0000
0000
1000
,
0000
0001
0000
2000
0000
0000
0000
0000
0000
0000
0000
0000
3000
0000
0000
0000
,
0010
0000
0000
0100
0000
0000
0010
0000
0000
0000
0000
0000
1000
0000
0000
0010
,
0000
0100
0000
0000
0001
0000
0010
0000
0100
0000
1000
0000
0010
0000
0100
0000
,
0001
0000
0000
0000
0010
0000
0000
0100
0000
0000
0000
0010
0000
0000
0100
0000
,
0010
1000
0000
0001
0010
0100
0010
0001
,
1000
0000
0000
0100
0000
0000
0010
0000
0000
0000
0000
0000
0010
0000
0000
0100
,
0000
0001
0000
0000
0010
0000
0100
0000
1000
0000
0001
0000
0010
0000
0100
0000
,
0010
0000
1000
0010
0000
0000
0100
0000
0001
0100
0000
0000
1000
0000
0001
1000
,
0000
0000
0010
0000
0100
0010
0000
0000
1000
0000
0100
1000
0000
0000
0001
0000
,
0010
0002
0000
0000
0000
0000
0000
0000
0000
0000
0000
0000
0003
0000
0000
0000
;

//---------------dance-single - ----------------
#NOTEDATA:;
#CHARTNAME:;
#STEPSTYPE:dance-single;
#DESCRIPTION:;
#CHARTSTYLE:;
#DIFFICULTY:Medium;
#METER:7;
#RADARVALUES:0.354349,0.424764,0.009086,0.099945,0.031801,273.000000,272.000000,1.000000,11.000000,0.000000,0.000000,0.000000,0.000000,0.000000,0.354349,0.424764,0.009086,0.099945,0.031801,273.000000,272.000000,1.000000,11.000000,0.000000,0.000000,0.000000,0.000000,0.000000;
#CREDIT:;
#NOTES:
0001
0000
0100
0000
0010
1000
0010
1000
,
0001
0000
0100
0001
0010
0000
1000
0000
,
0100
0001
1000
0010
,
0010
0100
0001
0100
,
1000
0001
1000
0000
0100
0001
0100
0010
,
0000
0000
0001
1000
0010
0100
0010
0000
,
1000
0100
0010
0000
1000
0000
0010
0001
,
0100
1000
0010
0100
1000
0001
0100
0010
,
0001
1000
0001
0010
0100
1000
0010
0001
,
1000
0000
0010
0100
0000
1000
0001
0100
,
0010
0100
1000
0000
0010
0000
0100
0010
,
0000
0100
0001
1000
0010
0100
0010
0100
,
1000
0001
0000
0000
0010
0000
0100
0000
,
0000
0010
0001
0100
0000
1000
0010
0001
,
0100
0010
0100
0010
0001
0000
1000
0100
,
0000
1000
0010
0100
0001
1000
0001
0100
,
0100
0001
1000
0000
0100
0001
0000
0110
,
0000
1000
0010
1000
0100
0000
0001
0000
,
0010
0001
0100
0001
0100
0000
1000
0000
,
0100
0001
0100
0010
0001
0000
1000
0000
,
0020
0000
0000
0000
0030
0000
0001
0200
0000
0000
0000
0000
0000
0000
0000
0000
,
0310
0001
1000
0100
,
0010
0000
0001
0010
1000
0100
0001
1000
,
0001
0010
1000
0001
,
0100
0000
0010
0001
1000
0010
0100
0001
,
1000
0010
0100
1000
,
0010
0000
0001
0010
0100
1000
0001
1000
,
0001
0100
0000
1000
0010
0000
0100
0010
,
0000
0001
1000
0000
0010
0001
0100
1000
,
0100
0000
0001
0010
0100
0010
0001
1000
,
0100
0010
0100
1000
0001
0010
0100
0001
,
0200
0000
0000
0000
0300
0100
0001
1000
,
0020
0000
0000
0000
0030
0100
1000
0010
,
0002
0000
0000
0000
0000
0000
0003
1000
,
0010
0001
2000
0000
0000
0000
3000
0000
,
0200
0000
0000
0000
0300
0100
0100
0010
,
2000
0000
0000
0000
3000
0001
0010
1000
,
0020
0000
0000
0000
,
0000
0000
0000
0030
,
0100
0010
0000
0000
1000
0000
0001
0000
,
0100
0000
0000
0000
,
0010
0000
0000
0000
0100
0000
0000
0000
0010
0000
0000
0000
0000
0000
0000
1000
,
0000
0001
0000
2000
0000
0000
0000
0000
0000
0000
0000
0000
3000
0000
0000
0000
,
0100
0010
0000
0000
0100
0000
0001
1000
,
0000
0000
0000
0000
,
0100
0000
0000
0000
0010
0000
0000
0000
0100
0000
0000
0000
0000
0000
0000
0001
,
0000
1000
0000
0002
0000
0000
0000
0000
0000
0000
0000
0000
0003
0000
0000
0000
,
0100
0000
0010
0100
0000
0000
0001
0000
,
0010
0000
1000
0100
0010
0001
0100
0010
,
1000
0000
0100
0000
0001
0000
0000
0010
,
0100
0001
0000
1000
0100
0010
0100
1000
,
0001
0000
1000
0100
0000
0000
0100
0000
,
0010
0000
0100
0010
0001
1000
0100
0010
,
0100
0001
1000
0010
1000
0000
0001
1000
,
0000
0100
0010
0000
0001
0010
0000
1000
,
0100
0000
0000
0000
;

//---------------dance-single - ----------------
#NOTEDATA:;
#CHARTNAME:;
#STEPSTYPE:dance-single;
#DESCRIPTION:;
#CHARTSTYLE:;
#DIFFICULTY:Easy;
#METER:4;
#RADARVALUES:0.220657,0.224875,0.000000,0.072687,0.027258,170.000000,170.000000,0.000000,8.000000,0.000000,0.000000,0.000000,0.000000,0.000000,0.220657,0.224875,0.000000,0.072687,0.027258,170.000000,170.000000,0.000000,8.000000,0.000000,0.000000,0.000000,0.000000,0.000000;
#CREDIT:;
#NOTES:
// measure 0
1000
0010
0100
0100
,  // measure 1
1000
0010
0100
0001
,  // measure 2
0010
1000
0001
0100
,  // measure 3
0100
0010
1000
0010
,  // measure 4
0001
0001
0010
0010
,  // measure 5
0000
1000
0100
0100
,  // measure 6
0001
0100
0001
0100
,  // measure 7
0010
0100
0001
0010
,  // measure 8
1000
1000
0010
0100
,  // measure 9
0001
0100
0000
1000
,  // measure 10
0100
0001
0100
0010
,  // measure 11
0000
1000
0100
0100
,  // measure 12
0001
0000
0100
0010
,  // measure 13
0000
1000
0000
0100
,  // measure 14
0010
0010
1000
0001
,  // measure 15
0000
0100
1000
1000
,  // measure 16
0010
0000
0001
0000
0010
0000
0000
0100
,  // measure 17
0000
0100
0010
1000
,  // measure 18
0100
0010
0010
0001
,  // measure 19
0010
0010
1000
0001
,  // measure 20
0200
0300
0010
0000
,  // measure 21
0100
1000
0001
0010
,  // measure 22
0100
1000
0001
1000
,  // measure 23
1000
0100
0001
1000
,  // measure 24
0010
0100
0001
0010
,  // measure 25
0001
0100
0010
0001
,  // measure 26
0100
1000
0010
1000
,  // measure 27
1000
0000
0100
0010
,  // measure 28
0000
0001
0100
0010
,  // measure 29
0001
1000
0100
1000
,  // measure 30
0010
0001
1000
0100
,  // measure 31
0020
0000
0030
1000
,  // measure 32
0200
0000
0300
0001
,  // measure 33
2000
0000
0000
3000
,  // measure 34
0100
0002
0000
0003
,  // measure 35
0020
0000
0030
0010
,  // measure 36
0002
0000
0003
0100
,  // measure 37
0200
0000
0000
0000
,  // measure 38
0000
0000
0000
0300
,  // measure 39
0010
0000
0001
1000
,  // measure 40
0010
0000
0000
0000
,  // measure 41
0100
0000
0000
0000
0010
0000
0000
0000
0100
0000
0000
0000
0000
0000
0000
0001
,  // measure 42
0000
1000
0000
0001
0000
0000
0000
0000
0000
0000
0000
0000
0000
0000
0000
0000
,  // measure 43
0010
0000
0010
1000
,  // measure 44
0000
0000
0000
0000
,  // measure 45
0010
0000
0000
0000
0100
0000
0000
0000
0010
0000
0000
0000
0000
0000
0000
1000
,  // measure 46
0000
0001
0000
1000
0000
0000
0000
0000
0000
0000
0000
0000
0000
0000
0000
0000
,  // measure 47
0010
0100
0000
1000
,  // measure 48
0100
0001
0100
0010
,  // measure 49
0001
0010
1000
0000
,  // measure 50
0010
0000
0001
0010
,  // measure 51
1000
0001
0000
0010
,  // measure 52
0100
0010
1000
0100
,  // measure 53
0010
0001
0001
1000
,  // measure 54
0000
0100
1000
0000
,  // measure 55
0100
0000
0000
0000
;
