#TITLE:Expand Energy;
#SUBTITLE:;
#ARTIST:ЯAR;
#TITLETRANSLIT:;
#SUBTITLETRANSLIT:;
#ARTISTTRANSLIT:RAR;
#GENRE:;
#CREDIT:;
#BANNER:Expand Energy.png;
#BACKGROUND:Expand Energy-BG.png;
#LYRICSPATH:;
#CDTITLE:;
#MUSIC:Expand Energy.ogg;
#OFFSET:-1.571999;
#SAMPLESTART:79.046997;
#SAMPLELENGTH:12.000000;
#SELECTABLE:YES;
#BPMS:0.000000=153.000000
,96.000000=145.000000
;
#STOPS:
;
#BGCHANGES:;
#KEYSOUNDS:;
#ATTACKS:;

//---------------dance-single - ----------------
#NOTES:
     dance-single:
     :
     Hard:
     10:
     0.540367,0.644438,0.082409,0.370840,0.683995,459.000000,449.000000,10.000000,45.000000,0.000000,0.000000,0.540367,0.644438,0.082409,0.370840,0.683995,459.000000,449.000000,10.000000,45.000000,0.000000,0.000000:
0000
0000
0000
0000
,
0000
0000
0000
0000
,
0000
0000
0000
0000
,
0000
0000
0000
0000
,
1000
0000
0000
0001
0100
0000
0000
0000
,
0010
0000
0000
0100
0010
0000
0000
0000
,
1000
0000
0000
0000
0000
0000
0010
0000
1000
0000
0000
0000
0000
0001
1000
0001
,
1000
0000
1010
0000
0000
0101
0000
0000
1001
0000
0000
0110
0000
0000
0000
0000
,
1000
0000
0100
0000
0000
0010
0000
0000
0100
0000
0000
0001
0000
1000
0001
1000
,
0001
0000
0010
0000
0000
0100
0000
0000
0001
0000
0000
1000
0000
0010
1000
0010
,
1000
0000
0001
0000
0000
0100
0000
0000
0010
0000
0000
1000
0000
0001
0100
0001
,
0100
0000
0010
0000
0000
1000
0000
0000
0001
0000
0000
1000
0100
0000
0010
0000
,
0100
0000
0001
0000
0000
1000
0000
0000
0001
0000
0000
0010
0000
0100
0010
0100
,
0010
0000
1000
0000
0000
0001
0000
0000
0010
0000
0000
0100
0000
1000
0100
1000
,
0100
0000
0010
0000
0000
0001
0000
0000
1000
0000
0000
0100
0000
0010
0001
0010
,
0001
0000
0000
0000
0000
0000
0000
0000
1010
0000
0000
1010
0000
0000
1010
0000
,
0010
0000
1000
0000
0000
0001
0000
0000
1000
0000
0000
0100
0000
0010
0100
0010
,
0100
0000
0001
0000
0000
1000
0000
0000
0100
0000
0000
0010
0000
0001
0010
0001
,
0010
0000
0100
0000
0000
1000
0000
0000
0001
0000
0000
0010
0000
0100
1000
0100
,
1000
0000
0001
0000
0000
0010
0000
0000
0100
0000
0000
0010
1000
0000
0001
0000
,
0001
0000
0010
0000
0000
0100
0000
0000
0010
0000
0000
1000
0000
0001
1000
0001
,
1000
0000
0100
0000
0000
0010
0000
0000
1000
0000
0000
0001
0000
0100
0001
0100
,
0001
0000
1000
0000
0000
0010
0000
0000
0100
0000
0000
0001
0000
1000
0010
1000
,
0010
0000
0101
0000
0000
0101
0000
0000
1000
0000
0000
0001
0010
0000
0100
0000
,
0002
0100
0100
0100
,
0203
0010
0010
0010
,
0320
1000
1000
1000
,
1000
1000
1000
1000
,
2030
0001
0001
0001
,
3002
0100
0100
0100
,
0203
0010
0010
0010
,
0320
1000
1000
1000
,
1030
0000
0001
0000
0100
0010
0000
0020
0000
0000
1030
0000
0200
0000
0301
0100
,
0000
0000
0100
0000
0010
1000
0000
2000
0000
0000
3001
0000
0020
0000
0130
0010
,
0000
0000
1000
0000
0010
0100
0000
0200
0000
0000
0301
0000
0020
0000
1030
0010
,
0000
0000
0100
0000
0010
0001
0000
1000
0000
0100
0000
0010
0100
1000
0100
0010
,
0000
0000
0001
0000
0010
0000
0100
0010
0000
0100
0010
0001
0010
0100
0010
0001
,
0000
0000
1000
0000
0010
0000
0100
0001
0000
1000
0100
0010
0100
1000
0100
0010
,
0000
0000
0100
0000
0001
0000
0001
1000
0000
0001
0010
0100
1000
0100
0010
0001
,
0000
0000
0000
0000
,
0100
0000
0010
0000
0001
1000
0000
2000
0000
0000
3100
0000
0002
0000
0013
0001
,
0000
0000
0001
0000
1000
0100
0000
0200
0000
0000
0310
0000
2000
0000
3001
1000
,
0000
0000
0100
0000
1000
0001
0000
0002
0000
0000
0013
0000
2000
0000
3100
1000
,
0000
0000
0001
0000
1000
0010
0000
0020
0000
0000
1030
0000
0001
0010
0100
0010
,
0002
0000
2003
0000
,
3020
0000
0230
0000
,
0302
0023
0230
2300
,
3001
0010
0100
1000
0001
0000
1001
0000
,
0010
0000
0100
0000
1000
0001
0000
0002
0000
0000
0013
0000
2000
0000
3100
1000
,
0000
0000
1000
0000
0001
0010
0000
0020
0000
0000
0130
0000
0002
0000
1003
0001
,
0000
0000
0010
0000
0001
1000
0000
2000
0000
0000
3100
0000
0002
0000
0013
0001
,
0000
0000
1000
0000
0001
0100
0000
0010
0000
1000
0000
0001
1000
0010
1000
0001
,
0000
0000
0100
0000
0001
0000
1000
0001
0000
1000
0001
0100
0001
1000
0001
0100
,
0000
0000
0010
0000
0001
0000
1000
0100
0000
0010
1000
0001
1000
0010
1000
0001
,
0000
0000
1000
0000
0100
0000
0100
0010
0000
0100
0001
1000
0010
1000
0001
0100
,
0000
0000
0001
0000
0010
0000
0100
2000
0000
0000
0000
0002
0000
0000
3003
0000
,
0001
0000
1000
0000
0010
0100
0000
0200
0000
0000
0301
0000
0020
0000
1030
0010
,
0000
0000
0010
0000
0100
0001
0000
0002
0000
0000
1003
0000
0200
0000
0310
0100
,
0000
0000
0001
0000
0100
0010
0000
0020
0000
0000
1030
0000
0200
0000
0301
0100
,
0000
0000
0010
0000
0100
1000
0000
0001
0000
0010
0000
0100
0010
0001
0010
0100
,
0000
0000
1000
0000
0100
0000
0010
0100
0000
0010
0100
1000
0100
0010
0100
1000
,
0000
0000
0001
0000
0100
0000
0010
1000
0000
0001
0010
0100
0010
0001
0010
0100
,
0000
0000
0010
0000
1000
0000
1000
0001
0000
1000
0100
0010
0001
0010
0100
1000
,
0000
0000
0001
0000
0100
0000
0010
0200
0000
0000
0000
0020
0000
0000
0330
0000
,
2000
0001
0001
0001
,
0001
0001
0001
0001
,
3001
0010
0100
1000
,
0100
0010
0001
1000
,
0001
0000
0000
0000
;

//---------------dance-single - ----------------
#NOTES:
     dance-single:
     :
     Medium:
     5:
     0.254291,0.364248,0.123613,0.131854,0.020602,216.000000,201.000000,15.000000,16.000000,0.000000,0.000000,0.254291,0.364248,0.123613,0.131854,0.020602,216.000000,201.000000,15.000000,16.000000,0.000000,0.000000:
0000
0000
0000
0000
,
0000
0000
0000
0000
,
0000
0000
0000
0000
,
0000
0000
0000
0000
,
1000
0000
0000
0001
0010
0000
0000
0000
,
0100
0000
0000
0010
0100
0000
0000
0000
,
1000
0000
0000
0100
1000
0000
0000
0000
,
1000
0000
0001
0000
0000
0011
0000
0000
0010
0000
0000
0110
0000
0000
0000
0000
,
1000
0010
0010
0100
,
0001
0010
0001
0100
,
1000
0010
0100
0001
,
0010
0100
0001
0010
,
0010
1000
0001
0010
,
0100
1000
0100
0001
,
0010
0001
1000
0100
,
0001
0000
0000
0000
0000
0000
0000
0000
0100
0000
0000
0100
0000
0000
1100
0000
,
0100
0010
1000
0001
,
0010
1000
0010
0001
,
0100
1000
0001
0010
,
1000
0100
0010
1000
,
0001
0010
0100
0001
,
1000
0010
1000
0100
,
0001
1000
0010
0001
,
0010
0000
0010
0000
0000
0011
0000
0000
1000
0000
0000
0001
0100
0000
0010
0000
,
0002
0000
0000
0000
,
0023
0000
0000
0000
,
0230
0000
0000
0000
,
0000
0000
0000
0000
,
2300
0000
0000
0000
,
3002
0000
0000
0000
,
0023
0000
0000
0000
,
0230
0000
0000
0000
,
0301
0000
0000
0000
,
1001
0000
0000
0000
,
1100
0000
0000
0000
,
0011
0000
0000
0000
,
0110
0000
1010
0000
,
0101
0000
0000
1100
0000
0000
0011
0000
,
1100
0000
0000
1001
0000
0000
0110
0000
,
0000
0000
0000
0000
,
1000
0010
0100
0001
,
1000
0010
1000
0001
,
0100
0001
0010
0100
,
1000
0010
0100
0001
,
0002
0000
2003
0000
,
3200
0000
0320
0000
,
0032
0203
0320
2030
,
3001
0010
0001
1000
,
0100
1000
0001
0010
,
1000
0001
0100
0001
,
0010
0001
1000
0001
,
0010
0001
0100
1000
,
0010
0001
0100
0001
,
0010
0001
0100
1000
,
0001
0010
1000
0100
,
0001
0100
1000
0010
,
0001
0100
0010
0001
,
1000
0010
0001
0010
,
0001
0010
0100
0010
,
1000
0010
0001
0100
,
1000
0010
0001
0010
,
0100
0010
1000
0100
,
0001
1000
0010
0001
,
0100
0010
0100
0010
,
2000
0000
0000
0000
,
0000
0000
0000
0000
,
3000
0100
0010
1000
,
0010
0100
0001
1000
,
0001
0000
0000
0000
;

//---------------dance-single - ----------------
#NOTES:
     dance-single:
     :
     Easy:
     3:
     0.141273,0.196133,0.000000,0.008241,0.000000,120.000000,120.000000,0.000000,1.000000,0.000000,0.000000,0.141273,0.196133,0.000000,0.008241,0.000000,120.000000,120.000000,0.000000,1.000000,0.000000,0.000000:
// measure 0
0000
0000
0000
0000
,  // measure 1
0000
0000
0000
0000
,  // measure 2
0000
0000
0000
0000
,  // measure 3
0000
0000
0000
0000
,  // measure 4
1000
0000
0100
0000
,  // measure 5
0010
0000
0010
0000
,  // measure 6
1000
0000
1000
0000
,  // measure 7
1000
0001
0100
0100
,  // measure 8
1000
0000
0100
0000
,  // measure 9
0001
0000
0001
0000
,  // measure 10
1000
0000
0010
0000
,  // measure 11
0100
0000
0001
0000
,  // measure 12
0100
0000
0001
0000
,  // measure 13
0010
0000
0010
0000
,  // measure 14
0100
0000
1000
0000
,  // measure 15
0001
0000
0010
0010
,  // measure 16
0010
0000
1000
0000
,  // measure 17
0100
0000
0100
0000
,  // measure 18
0010
0000
0001
0000
,  // measure 19
1000
0000
0100
0000
,  // measure 20
0001
0000
0010
0000
,  // measure 21
1000
0000
1000
0000
,  // measure 22
0001
0000
0100
0000
,  // measure 23
0100
0100
1000
0010
,  // measure 24
0001
0000
0000
0000
,  // measure 25
0100
0000
0000
0000
,  // measure 26
0010
0000
0000
0000
,  // measure 27
0000
0000
0000
0000
,  // measure 28
1000
0000
0000
0000
,  // measure 29
0001
0000
0000
0000
,  // measure 30
0100
0000
0000
0000
,  // measure 31
0010
0000
0000
0000
,  // measure 32
0001
0000
0000
0000
,  // measure 33
1000
0000
0000
0000
,  // measure 34
0010
0000
0000
0000
,  // measure 35
0001
0000
0000
0000
,  // measure 36
0010
0000
1000
0000
,  // measure 37
0001
0000
0000
1000
0000
0000
0001
0000
,  // measure 38
1000
0000
0000
0001
0000
0000
0010
0000
,  // measure 39
1000
0000
0000
0000
,  // measure 40
1000
0000
0010
0000
,  // measure 41
1000
0000
1000
0000
,  // measure 42
0010
0000
0100
0000
,  // measure 43
1000
0000
0010
0000
,  // measure 44
0001
0000
1000
0000
,  // measure 45
0010
0000
0100
0000
,  // measure 46
0001
0010
0100
1000
,  // measure 47
0001
0000
0001
0000
,  // measure 48
0010
0000
0001
0000
,  // measure 49
1000
0000
0010
0000
,  // measure 50
0100
0000
1000
0000
,  // measure 51
0100
0000
0010
0000
,  // measure 52
0100
0000
0010
0000
,  // measure 53
0100
0000
0010
0000
,  // measure 54
0001
0000
1000
0000
,  // measure 55
0001
0000
1000
0000
,  // measure 56
0001
0000
0100
0000
,  // measure 57
1000
0000
0001
0000
,  // measure 58
0001
0000
0010
0000
,  // measure 59
1000
0000
0001
0000
,  // measure 60
1000
0000
0001
0000
,  // measure 61
0010
0000
1000
0000
,  // measure 62
0001
0000
0100
0000
,  // measure 63
0010
0000
0010
0000
,  // measure 64
2000
0000
0000
0000
,  // measure 65
0000
0000
0000
0000
,  // measure 66
3000
0000
0100
0000
,  // measure 67
0100
0000
0001
0000
,  // measure 68
0001
0000
0000
0000
;
