#TITLE:End of Wars;
#SUBTITLE:;
#ARTIST:CROSSWORLD;
#TITLETRANSLIT:;
#SUBTITLETRANSLIT:;
#ARTISTTRANSLIT:;
#GENRE:;
#CREDIT:;
#BANNER:End of Wars.png;
#BACKGROUND:End of Wars-BG.png;
#LYRICSPATH:;
#CDTITLE:;
#MUSIC:End Of Wars.ogg;
#OFFSET:-0.843000;
#SAMPLESTART:47.580002;
#SAMPLELENGTH:12.000000;
#SELECTABLE:YES;
#BPMS:0.000000=285.000000
;
#STOPS:
;
#BGCHANGES:;
#KEYSOUNDS:;
#ATTACKS:;

//---------------dance-single - ----------------
#NOTES:
     dance-single:
     :
     Hard:
     11:
     0.757902,0.968622,0.018914,0.567413,0.000000,561.000000,559.000000,2.000000,60.000000,0.000000,0.000000,0.757902,0.968622,0.018914,0.567413,0.000000,561.000000,559.000000,2.000000,60.000000,0.000000,0.000000:
0000
0000
0000
0000
,
0000
0000
0000
0000
,
0000
0000
0000
0000
,
1000
0000
0100
0000
,
0100
0000
0010
0001
0010
0100
0010
0001
,
1000
0010
0000
0010
0100
0000
0100
0001
,
0000
0001
1000
0000
0010
0000
0100
0000
,
0001
0000
1000
0000
0100
0000
0010
0100
,
0000
0001
0010
0000
0100
0000
0010
1000
,
0000
0001
0100
0000
0010
0000
0010
0100
,
1000
0100
0010
0001
0010
0100
1000
0100
,
0010
0000
0001
0000
1000
0000
0001
0100
,
0000
0100
0010
0000
1000
0000
1000
0001
,
0000
0001
0100
0000
0010
1000
0000
0002
,
0000
0203
0320
2030
,
3001
0000
0100
0000
0010
0000
1000
0010
,
0000
0100
0001
0000
1000
0000
0010
0100
,
0000
0001
1000
0100
0010
0001
0010
0100
,
1000
0100
0000
0020
0000
1030
0100
0010
,
0001
0000
1000
0000
0001
0100
0010
1000
,
0001
0010
0100
1000
0100
0010
0001
0000
,
1000
0010
0100
0001
,
1000
0000
0010
0100
0000
0100
0001
0000
,
2000
0000
0000
0000
,
0000
3000
0020
0000
,
0230
0000
0000
0302
,
0000
0000
2003
0000
,
3010
0000
0100
0000
0001
0000
1000
0010
,
0000
0100
0001
0000
1000
0000
0010
0100
,
0000
0001
1000
0000
0010
0000
1000
0100
,
0000
0020
0000
2000
0000
0000
0000
3030
,
1000
0000
0001
0000
0100
0000
0010
1000
,
0000
0001
0100
0000
0010
0000
1000
0100
,
0000
0010
0001
0000
1000
0000
0001
0100
,
0000
0010
1000
0000
0001
0000
1000
0100
,
0000
0010
0001
0000
1000
0000
0010
0100
,
0000
0100
1000
0000
0001
0000
0001
0100
,
0020
0000
2030
0000
,
3002
0000
0203
0000
,
0310
0000
0001
0000
1000
0000
0100
0010
,
0002
0000
0000
2003
0000
0000
3020
0000
,
0000
0130
0001
0010
,
0200
0000
0000
0320
0000
0000
2030
0000
,
0000
3001
0100
0010
,
2000
0000
0000
3002
0000
0000
0203
0000
,
0000
0310
0100
0001
,
2000
0000
0000
3002
0000
0000
0203
0000
,
0000
0301
0010
0100
,
2000
0000
0000
3200
0000
0000
0320
0000
,
0000
0031
1000
0100
,
0020
0000
0230
0000
,
0302
0000
1000
0000
,
2003
0000
0001
0000
,
3020
0100
0100
0100
,
0130
0010
0000
0010
0000
0010
1000
0000
,
0100
0000
0000
0000
0001
0010
0100
1000
,
0100
0010
0100
1000
0100
0010
0001
0010
,
0100
0010
0001
0010
0100
0010
0000
0010
,
0000
1000
0000
0001
0000
0100
0000
0010
,
0000
0001
1000
0000
1000
0100
0010
0100
,
1000
0100
0010
0001
0010
0100
0000
0100
,
0000
1000
0100
0010
0001
0010
0000
0010
,
0000
0100
2000
0000
0000
0000
0000
0000
,
3020
0000
0130
0000
1000
0001
1000
0001
,
1000
0001
1000
0001
1000
0001
1000
0001
,
1000
0001
1000
0001
1000
0001
0000
0001
,
0000
0200
0000
0000
0000
0000
0000
0300
,
1000
0100
0010
0001
0010
0100
0010
0001
,
0010
0100
1000
0100
0010
0100
1000
0100
,
0010
0001
0010
0100
0010
0001
0010
0100
,
1000
0000
0001
0010
0200
0000
0000
0000
,
0000
0000
0300
0000
1000
0100
0010
0001
,
0010
0100
0010
0001
0010
0100
1000
0100
,
0010
0100
1000
0100
0010
0100
0000
0100
,
0000
0001
0000
1000
0000
0010
0000
0100
,
0000
1000
0001
0000
0001
0010
0100
0010
,
0001
0010
0100
1000
0100
0010
0000
0010
,
0000
0001
0010
0100
1000
0100
0000
0100
,
0000
0010
0002
0000
0000
0000
0000
0000
,
0203
0000
0310
0000
0100
0010
0100
0010
,
0100
0010
0100
0010
0100
0010
0100
0010
,
0100
0010
0100
0010
0100
0010
0000
0010
,
0000
0020
0000
0000
0000
0000
0000
0030
,
0001
0010
0100
1000
0100
0010
0100
1000
,
0100
0010
0001
0010
0100
0010
0001
0010
,
0100
1000
0100
0010
0100
1000
0100
0010
,
0001
0000
1000
0100
0020
0000
0000
0000
,
0000
0030
0000
0000
,
0000
0000
0000
0000
1000
0100
0010
0000
,
0100
0010
0001
0000
1000
0100
1000
0000
,
0001
0010
0001
0000
0100
0010
0100
0000
,
1000
0010
1000
0000
0001
0100
0001
0000
,
1000
0100
0001
0000
1000
0100
0001
0000
,
0001
0010
1000
0000
0001
0010
1000
0000
,
1000
0100
1000
0000
0001
0010
0001
0000
,
0100
0010
0100
0000
0010
0100
0010
0000
,
1000
0010
0100
0000
0001
0100
0010
0000
,
1000
0001
0100
0000
0001
1000
0010
0000
,
1000
0010
1000
0000
0001
0100
0001
0000
,
0010
1000
0010
0000
0100
0001
0100
0000
,
1000
0100
1000
0000
0001
0010
0001
0000
,
0100
0010
0100
0000
0010
0100
0010
0000
,
1000
0100
0010
0000
1000
0100
0010
0000
,
0100
0010
0001
0000
0100
0010
0001
0000
,
1000
0100
0010
0001
0020
0000
1000
0000
,
1000
1000
1000
1030
,
0010
0200
0001
0001
,
0301
0120
0100
0100
,
0230
0010
0302
1000
,
1000
1000
1000
1003
,
0001
0200
0010
0010
,
0010
0320
0100
0130
,
2000
0001
3002
0100
,
0100
0100
0100
0103
,
0001
0010
0200
0001
,
0302
1000
2003
0010
,
3020
0100
0230
0001
,
0001
0001
0301
0010
,
0100
0000
1000
0000
0001
1000
0000
1000
,
0000
0010
0100
0000
0000
0000
0000
0000
,
2002
0000
3003
0000
;

//---------------dance-single - ----------------
#NOTES:
     dance-single:
     :
     Medium:
     8:
     0.548500,0.512800,0.047284,0.340448,0.000000,406.000000,401.000000,5.000000,36.000000,0.000000,0.000000,0.548500,0.512800,0.047284,0.340448,0.000000,406.000000,401.000000,5.000000,36.000000,0.000000,0.000000:
0000
0000
0000
0000
,
0000
0000
0000
0000
,
0000
0000
0000
0000
,
1000
0000
0010
0000
,
1000
0001
0100
0010
,
1000
0100
0100
0010
,
0010
0001
0001
1000
,
1000
0010
0100
0001
,
1000
0010
0100
0001
,
1000
0100
1000
0001
,
0010
0001
1000
0010
,
1000
0001
0100
0001
,
1000
0100
0010
0001
,
0010
0100
1000
0001
,
0010
0100
0010
0001
,
1000
0100
0010
0100
,
1000
0010
0100
0001
,
1000
0100
1000
0010
,
1000
0001
1000
0001
,
0010
0001
0100
0001
,
1000
0001
1000
0100
,
1000
0100
1000
0001
,
0010
0001
0010
0001
,
0100
0010
0100
0010
,
0100
0001
1000
0001
,
1000
0001
1000
0010
,
1000
0010
1000
0001
,
0100
0001
0100
0001
,
1000
0100
0010
0001
,
1000
0010
0100
0001
,
1000
0100
0010
0001
,
0010
0100
1000
0100
,
0010
0001
1000
0100
,
0010
0001
0010
0100
,
1000
0100
0010
0001
,
0010
0100
0010
0001
,
1000
0100
0010
0100
,
1000
0001
0010
0001
,
1000
0100
1000
0010
,
0001
0100
0001
0000
,
2000
3200
0320
0000
,
0030
1000
0001
0100
,
2000
3002
0023
0000
,
0030
1000
0010
1000
,
0002
0203
0320
0000
,
0030
1000
0100
0010
,
0002
2003
3200
0000
,
0300
0010
0100
1000
,
0002
0203
0320
0000
,
0030
0100
0010
0001
,
1001
0000
1010
0000
,
0101
0000
0001
0000
,
1001
0000
1000
0000
,
1000
0100
0010
0001
,
1000
0001
0100
0010
,
1000
0000
0001
0010
,
0100
1000
0100
0010
,
0001
1000
0100
1000
,
0010
0100
0010
0100
,
0010
0100
0001
0010
,
0001
1000
0100
0010
,
0001
0010
0100
1000
,
0001
2000
0000
3000
,
0010
0100
0001
1000
,
0001
1000
0001
1000
,
0001
1000
0001
0010
,
0100
2000
0000
0000
,
3001
0100
0010
1000
,
0100
0010
0001
0010
,
0100
1000
0010
0100
,
0001
1000
0002
0000
,
0000
0003
1000
0100
,
0010
0001
0010
0100
,
1000
0001
0010
0001
,
0100
0010
0100
0010
,
0100
0010
1000
0100
,
1000
0001
0010
0100
,
1000
0100
0010
0001
,
1000
0002
0000
0003
,
0100
0010
0100
0010
,
0100
0010
0100
0010
,
0100
0010
1000
0100
,
0010
0002
0000
0000
,
1003
0010
0100
0001
,
0010
0100
1000
0100
,
0010
0001
0100
0010
,
1000
0001
2000
0000
,
0000
0000
3000
0000
,
1000
0001
1000
0100
,
1000
0001
0010
0001
,
0100
0010
0100
1000
,
0010
1000
0001
0100
,
0001
1000
0100
0010
,
0100
0010
0001
1000
,
0010
0001
1000
0100
,
0001
0001
0010
1000
,
0001
0100
1000
1000
,
0100
1000
0001
0010
,
0001
1000
0010
1000
,
0001
0100
0001
1000
,
0100
0010
0100
0010
,
0001
0001
0010
0100
,
0010
0100
1000
1000
,
0010
0001
0001
0010
,
1000
1000
0100
0001
,
0001
0100
1000
0001
,
0010
0200
0000
0000
,
0000
0320
0000
0000
,
0030
0000
2000
0000
,
0000
0000
0000
3001
,
0100
0020
0000
0000
,
0000
0230
0000
0000
,
0302
0000
2003
0000
,
0000
0000
0000
3020
,
0000
0130
0002
0000
,
2003
0000
3020
0000
,
0230
0000
0302
0000
,
0000
0000
0003
1000
,
0100
0010
0001
0010
,
0100
1000
0000
0000
,
2002
0000
3003
0000
;

//---------------dance-single - ----------------
#NOTES:
     dance-single:
     :
     Easy:
     4:
     0.297217,0.341867,0.009457,0.122940,0.000000,220.000000,219.000000,1.000000,13.000000,0.000000,0.000000,0.297217,0.341867,0.009457,0.122940,0.000000,220.000000,219.000000,1.000000,13.000000,0.000000,0.000000:
// measure 0
0000
0000
0000
0000
,  // measure 1
0000
0000
0000
0000
,  // measure 2
0000
0000
0000
0000
,  // measure 3
1000
0000
0010
0000
,  // measure 4
1000
0000
0001
0000
,  // measure 5
1000
0000
0100
0000
,  // measure 6
0010
0000
0001
0000
,  // measure 7
1000
0000
0100
0000
,  // measure 8
0001
0000
0100
0000
,  // measure 9
1000
0000
0001
0000
,  // measure 10
0010
0000
1000
0000
,  // measure 11
0001
0000
0100
0000
,  // measure 12
1000
0000
0010
0000
,  // measure 13
0001
0000
1000
0000
,  // measure 14
0010
0000
0100
0000
,  // measure 15
1000
0000
0010
0000
,  // measure 16
1000
0000
0001
0000
,  // measure 17
1000
0000
0100
0000
,  // measure 18
0010
0000
0001
0000
,  // measure 19
0010
0000
0100
0000
,  // measure 20
1000
0000
0010
0000
,  // measure 21
0100
0000
0001
0000
,  // measure 22
0010
0000
0010
0000
,  // measure 23
0100
0000
1000
0000
,  // measure 24
0100
0000
0010
0000
,  // measure 25
0001
0000
0010
0000
,  // measure 26
0100
0000
1000
0000
,  // measure 27
0100
0000
0100
0000
,  // measure 28
1000
0000
0010
0000
,  // measure 29
0001
0000
0001
0000
,  // measure 30
0010
0000
1000
0000
,  // measure 31
0010
0000
0100
0000
,  // measure 32
0001
0000
1000
0000
,  // measure 33
0010
0000
0100
0000
,  // measure 34
0001
0000
0010
0000
,  // measure 35
0100
0000
0010
0000
,  // measure 36
0001
0000
1000
0000
,  // measure 37
0100
0000
0010
0000
,  // measure 38
0100
0000
1000
0000
,  // measure 39
0001
0100
0001
0000
,  // measure 40
0020
0000
0000
0000
,  // measure 41
0030
1000
0001
0100
,  // measure 42
0002
0000
0000
0000
,  // measure 43
0003
1000
0010
1000
,  // measure 44
2000
0000
0000
0000
,  // measure 45
3000
1000
0100
0010
,  // measure 46
0002
0000
0000
0000
,  // measure 47
0003
0010
0100
1000
,  // measure 48
0200
0000
0000
0000
,  // measure 49
0300
0100
0010
0001
,  // measure 50
1000
0000
0010
0000
,  // measure 51
0100
0000
0001
0000
,  // measure 52
1000
0000
0010
0000
,  // measure 53
0100
0000
0010
0000
,  // measure 54
1000
0000
0100
0000
,  // measure 55
0001
0000
0001
0000
,  // measure 56
0010
0000
0100
0000
,  // measure 57
0010
0000
0001
0000
,  // measure 58
0010
0000
0100
0000
,  // measure 59
1000
0000
0100
0000
,  // measure 60
0010
0000
0001
0000
,  // measure 61
1000
0000
0010
0000
,  // measure 62
0200
0000
0000
0300
,  // measure 63
0010
0000
1000
0000
,  // measure 64
0001
0000
0100
0000
,  // measure 65
0010
0000
0001
0000
,  // measure 66
2000
0000
0000
0000
,  // measure 67
3000
0000
0010
0000
,  // measure 68
0100
0000
0001
0000
,  // measure 69
0100
0000
0010
0000
,  // measure 70
0001
0000
0002
0000
,  // measure 71
0000
0003
1000
0000
,  // measure 72
0100
0000
0010
0000
,  // measure 73
0001
0000
0010
0000
,  // measure 74
0100
0000
0010
0000
,  // measure 75
0001
0000
1000
0000
,  // measure 76
0100
0000
0010
0000
,  // measure 77
0100
0000
1000
0000
,  // measure 78
0002
0000
0000
0003
,  // measure 79
1000
0000
0100
0000
,  // measure 80
0010
0000
0001
0000
,  // measure 81
0100
0000
0010
0000
,  // measure 82
2000
0000
0000
0000
,  // measure 83
3000
0000
0100
0000
,  // measure 84
0010
0000
1000
0000
,  // measure 85
0001
0000
0100
0000
,  // measure 86
1000
0000
2000
0000
,  // measure 87
0000
0000
3000
0000
,  // measure 88
1000
0000
0001
0000
,  // measure 89
1000
0000
0010
0000
,  // measure 90
0100
0000
0001
0000
,  // measure 91
0010
0000
0100
0000
,  // measure 92
0010
0000
0001
0000
,  // measure 93
1000
0000
0100
0000
,  // measure 94
0010
0000
0100
0000
,  // measure 95
1000
0000
0010
0000
,  // measure 96
0100
0000
0001
0000
,  // measure 97
0100
0000
0010
0000
,  // measure 98
1000
0000
0100
0000
,  // measure 99
0010
0000
0001
0000
,  // measure 100
0010
0000
0100
0000
,  // measure 101
1000
0000
0100
0000
,  // measure 102
1000
0000
0100
0000
,  // measure 103
1000
0000
0001
0000
,  // measure 104
0010
0000
0001
0000
,  // measure 105
0010
0000
0001
0000
,  // measure 106
1000
0000
0000
0000
,  // measure 107
0000
0010
0000
0000
,  // measure 108
0000
0000
1000
0000
,  // measure 109
0000
0000
0000
0001
,  // measure 110
0100
0010
0000
0000
,  // measure 111
0000
0100
0000
0000
,  // measure 112
0001
0000
1000
0000
,  // measure 113
0000
0000
0000
0010
,  // measure 114
0000
0100
0001
0000
,  // measure 115
1000
0000
0010
0000
,  // measure 116
0100
0000
0001
0000
,  // measure 117
0000
0000
0000
1000
,  // measure 118
0000
0010
0000
0100
,  // measure 119
0000
0001
0000
0000
,  // measure 120
2002
0000
3003
0000
;
