#TITLE:Emergency!;
#SUBTITLE:;
#ARTIST:鈴聖;
#TITLETRANSLIT:;
#SUBTITLETRANSLIT:;
#ARTISTTRANSLIT:Rinsei;
#GENRE:;
#CREDIT:;
#BANNER:Emergency.png;
#BACKGROUND:Emergency-BG.png;
#LYRICSPATH:;
#CDTITLE:;
#MUSIC:Emergency.ogg;
#OFFSET:-1.295999;
#SAMPLESTART:89.512001;
#SAMPLELENGTH:12.000000;
#SELECTABLE:YES;
#BPMS:0.000000=185.000000
;
#STOPS:
;
#BGCHANGES:;
#KEYSOUNDS:;
#ATTACKS:;

//---------------dance-single - ----------------
#NOTES:
     dance-single:
     :
     Hard:
     10:
     0.588761,0.663433,0.159157,0.067013,0.033507,492.000000,473.000000,19.000000,8.000000,0.000000,0.000000,0.588761,0.663433,0.159157,0.067013,0.033507,492.000000,473.000000,19.000000,8.000000,0.000000,0.000000:
1000
0100
1000
0001
0000
0010
0100
0010
,
0000
1000
0001
0100
0000
0010
1000
0001
,
0100
0010
1000
0010
0000
1000
0001
0100
,
0000
0010
1000
0001
0000
1000
0001
1000
,
0010
0100
0010
0001
0000
1000
0100
0010
,
0001
0010
0100
1000
0000
0001
0010
0100
,
1000
0100
0010
0001
0000
1000
0010
1000
,
0000
0001
0100
0001
1000
0100
0010
0001
,
0100
0001
0100
0010
0000
1000
0001
1000
,
0000
0100
0010
0001
0000
1000
0100
0010
,
0001
1000
0100
1000
0000
0100
0010
0001
,
0000
1000
0100
0010
0001
0100
0010
0100
,
1000
0001
1000
0010
0000
0100
0001
1000
,
0000
1000
0001
0100
0000
0010
1000
0001
,
0100
0001
1000
0010
0000
0100
1000
0100
,
0000
0010
0001
0010
0100
0001
1000
0010
,
0100
0000
0000
0000
,
0000
0000
0000
0000
,
0000
0000
0100
0000
0010
0100
0000
0010
0000
0000
0100
0000
0010
0100
0000
0010
,
0000
0000
1000
0000
0001
1000
0000
0001
0000
0000
1000
0000
0001
1000
0000
0001
,
1000
0000
0010
0000
0100
0000
0001
0100
,
1000
0000
0010
0000
0100
0000
0001
0010
,
0100
0000
0010
0000
1000
0000
0001
0010
,
0001
1000
0100
0010
,
0001
0000
1000
0000
0010
0000
0100
0010
,
0001
0000
1000
0000
0010
0000
0100
0001
,
1000
0000
0010
0000
0001
0000
0010
0100
,
1000
0001
0100
0000
,
1010
0000
1000
0000
0001
0000
0010
0100
,
0010
0000
0001
0000
0100
0000
0010
1000
,
0010
0000
0100
0000
1000
0000
0001
0100
,
0010
1000
0010
0100
,
0101
0000
0001
0000
1001
0000
1000
0001
,
1001
0000
0010
0000
1010
0000
0100
0001
,
0101
0000
0110
0000
1010
0000
0101
0001
,
0101
0010
1000
0001
,
0001
0010
0001
1000
0000
0100
0010
0100
,
0000
0001
1000
0010
0000
0100
0001
1000
,
0010
0100
0001
0100
0000
0001
1000
0010
,
0000
0100
0001
1000
0000
0001
1000
0001
,
0100
0010
0100
1000
0000
0001
0010
0100
,
0000
0100
0010
0001
0000
1000
0100
0010
,
0001
0010
0100
1000
0000
0001
0100
0001
,
1000
0010
0001
0100
,
0010
1000
0010
0100
0000
0001
1000
0001
,
0000
0010
0100
1000
0000
0001
0010
0100
,
1000
0001
0010
0001
0000
0010
0100
1000
,
0000
0001
0010
0100
0000
1000
0100
0010
,
0001
1000
0001
0100
0000
0010
1000
0001
,
0000
0001
1000
0010
0000
0100
0001
1000
,
0010
1000
0001
0100
0000
0010
0001
0010
,
0100
0000
1000
0100
0010
0000
0001
0000
,
2001
0000
0001
0000
3001
0001
1000
0010
,
0210
0000
0010
0000
0310
0010
0100
1000
,
0102
0100
0100
0100
,
0100
0000
0100
0000
0103
0100
0010
0001
,
2010
0000
0010
0000
3010
0010
1000
0001
,
0201
0000
0001
0000
0301
0001
0100
1000
,
1020
1000
1000
1000
,
1000
0000
1000
0000
1030
1000
0100
0010
,
1002
1000
1000
1000
,
0100
0100
0100
0100
,
0010
0010
0010
0010
,
1000
0000
1000
0000
1003
0000
0001
0010
,
2001
0001
0001
0001
,
0010
0010
0010
0010
,
0100
0100
0100
0100
,
0001
0001
0001
3001
,
1000
0000
0001
0000
0100
0000
0010
1000
,
0001
0000
0100
0000
0001
0000
1000
0001
,
0010
0000
0100
0000
1000
0000
0001
0100
,
0010
0001
1000
0010
,
0100
0000
0010
0000
0001
0000
1000
0100
,
0010
0000
0001
0000
0010
0000
0100
0010
,
1000
0000
0001
0000
0100
0000
0010
0001
,
1000
0010
0100
1000
,
0010
0000
0100
0000
1000
0000
0001
0010
,
0100
0000
1000
0000
0100
0000
0010
0100
,
0001
0000
1000
0000
0010
0000
0100
1000
,
0001
0100
0010
0001
,
0001
0000
1000
0000
0010
0000
0100
0001
,
1000
0000
0010
0000
1000
0000
0001
1000
,
0100
0000
0010
0000
0001
0000
1000
0010
,
0100
1000
0001
0100
,
1000
0000
0001
0000
0100
0000
0010
1000
,
0001
0010
0100
0001
,
1000
0000
0001
0000
0100
0000
0010
1000
,
0001
0010
0100
1000
,
1001
0000
0000
0000
;

//---------------dance-single - ----------------
#NOTES:
     dance-single:
     :
     Medium:
     8:
     0.421227,0.479146,0.016753,0.000000,0.000000,352.000000,350.000000,2.000000,0.000000,0.000000,0.000000,0.421227,0.479146,0.016753,0.000000,0.000000,352.000000,350.000000,2.000000,0.000000,0.000000,0.000000:
1000
0001
0010
0100
,
1000
0100
0010
1000
,
0001
1000
0010
0100
,
0001
1000
0010
0100
,
0010
0001
1000
0001
,
0010
0001
1000
0100
,
0010
0001
0010
0100
,
0010
0001
1000
0010
,
0001
0100
1000
0100
,
0001
0010
0100
0001
,
0100
1000
0001
0010
,
0100
0001
0010
1000
,
0100
1000
0010
0100
,
1000
0100
0001
1000
,
0001
1000
0100
1000
,
0010
0100
0001
1000
,
0001
0000
0000
0000
,
0000
0000
0000
0000
,
0000
0000
0000
0000
,
0000
0000
0000
0000
,
1000
0010
0001
0100
,
1000
0010
0001
0100
,
0001
0010
1000
0100
,
0100
1000
0001
0010
,
0100
1000
0010
0001
,
0100
1000
0010
0001
,
1000
0010
0100
0010
,
1000
0100
0001
0000
,
1010
1000
0100
0010
,
0010
0100
0001
0010
,
0010
0001
1000
0100
,
0010
1000
0010
0001
,
0001
0100
1000
1000
,
0100
0010
1000
0001
,
0100
0001
1000
0001
,
0100
0010
1000
0100
,
0100
0100
0010
0001
,
1000
0010
0001
0100
,
0010
0100
0001
1000
,
0010
0100
0010
1000
,
0001
0010
0001
0010
,
0100
0010
1000
0001
,
0100
0001
1000
0010
,
0100
0010
1000
0001
,
0010
0010
0001
1000
,
0100
0010
0001
0010
,
0100
0010
0001
1000
,
0100
0001
0010
1000
,
0100
0100
1000
0010
,
0001
1000
0100
0001
,
0010
0100
1000
0100
,
0001
1000
0010
0100
,
0001
0000
0001
0000
0001
0001
1000
0010
,
0010
0000
0010
0000
0010
0010
0100
1000
,
0100
0100
0100
0100
,
0100
0000
0100
0000
0100
0100
0010
0001
,
0010
0000
0010
0000
0010
0010
1000
0001
,
0001
0000
0001
0000
0001
0001
0100
1000
,
1000
1000
1000
1000
,
1000
0000
1000
0000
1000
1000
0100
0010
,
1000
1000
1000
1000
,
0100
0100
0100
0100
,
0010
0010
0010
0010
,
0001
0000
0001
0000
0001
0000
0001
0010
,
0001
0001
0001
0001
,
0010
0010
0010
0010
,
0100
0100
0100
0100
,
1000
1000
1000
1000
,
1000
0100
0001
0010
,
0100
0001
0100
1000
,
0010
0100
1000
0100
,
0001
0100
1000
0010
,
0001
0010
0100
1000
,
0010
0100
0010
0001
,
1000
0100
0001
0010
,
1000
0010
0001
1000
,
0010
0001
1000
0100
,
0001
1000
0001
0010
,
0100
1000
0010
0001
,
0100
0001
0010
0100
,
0100
1000
0010
0001
,
1000
0010
1000
0100
,
0001
0010
0100
1000
,
0001
0010
0100
0001
,
1000
0100
0001
0010
,
0100
0010
0001
0100
,
1000
0100
0001
0010
,
0100
0010
0001
1000
,
1001
0000
0000
0000
;

//---------------dance-single - ----------------
#NOTES:
     dance-single:
     :
     Easy:
     3:
     0.184287,0.221144,0.008377,0.067013,0.000000,154.000000,153.000000,1.000000,8.000000,0.000000,0.000000,0.184287,0.221144,0.008377,0.067013,0.000000,154.000000,153.000000,1.000000,8.000000,0.000000,0.000000:
// measure 0
1000
0000
0010
0000
,  // measure 1
0100
0000
0001
0000
,  // measure 2
0010
0000
1000
0000
,  // measure 3
0100
0000
0010
0000
,  // measure 4
0010
0000
1000
0000
,  // measure 5
0010
0000
1000
0000
,  // measure 6
0010
0000
0100
0000
,  // measure 7
0010
0000
1000
0000
,  // measure 8
0100
0000
0001
0000
,  // measure 9
0100
0000
0001
0000
,  // measure 10
0010
0000
1000
0000
,  // measure 11
0001
0000
0010
0000
,  // measure 12
0100
0000
0010
0000
,  // measure 13
0001
0000
1000
0000
,  // measure 14
0100
0000
0001
0000
,  // measure 15
0010
0000
1000
0000
,  // measure 16
0100
0000
0000
0000
,  // measure 17
0000
0000
0000
0000
,  // measure 18
0000
0000
0000
0000
,  // measure 19
0000
0000
0000
0000
,  // measure 20
1000
0000
0100
0000
,  // measure 21
0010
0000
0001
0000
,  // measure 22
0100
0000
1000
0000
,  // measure 23
0001
0000
0010
0000
,  // measure 24
0100
0000
1000
0000
,  // measure 25
0010
0000
0001
0000
,  // measure 26
1000
0000
0010
0000
,  // measure 27
1000
0000
0100
0000
,  // measure 28
0001
0000
1000
0000
,  // measure 29
0010
0000
0100
0000
,  // measure 30
0001
0000
0100
0000
,  // measure 31
0010
0000
1000
0000
,  // measure 32
0100
0000
1000
0000
,  // measure 33
0001
0000
0100
0000
,  // measure 34
0010
0000
1000
0000
,  // measure 35
0001
0000
0010
0000
,  // measure 36
1000
0000
0100
0000
,  // measure 37
0001
0000
0010
0000
,  // measure 38
1000
0000
0100
0000
,  // measure 39
1000
0000
0010
0000
,  // measure 40
0001
0000
0100
0000
,  // measure 41
0001
0000
0010
0000
,  // measure 42
1000
0000
0100
0000
,  // measure 43
0001
0000
1000
0000
,  // measure 44
0001
0000
0100
0000
,  // measure 45
0001
0000
1000
0000
,  // measure 46
0100
0000
0010
0000
,  // measure 47
0001
0000
0010
0000
,  // measure 48
0100
0000
1000
0000
,  // measure 49
0100
0000
0001
0000
,  // measure 50
0010
0000
1000
0000
,  // measure 51
0100
0000
1000
0000
,  // measure 52
0200
0000
0300
1000
,  // measure 53
0020
0000
0030
0001
,  // measure 54
0002
0000
0000
0000
,  // measure 55
0000
0000
0003
0010
,  // measure 56
0020
0000
0030
1000
,  // measure 57
0200
0000
0300
0001
,  // measure 58
2000
0000
0000
0000
,  // measure 59
0000
0000
3000
0001
,  // measure 60
0002
0000
0000
0000
,  // measure 61
0000
0000
0000
0000
,  // measure 62
0000
0000
0000
0000
,  // measure 63
0000
0000
0003
0010
,  // measure 64
2000
0000
0000
0000
,  // measure 65
0000
0000
0000
0000
,  // measure 66
0000
0000
0000
0000
,  // measure 67
0000
0000
0000
3000
,  // measure 68
1000
0000
0100
0000
,  // measure 69
0001
0000
0010
0000
,  // measure 70
1000
0000
0001
0000
,  // measure 71
0010
0000
0100
0000
,  // measure 72
0001
0000
0010
0000
,  // measure 73
1000
0000
0010
0000
,  // measure 74
0001
0000
0100
0000
,  // measure 75
1000
0000
0100
0000
,  // measure 76
0001
0000
0010
0000
,  // measure 77
0001
0000
0100
0000
,  // measure 78
1000
0000
0010
0000
,  // measure 79
0001
0000
0100
0000
,  // measure 80
0010
0000
0001
0000
,  // measure 81
1000
0000
0010
0000
,  // measure 82
0001
0000
0100
0000
,  // measure 83
1000
0000
0001
0000
,  // measure 84
1000
0000
0100
0000
,  // measure 85
0010
0000
0100
0000
,  // measure 86
1000
0000
0001
0000
,  // measure 87
0010
0000
0100
0000
,  // measure 88
1001
0000
0000
0000
;
