#VERSION:0.83;
#TITLE:狂喜蘭舞;
#SUBTITLE:;
#ARTIST:LeaF;
#TITLETRANSLIT:Ecstasy Dance;
#SUBTITLETRANSLIT:;
#ARTISTTRANSLIT:;
#GENRE:;
#ORIGIN:;
#CREDIT:;
#BANNER:Kyoki Ranma.png;
#BACKGROUND:Kyoki Ranma-BG.png;
#PREVIEWVID:;
#JACKET:Kyoki Ranma-Jacket.png;
#CDIMAGE:;
#DISCIMAGE:;
#LYRICSPATH:;
#CDTITLE:;
#MUSIC:Kyoki Ranma.ogg;
#OFFSET:-0.614000;
#SAMPLESTART:58.005001;
#SAMPLELENGTH:24.000000;
#SELECTABLE:YES;
#BPMS:0.000=230.000;
#STOPS:;
#DELAYS:;
#WARPS:;
#TIMESIGNATURES:0.000=4=4;
#TICKCOUNTS:0.000=4;
#COMBOS:0.000=1;
#SPEEDS:0.000=1.000=0.000=0;
#SCROLLS:0.000=1.000;
#FAKES:;
#LABELS:0.000=Song Start;
#BGCHANGES:;
#KEYSOUNDS:;
#ATTACKS:
;

//---------------dance-single - ----------------
#NOTEDATA:;
#CHARTNAME:;
#STEPSTYPE:dance-single;
#DESCRIPTION:;
#CHARTSTYLE:;
#DIFFICULTY:Hard;
#METER:11;
#RADARVALUES:0.683825,0.890712,0.140976,0.166608,0.102528,747.000000,725.000000,22.000000,26.000000,0.000000,0.000000,0.000000,0.000000,0.000000,0.683825,0.890712,0.140976,0.166608,0.102528,747.000000,725.000000,22.000000,26.000000,0.000000,0.000000,0.000000,0.000000,0.000000;
#CREDIT:;
#NOTES:
// measure 0
0000
0000
0000
0000
,  // measure 1
0000
0000
0000
0000
,  // measure 2
1000
0100
0010
0001
,  // measure 3
1000
0010
0100
0000
1000
0000
0001
0000
,  // measure 4
0100
0010
0100
0001
,  // measure 5
1000
0000
0100
0000
0010
0001
0010
0100
,  // measure 6
1000
0000
0000
0000
0010
0000
0100
0000
0010
0000
1000
0100
1000
0000
0001
0000
,  // measure 7
0100
0000
0100
0001
0100
0000
0010
0100
,  // measure 8
0010
0000
0000
0000
1000
0000
0100
0000
0010
0000
1000
0100
1000
0000
0001
0000
,  // measure 9
0100
0010
0100
1000
0001
0000
0100
0010
,  // measure 10
1000
0000
0000
0000
0001
0000
0100
0000
0010
0000
1000
0100
1000
0000
0010
0000
,  // measure 11
0100
0000
0010
0001
0010
0000
0100
0010
,  // measure 12
1000
0000
0000
0000
0010
0000
0100
0000
0001
0000
0010
0100
1000
0000
0001
0000
,  // measure 13
0010
0100
1000
0100
0010
0001
0010
0100
,  // measure 14
0001
0000
0000
0000
1000
0000
0100
0000
1000
0000
0010
0100
0010
0000
1000
0000
,  // measure 15
0001
0000
0010
1000
0001
0000
0010
0100
,  // measure 16
0010
0000
0000
0000
1000
0000
0010
0000
0001
0000
1000
0100
1000
0000
0010
0000
,  // measure 17
0100
0001
0010
0001
1000
0100
1000
0010
,  // measure 18
0100
0000
0000
0000
0020
0000
0030
0000
1000
0000
0100
0010
0001
0000
1000
0000
,  // measure 19
0010
0000
0100
0010
1000
0000
1001
0000
,  // measure 20
0010
0001
0010
0000
0100
0000
0010
0000
0001
0000
0010
0000
0100
0000
0001
0000
,  // measure 21
1000
0010
0100
0000
0020
0000
0030
0000
,  // measure 22
1000
0100
1000
0010
,  // measure 23
0100
0001
0010
0001
,  // measure 24
0100
0010
1000
0001
,  // measure 25
0010
0001
1000
0100
,  // measure 26
1000
0010
0100
1000
,  // measure 27
0010
0100
0001
0010
,  // measure 28
0001
1000
0010
0100
,  // measure 29
0001
1000
0100
1000
,  // measure 30
0002
0000
0000
0000
,  // measure 31
0000
0003
0000
0000
,  // measure 32
0020
0000
0000
0000
,  // measure 33
0000
0000
0030
0200
,  // measure 34
0000
0000
2300
0000
,  // measure 35
3020
0000
0000
0000
,  // measure 36
0000
0000
0000
0000
,  // measure 37
0000
0000
0030
0000
,  // measure 38
0001
0010
0100
1000
,  // measure 39
0010
0100
0001
0010
,  // measure 40
0001
1000
0100
1000
,  // measure 41
0010
0100
0001
0010
,  // measure 42
0100
0010
0001
1000
,  // measure 43
0100
0010
0100
1000
,  // measure 44
0010
0100
0010
0001
,  // measure 45
1000
0010
0100
0001
,  // measure 46
1000
0100
1000
0000
0010
0100
0010
0001
,  // measure 47
0100
0010
1000
0001
0100
0010
1000
0000
,  // measure 48
1010
0101
0110
1001
,  // measure 49
1000
0000
0000
1000
0100
0010
0001
0000
0000
0001
0000
0000
,  // measure 50
0101
0000
0000
0100
0010
1000
0001
0000
0000
1010
0000
0000
,  // measure 51
0101
0000
0010
1000
0100
0000
0010
0100
,  // measure 52
0001
0000
0010
1000
0001
0000
0010
0000
,  // measure 53
0110
1010
0101
0110
,  // measure 54
1000
0100
1000
0100
1000
0000
0010
0000
0100
0000
0001
0000
0010
0000
0100
0000
,  // measure 55
1000
0000
0100
0000
0010
0000
0100
0000
0010
0000
0001
0100
0001
0000
0100
0000
,  // measure 56
0010
1000
0100
1000
0002
0000
0023
0000
,  // measure 57
1030
0000
0100
0000
0010
0000
0001
0000
0010
0000
0100
0001
0100
0000
0010
0000
,  // measure 58
1000
0100
1000
0001
0200
0000
0320
0000
,  // measure 59
1030
0000
0100
0000
0010
1000
0010
0001
,  // measure 60
0020
0000
0030
1000
0200
0000
0310
0001
,  // measure 61
1000
0000
0010
0000
0100
0010
0100
1000
,  // measure 62
0001
0000
1000
0001
1000
0000
0010
0000
,  // measure 63
1000
0000
0010
0000
0100
0000
0001
0000
1000
0000
0010
0100
0010
0000
1000
0000
,  // measure 64
0001
0010
0100
0010
0100
0000
0001
0000
,  // measure 65
1000
0000
0100
0000
0010
0000
0100
0000
1000
0000
0001
0010
0100
0000
1000
0000
,  // measure 66
0010
0100
1000
0001
0100
0000
0001
0000
,  // measure 67
0010
0000
0100
0000
0010
0100
0010
1000
,  // measure 68
0001
0000
0010
0200
0000
0300
0100
0010
,  // measure 69
1000
0000
0001
0000
0100
0010
0100
1000
,  // measure 70
0001
0010
0100
0010
2000
0000
3000
0000
,  // measure 71
0001
0100
0010
1000
,  // measure 72
0100
1000
0001
0010
,  // measure 73
0001
0100
0010
1000
,  // measure 74
0001
0100
1000
0001
,  // measure 75
0010
0100
0010
0100
,  // measure 76
1000
0001
0100
0010
,  // measure 77
1000
0100
1000
0001
,  // measure 78
0010
0000
0001
0000
,  // measure 79
1000
0000
0001
0100
0010
0000
0100
1000
,  // measure 80
0001
0010
0001
0100
0010
0000
0100
0000
,  // measure 81
0010
0000
0100
0000
1000
0000
0001
0000
0010
0100
0010
0000
1000
0000
0100
0000
,  // measure 82
0010
0001
1000
0100
0010
0000
0100
0000
,  // measure 83
0001
0010
0100
0100
,  // measure 84
0010
0000
0000
1000
0001
0000
0100
0010
,  // measure 85
1000
0000
0001
0000
0100
0000
0010
0100
,  // measure 86
0010
0000
1000
0001
1000
0000
0010
0000
,  // measure 87
0100
0100
0010
0010
,  // measure 88
1000
1000
0001
0001
,  // measure 89
1000
0100
1000
0001
,  // measure 90
0010
0001
0100
0010
,  // measure 91
1100
1000
0001
1000
,  // measure 92
1010
0010
0100
0001
,  // measure 93
0011
0010
0100
1000
,  // measure 94
1001
0100
0010
1000
,  // measure 95
0002
0000
0023
0000
,  // measure 96
0230
0000
2300
0000
,  // measure 97
3001
0000
0010
0000
0100
0000
0010
0000
0001
1000
0001
0000
0100
0000
0010
0000
,  // measure 98
0000
1001
1001
1001
0010
0000
0100
0000
,  // measure 99
1000
0100
0010
0001
0100
0010
1000
0100
,  // measure 100
1000
0001
0010
0001
0100
0000
0100
0000
,  // measure 101
0010
0000
0000
0000
1000
0000
0000
0000
0001
0000
0100
0001
0100
0000
0010
0000
,  // measure 102
1000
0000
0100
0020
0000
0030
0100
0001
,  // measure 103
1000
0000
0010
0000
0100
0010
1000
0100
,  // measure 104
1000
0001
0010
0001
2000
0000
0000
0000
,  // measure 105
3001
0000
0010
0000
0100
0000
0010
0000
0100
0000
1000
0001
1000
0000
0100
0000
,  // measure 106
0010
1000
0100
0010
0001
0000
0100
0000
,  // measure 107
1000
0000
0010
0000
0100
0000
0001
0000
0010
0100
0010
0000
1000
0000
0100
0000
,  // measure 108
1000
0001
0010
0100
1000
0000
0001
0000
,  // measure 109
0010
0000
0100
0000
0010
0100
0010
0001
,  // measure 110
2000
0000
0000
0000
3001
0100
0010
1000
,  // measure 111
0010
0000
0100
0000
0001
0100
0010
1000
,  // measure 112
0100
0000
0010
0000
0001
0000
1000
0000
0001
0000
0010
0000
0100
0010
0100
0000
,  // measure 113
1000
0010
0100
0001
,  // measure 114
1001
0000
0000
1000
0000
0000
0010
0000
0000
0100
0000
0000
0001
0000
0010
0000
0100
0000
1000
0000
0000
0000
0000
0000
,  // measure 115
1001
0001
0010
0100
,  // measure 116
0110
0000
0000
0100
0000
0000
0010
0000
0000
1000
0000
0000
0001
0000
0000
0010
0000
0000
0200
0000
0000
0010
0300
0000
,  // measure 117
1000
0001
1000
0000
1000
0100
0001
0000
,  // measure 118
0010
0100
0010
0000
0100
0001
0100
0000
,  // measure 119
0010
0010
0100
0100
,  // measure 120
0002
0000
0000
0000
,  // measure 121
1003
0000
0100
0000
1000
0000
0010
0000
0100
0000
0001
0010
0001
0000
1000
0000
,  // measure 122
0100
0000
0010
0100
0001
0000
0100
0000
,  // measure 123
1000
0000
0010
0000
0100
0000
0001
0000
0100
0000
0010
1000
0010
0000
0100
0000
,  // measure 124
0001
1000
0100
1000
0010
0000
0100
0000
,  // measure 125
0001
0000
0000
0000
0100
0000
0000
0000
0010
0100
0010
0000
1000
0000
0100
0000
,  // measure 126
0010
0000
0001
0100
0010
0000
0100
1000
,  // measure 127
0001
0000
0010
0000
0100
0000
0010
1000
,  // measure 128
0001
0000
1000
0100
1000
0000
0010
0000
,  // measure 129
0001
0000
0010
0000
0001
0000
0100
0000
0010
0000
1000
0100
1000
0000
0001
0000
,  // measure 130
0010
0000
0100
0010
1000
0000
0010
0000
,  // measure 131
0001
0000
0100
0000
0010
0000
1000
0000
0010
0000
0100
0001
0100
0000
0010
0000
,  // measure 132
1000
0001
0010
0001
0100
0000
0010
0000
,  // measure 133
1000
0000
0000
0000
0010
0000
0000
0000
0100
0010
0100
0000
0001
0000
0010
0000
,  // measure 134
0100
0000
1000
0010
0100
0000
0010
0001
,  // measure 135
1000
0000
0100
0000
0010
0000
0100
0001
,  // measure 136
1000
0000
0001
0010
0002
0000
0000
0000
,  // measure 137
0000
0000
0000
0000
,  // measure 138
2000
0000
0000
0000
,  // measure 139
3003
0000
0000
0000
;

//---------------dance-single - ----------------
#NOTEDATA:;
#CHARTNAME:;
#STEPSTYPE:dance-single;
#DESCRIPTION:;
#CHARTSTYLE:;
#DIFFICULTY:Medium;
#METER:8;
#RADARVALUES:0.466868,0.578963,0.070488,0.153792,0.000000,510.000000,499.000000,11.000000,24.000000,0.000000,0.000000,0.000000,0.000000,0.000000,0.466868,0.578963,0.070488,0.153792,0.000000,510.000000,499.000000,11.000000,24.000000,0.000000,0.000000,0.000000,0.000000,0.000000;
#CREDIT:;
#NOTES:
0000
0000
0000
0000
,
0000
0000
0000
0000
,
1000
0100
0010
0001
,
1000
0100
1000
0001
,
0100
0010
0100
0001
,
1000
0100
0010
0010
,
1000
0010
0010
1000
,
0100
0100
0100
0010
,
0010
1000
0010
1000
,
0100
0100
0001
0100
,
1000
0001
0010
1000
,
0100
0010
0010
0100
,
1000
0010
0001
1000
,
0010
1000
0010
0010
,
0001
1000
1000
0010
,
0001
0010
0001
0010
,
0010
1000
0001
1000
,
0100
0010
1000
1000
,
0100
0000
0020
0030
1000
0000
0001
0000
,
0010
0100
1000
1001
,
0010
0100
0001
0100
,
1000
0100
0020
0030
,
1000
0100
1000
0010
,
0100
0001
0010
0001
,
0100
0010
1000
0001
,
0010
0001
1000
0100
,
1000
0010
0100
1000
,
0010
0100
0001
0010
,
0001
1000
0010
0100
,
0001
1000
0100
1000
,
0002
0000
0000
0000
,
0000
0003
0000
0000
,
0020
0000
0000
0000
,
0000
0000
0030
0200
,
0000
0000
2300
0000
,
3020
0000
0000
0000
,
0000
0000
0000
0000
,
0000
0000
0030
0000
,
0001
0010
0100
1000
,
0010
0100
0001
0010
,
0001
1000
0100
1000
,
0010
0100
0001
0010
,
0100
0010
0001
1000
,
0100
0010
0100
1000
,
0010
0100
0010
0001
,
1000
0010
0100
0001
,
1000
1000
0010
0010
,
0100
1000
0100
1000
,
1010
0101
0110
1001
,
1000
1000
0001
0001
,
0100
0100
0001
1010
,
0101
0010
0100
0010
,
0001
0010
0001
0010
,
0100
1000
0001
0010
,
1000
1000
0100
0010
,
1000
0010
0010
0001
,
0010
0100
0002
0023
,
1030
0010
0010
0100
,
1000
1000
0200
0320
,
1030
0100
0010
0010
,
0020
0030
0200
0310
,
1000
0010
0100
0100
,
0001
1000
1000
0010
,
1000
0100
1000
0010
,
0001
0100
0100
0001
,
1000
0010
1000
0100
,
0010
1000
0100
0001
,
0010
0100
0010
0010
,
0001
0010
0010
0100
,
1000
0001
0100
0100
,
0001
0100
2000
3000
,
0001
0100
0010
1000
,
0100
1000
0001
0010
,
0001
0100
0010
1000
,
0001
0100
1000
0001
,
0010
0100
0010
0100
,
1000
0001
0100
0010
,
1000
0100
1000
0001
,
0010
0000
0001
0000
,
1000
0001
0010
0100
,
0001
0001
0010
0100
,
0010
1000
0010
1000
,
0010
1000
0010
0100
,
0001
0010
0100
0100
,
0010
0100
0001
0100
,
1000
0001
0100
0010
,
0010
1000
1000
0010
,
0100
0100
0010
0010
,
1000
1000
0001
0001
,
1000
0100
1000
0001
,
0010
0001
0100
0010
,
1000
1000
0001
1000
,
0010
0010
0100
0001
,
0001
0010
0100
1000
,
0001
0100
0010
1000
,
0002
0000
0023
0000
,
0230
0000
2300
0000
,
3001
0100
0001
0100
,
0010
0011
0010
0100
,
1000
0010
0100
1000
,
1000
0010
0100
0100
,
0010
1000
0001
0100
,
1000
0100
0010
0100
,
1000
0010
0100
1000
,
1000
0010
2000
0000
,
3001
0100
0100
1000
,
0010
0100
0001
0100
,
1000
0100
0010
1000
,
1000
0010
1000
0001
,
0010
0100
0010
0010
,
2000
0000
3001
0010
,
0010
0100
0001
0010
,
0100
0001
0001
0100
,
1000
0010
0100
0001
,
1001
0010
0001
1000
,
1001
0001
0010
0100
,
0110
0000
0000
0010
0000
0000
0001
0000
0000
0200
0000
0300
,
1000
1000
1000
0001
,
0010
0010
0100
0100
,
0010
0010
0100
0100
,
0002
0000
0000
0000
,
1003
1000
0100
0001
,
0100
0010
0001
0100
,
1000
0100
0100
0010
,
0001
0100
0010
0100
,
0001
0100
0010
1000
,
0010
0001
0010
0100
,
0001
0010
0100
0010
,
0001
1000
1000
0010
,
0001
0001
0010
1000
,
0010
0100
1000
0010
,
0001
0010
0010
0100
,
1000
0010
0100
0010
,
1000
0010
0100
0001
,
0100
1000
0100
0010
,
1000
0100
0010
0100
,
1000
0010
0002
0000
,
0000
0000
0000
0000
,
2000
0000
0000
0000
,
3003
0000
0000
0000
;

//---------------dance-single - ----------------
#NOTEDATA:;
#CHARTNAME:;
#STEPSTYPE:dance-single;
#DESCRIPTION:;
#CHARTSTYLE:;
#DIFFICULTY:Easy;
#METER:4;
#RADARVALUES:0.239842,0.311749,0.000000,0.006408,0.000000,262.000000,262.000000,0.000000,1.000000,0.000000,0.000000,0.000000,0.000000,0.000000,0.239842,0.311749,0.000000,0.006408,0.000000,262.000000,262.000000,0.000000,1.000000,0.000000,0.000000,0.000000,0.000000,0.000000;
#CREDIT:;
#NOTES:
0000
0000
0000
0000
,
0000
0000
0000
0000
,
1000
0000
0010
0000
,
1000
0000
1000
0000
,
0100
0000
0100
0000
,
1000
0000
0010
0000
,
1000
0000
0010
0000
,
0100
0000
0100
0000
,
0010
0000
0010
0000
,
0100
0000
0001
0000
,
1000
0000
0010
0000
,
0100
0000
0010
0000
,
1000
0000
0001
0000
,
0010
0000
0010
0000
,
0001
0000
1000
0000
,
0001
0000
0001
0000
,
0010
0000
0001
0000
,
0100
0000
1000
0000
,
0100
0000
1000
0000
,
0010
0000
1000
0000
,
0010
0000
0001
0000
,
1000
0000
0010
0000
,
1000
0000
1000
0000
,
0100
0000
0010
0000
,
0100
0000
1000
0000
,
0010
0000
1000
0000
,
1000
0000
0100
0000
,
0010
0000
0001
0000
,
0001
0000
0010
0000
,
0001
0000
0100
0000
,
0001
0000
0000
0000
,
0000
0000
0000
0000
,
0010
0000
0000
0000
,
0000
0000
0000
0100
,
0000
0000
1000
0000
,
0010
0000
0000
0000
,
0000
0000
0000
0000
,
0000
0000
0000
0000
,
0001
0000
0100
0000
,
0010
0000
0001
0000
,
0001
0000
0100
0000
,
0010
0000
0001
0000
,
0100
0000
0001
0000
,
0100
0000
0100
0000
,
0010
0000
0010
0000
,
1000
0000
0100
0000
,
1000
0000
0010
0000
,
0100
0000
0100
0000
,
1000
0001
0100
0001
,
1000
0000
0001
0000
,
0100
0000
0001
1000
,
0100
0010
0000
0010
,
0000
0010
0000
0010
,
0000
1000
0000
0010
,
0000
1000
0000
0010
,
0000
0010
0000
0001
,
0000
0100
0000
0010
,
0000
0010
0000
0100
,
0000
1000
0000
0010
,
0000
0100
0000
0010
,
0000
0100
0000
0010
,
0000
0010
0000
0100
,
0000
1000
0000
0010
,
1000
0000
1000
0000
,
0001
0000
0100
0000
,
1000
0000
1000
0000
,
0010
0000
0100
0000
,
0010
0000
0010
0000
,
0001
0000
0010
0000
,
1000
0000
0100
0000
,
0001
0000
1000
0000
,
0001
0000
0010
0000
,
0100
0000
0001
0000
,
0001
0000
0010
0000
,
0001
0000
1000
0000
,
0010
0000
0010
0000
,
1000
0000
0100
0000
,
1000
0000
1000
0000
,
0010
0000
0001
0000
,
1000
0000
0010
0000
,
0001
0000
0010
0000
,
0010
0000
0010
0000
,
0010
0000
0010
0000
,
0001
0000
0100
0000
,
0010
0000
0001
0000
,
1000
0000
0100
0000
,
0010
0000
1000
0000
,
0100
0000
0010
0000
,
1000
0000
0001
0000
,
1000
0000
1000
0000
,
0010
0000
0100
0000
,
1000
0000
0001
0000
,
0010
0000
0100
0000
,
0001
0000
0100
0000
,
0001
0000
0010
0000
,
0001
0000
0010
0000
,
0100
0000
1000
0000
,
0001
0000
0001
0000
,
0010
0000
0010
0000
,
1000
0000
0100
0000
,
1000
0000
0100
0000
,
0010
0000
0001
0000
,
1000
0000
0010
0000
,
1000
0000
0100
0000
,
1000
0000
1000
0000
,
0001
0000
0100
0000
,
0010
0000
0001
0000
,
1000
0000
0010
0000
,
1000
0000
1000
0000
,
0010
0000
0010
0000
,
1000
0000
0001
0000
,
0010
0000
0001
0000
,
0100
0000
0001
0000
,
1000
0000
0100
0000
,
1000
0000
0001
0000
,
1000
0000
0010
0000
,
0100
0000
0001
0000
,
1000
0000
1000
0000
,
0010
0000
0100
0000
,
0010
0000
0100
0000
,
0001
0000
0000
0000
,
1000
0000
0100
0000
,
0100
0000
0001
0000
,
1000
0000
0100
0000
,
0001
0000
0010
0000
,
0001
0000
0010
0000
,
0010
0000
0010
0000
,
0001
0000
0100
0000
,
0001
0000
1000
0000
,
0001
0000
0010
0000
,
0010
0000
1000
0000
,
0001
0000
0010
0000
,
1000
0000
0100
0000
,
1000
0000
0100
0000
,
0100
0000
0100
0000
,
1000
0000
0010
0000
,
1000
0000
0002
0000
,
0000
0000
0000
0000
,
0000
0000
0000
0000
,
0003
0000
0000
0000
;
